  0
SECTION
  2
HEADER
  9
$ACADVER
  1
AC1021
  9
$ACADMAINTVER
 70
     1
  9
$DWGCODEPAGE
  3
ANSI_1252
  9
$LASTSAVEDBY
  1
RSutcliffe
  9
$INSBASE
 10
0.0
 20
0.0
 30
0.0
  9
$EXTMIN
 10
51.37988430491247
 20
115.598775939608
 30
-0.0015258207003583
  9
$EXTMAX
 10
287.3642957541402
 20
275.2147829248429
 30
0.0000000349246037
  9
$LIMMIN
 10
0.0
 20
0.0
  9
$LIMMAX
 10
17.0
 20
11.0
  9
$ORTHOMODE
 70
     1
  9
$REGENMODE
 70
     1
  9
$FILLMODE
 70
     1
  9
$QTEXTMODE
 70
     0
  9
$MIRRTEXT
 70
     1
  9
$LTSCALE
 40
20.0
  9
$ATTMODE
 70
     1
  9
$TEXTSIZE
 40
2.0
  9
$TRACEWID
 40
0.05
  9
$TEXTSTYLE
  7
WEB PAGE
  9
$CLAYER
  8
0
  9
$CELTYPE
  6
BYLAYER
  9
$CECOLOR
 62
   256
  9
$CELTSCALE
 40
1.0
  9
$DISPSILH
 70
     0
  9
$DIMSCALE
 40
1.0
  9
$DIMASZ
 40
3.0
  9
$DIMEXO
 40
2.0
  9
$DIMDLI
 40
1.0
  9
$DIMRND
 40
0.0
  9
$DIMDLE
 40
0.0
  9
$DIMEXE
 40
1.0
  9
$DIMTP
 40
0.0
  9
$DIMTM
 40
0.0
  9
$DIMTXT
 40
1.75
  9
$DIMCEN
 40
1.0
  9
$DIMTSZ
 40
0.0
  9
$DIMTOL
 70
     0
  9
$DIMLIM
 70
     0
  9
$DIMTIH
 70
     1
  9
$DIMTOH
 70
     1
  9
$DIMSE1
 70
     0
  9
$DIMSE2
 70
     0
  9
$DIMTAD
 70
     0
  9
$DIMZIN
 70
     0
  9
$DIMBLK
  1

  9
$DIMASO
 70
     1
  9
$DIMSHO
 70
     1
  9
$DIMPOST
  1

  9
$DIMAPOST
  1

  9
$DIMALT
 70
     0
  9
$DIMALTD
 70
     2
  9
$DIMALTF
 40
25.4
  9
$DIMLFAC
 40
1.0
  9
$DIMTOFL
 70
     0
  9
$DIMTVP
 40
0.0
  9
$DIMTIX
 70
     0
  9
$DIMSOXD
 70
     0
  9
$DIMSAH
 70
     0
  9
$DIMBLK1
  1

  9
$DIMBLK2
  1

  9
$DIMSTYLE
  2
STANDARD
  9
$DIMCLRD
 70
     0
  9
$DIMCLRE
 70
     0
  9
$DIMCLRT
 70
     0
  9
$DIMTFAC
 40
1.0
  9
$DIMGAP
 40
1.0
  9
$DIMJUST
 70
     0
  9
$DIMSD1
 70
     0
  9
$DIMSD2
 70
     0
  9
$DIMTOLJ
 70
     1
  9
$DIMTZIN
 70
     0
  9
$DIMALTZ
 70
     0
  9
$DIMALTTZ
 70
     0
  9
$DIMUPT
 70
     0
  9
$DIMDEC
 70
     4
  9
$DIMTDEC
 70
     4
  9
$DIMALTU
 70
     2
  9
$DIMALTTD
 70
     2
  9
$DIMTXSTY
  7
WEB PAGE
  9
$DIMAUNIT
 70
     0
  9
$DIMADEC
 70
     0
  9
$DIMALTRND
 40
0.0
  9
$DIMAZIN
 70
     0
  9
$DIMDSEP
 70
    46
  9
$DIMATFIT
 70
     3
  9
$DIMFRAC
 70
     2
  9
$DIMLDRBLK
  1

  9
$DIMLUNIT
 70
     4
  9
$DIMLWD
 70
    -2
  9
$DIMLWE
 70
    -2
  9
$DIMTMOVE
 70
     0
  9
$DIMFXL
 40
1.0
  9
$DIMFXLON
 70
     0
  9
$DIMJOGANG
 40
0.7853981633974483
  9
$DIMTFILL
 70
     0
  9
$DIMTFILLCLR
 70
     0
  9
$DIMARCSYM
 70
     0
  9
$DIMLTYPE
  6

  9
$DIMLTEX1
  6

  9
$DIMLTEX2
  6

  9
$LUNITS
 70
     4
  9
$LUPREC
 70
     4
  9
$SKETCHINC
 40
0.1
  9
$FILLETRAD
 40
0.0
  9
$AUNITS
 70
     1
  9
$AUPREC
 70
     4
  9
$MENU
  1
acad
  9
$ELEVATION
 40
0.0
  9
$PELEVATION
 40
0.0
  9
$THICKNESS
 40
0.0
  9
$LIMCHECK
 70
     0
  9
$CHAMFERA
 40
0.0
  9
$CHAMFERB
 40
0.0
  9
$CHAMFERC
 40
0.0
  9
$CHAMFERD
 40
0.0
  9
$SKPOLY
 70
     0
  9
$TDCREATE
 40
2451029.636190972
  9
$TDUCREATE
 40
2451029.844524306
  9
$TDUPDATE
 40
2454099.400373437
  9
$TDUUPDATE
 40
2454099.608706771
  9
$TDINDWG
 40
3.2072731829
  9
$TDUSRTIMER
 40
3.2072731829
  9
$USRTIMER
 70
     1
  9
$ANGBASE
 50
0.0
  9
$ANGDIR
 70
     0
  9
$PDMODE
 70
     2
  9
$PDSIZE
 40
0.0
  9
$PLINEWID
 40
0.0
  9
$SPLFRAME
 70
     0
  9
$SPLINETYPE
 70
     6
  9
$SPLINESEGS
 70
     8
  9
$HANDSEED
  5
134E3
  9
$SURFTAB1
 70
     6
  9
$SURFTAB2
 70
     6
  9
$SURFTYPE
 70
     6
  9
$SURFU
 70
     6
  9
$SURFV
 70
     6
  9
$UCSBASE
  2

  9
$UCSNAME
  2

  9
$UCSORG
 10
0.0
 20
0.0
 30
0.0
  9
$UCSXDIR
 10
1.0
 20
0.0
 30
0.0
  9
$UCSYDIR
 10
0.0
 20
1.0
 30
0.0
  9
$UCSORTHOREF
  2

  9
$UCSORTHOVIEW
 70
     0
  9
$UCSORGTOP
 10
0.0
 20
0.0
 30
0.0
  9
$UCSORGBOTTOM
 10
0.0
 20
0.0
 30
0.0
  9
$UCSORGLEFT
 10
0.0
 20
0.0
 30
0.0
  9
$UCSORGRIGHT
 10
0.0
 20
0.0
 30
0.0
  9
$UCSORGFRONT
 10
0.0
 20
0.0
 30
0.0
  9
$UCSORGBACK
 10
0.0
 20
0.0
 30
0.0
  9
$PUCSBASE
  2

  9
$PUCSNAME
  2

  9
$PUCSORG
 10
0.0
 20
0.0
 30
0.0
  9
$PUCSXDIR
 10
1.0
 20
0.0
 30
0.0
  9
$PUCSYDIR
 10
0.0
 20
1.0
 30
0.0
  9
$PUCSORTHOREF
  2

  9
$PUCSORTHOVIEW
 70
     0
  9
$PUCSORGTOP
 10
0.0
 20
0.0
 30
0.0
  9
$PUCSORGBOTTOM
 10
0.0
 20
0.0
 30
0.0
  9
$PUCSORGLEFT
 10
0.0
 20
0.0
 30
0.0
  9
$PUCSORGRIGHT
 10
0.0
 20
0.0
 30
0.0
  9
$PUCSORGFRONT
 10
0.0
 20
0.0
 30
0.0
  9
$PUCSORGBACK
 10
0.0
 20
0.0
 30
0.0
  9
$USERI1
 70
     0
  9
$USERI2
 70
     0
  9
$USERI3
 70
     0
  9
$USERI4
 70
     0
  9
$USERI5
 70
     0
  9
$USERR1
 40
0.0
  9
$USERR2
 40
0.0
  9
$USERR3
 40
0.0
  9
$USERR4
 40
0.0
  9
$USERR5
 40
0.0
  9
$WORLDVIEW
 70
     1
  9
$SHADEDGE
 70
     3
  9
$SHADEDIF
 70
    70
  9
$TILEMODE
 70
     1
  9
$MAXACTVP
 70
    16
  9
$PINSBASE
 10
0.0
 20
0.0
 30
0.0
  9
$PLIMCHECK
 70
     0
  9
$PEXTMIN
 10
0.1725343233829846
 20
0.11033793218167
 30
0.0
  9
$PEXTMAX
 10
7.970382257196629
 20
10.38887614169813
 30
0.0
  9
$PLIMMIN
 10
-0.161649064214197
 20
-0.1796601428046904
  9
$PLIMMAX
 10
8.338350695489911
 20
10.82033961689941
  9
$UNITMODE
 70
     0
  9
$VISRETAIN
 70
     0
  9
$PLINEGEN
 70
     0
  9
$PSLTSCALE
 70
     1
  9
$TREEDEPTH
 70
  3020
  9
$CMLSTYLE
  2
STANDARD
  9
$CMLJUST
 70
     0
  9
$CMLSCALE
 40
1.0
  9
$PROXYGRAPHICS
 70
     1
  9
$MEASUREMENT
 70
     0
  9
$CELWEIGHT
370
    -1
  9
$ENDCAPS
280
     0
  9
$JOINSTYLE
280
     0
  9
$LWDISPLAY
290
     0
  9
$INSUNITS
 70
     1
  9
$HYPERLINKBASE
  1

  9
$STYLESHEET
  1

  9
$XEDIT
290
     1
  9
$CEPSNTYPE
380
     0
  9
$PSTYLEMODE
290
     1
  9
$FINGERPRINTGUID
  2
{EED38BEA-5B6B-467F-90D5-C3127D1C881D}
  9
$VERSIONGUID
  2
{3AB5A7E0-BB46-490A-9A26-CB0E8F316EFA}
  9
$EXTNAMES
290
     1
  9
$PSVPSCALE
 40
0.0
  9
$OLESTARTUP
290
     0
  9
$SORTENTS
280
    96
  9
$INDEXCTL
280
     0
  9
$HIDETEXT
280
     0
  9
$XCLIPFRAME
290
     0
  9
$HALOGAP
280
     0
  9
$OBSCOLOR
 70
   257
  9
$OBSLTYPE
280
     0
  9
$INTERSECTIONDISPLAY
280
     0
  9
$INTERSECTIONCOLOR
 70
   257
  9
$DIMASSOC
280
     1
  9
$PROJECTNAME
  1

  9
$CAMERADISPLAY
290
     0
  9
$LENSLENGTH
 40
50.0
  9
$CAMERAHEIGHT
 40
0.0
  9
$STEPSPERSEC
 40
2.0
  9
$STEPSIZE
 40
6.0
  9
$3DDWFPREC
 40
2.0
  9
$PSOLWIDTH
 40
0.25
  9
$PSOLHEIGHT
 40
4.0
  9
$LOFTANG1
 40
1.570796326794896
  9
$LOFTANG2
 40
1.570796326794896
  9
$LOFTMAG1
 40
0.0
  9
$LOFTMAG2
 40
0.0
  9
$LOFTPARAM
 70
     7
  9
$LOFTNORMALS
280
     1
  9
$LATITUDE
 40
37.795
  9
$LONGITUDE
 40
-122.394
  9
$NORTHDIRECTION
 40
0.0
  9
$TIMEZONE
 70
 -8000
  9
$LIGHTGLYPHDISPLAY
280
     1
  9
$TILEMODELIGHTSYNCH
280
     1
  9
$CMATERIAL
347
13263
  9
$SOLIDHIST
280
     1
  9
$SHOWHIST
280
     1
  9
$DWFFRAME
280
     2
  9
$DGNFRAME
280
     0
  9
$REALWORLDSCALE
290
     1
  9
$INTERFERECOLOR
 62
     1
  9
$INTERFEREOBJVS
345
13270
  9
$INTERFEREVPVS
346
1326D
  9
$CSHADOW
280
     0
  9
$SHADOWPLANELOCATION
 40
0.0
  0
ENDSEC
  0
SECTION
  2
CLASSES
  0
CLASS
  1
DICTIONARYVAR
  2
AcDbDictionaryVar
  3
ObjectDBX Classes
 90
        0
 91
        3
280
     0
281
     0
  0
CLASS
  1
ACDBDICTIONARYWDFLT
  2
AcDbDictionaryWithDefault
  3
ObjectDBX Classes
 90
        0
 91
        1
280
     0
281
     0
  0
CLASS
  1
MATERIAL
  2
AcDbMaterial
  3
ObjectDBX Classes
 90
     1024
 91
        3
280
     0
281
     0
  0
CLASS
  1
VISUALSTYLE
  2
AcDbVisualStyle
  3
ObjectDBX Classes
 90
     4095
 91
       16
280
     0
281
     0
  0
CLASS
  1
TABLESTYLE
  2
AcDbTableStyle
  3
ObjectDBX Classes
 90
     4095
 91
        1
280
     0
281
     0
  0
CLASS
  1
SORTENTSTABLE
  2
AcDbSortentsTable
  3
ObjectDBX Classes
 90
        0
 91
        1
280
     0
281
     0
  0
ENDSEC
  0
SECTION
  2
TABLES
  0
TABLE
  2
VPORT
  5
8
102
{ACAD_XDICTIONARY
360
13457
102
}
330
0
100
AcDbSymbolTable
 70
     1
  0
VPORT
  5
13261
330
8
100
AcDbSymbolTableRecord
100
AcDbViewportTableRecord
  2
*Active
 70
     0
 10
0.0
 20
0.0
 11
1.0
 21
1.0
 12
169.3720900295263
 22
195.4067794322254
 13
0.0
 23
0.0
 14
1.0
 24
1.0
 15
0.25
 25
0.25
 16
0.0
 26
0.0
 36
1.0
 17
0.0
 27
0.0
 37
0.0
 40
160.8485630237309
 41
1.542525773195876
 42
50.0
 43
0.0
 44
0.0
 50
90.0
 51
0.0
 71
     0
 72
   100
 73
     1
 74
     0
 75
     1
 76
     0
 77
     0
 78
     0
281
     0
 65
     1
110
0.0
120
0.0
130
0.0
111
1.0
121
0.0
131
0.0
112
0.0
122
1.0
132
0.0
 79
     0
146
0.0
348
1326C
 60
     3
 61
     5
292
     1
282
     1
141
0.0
142
0.0
 63
   250
421
  3355443
  0
ENDTAB
  0
TABLE
  2
LTYPE
  5
5
330
0
100
AcDbSymbolTable
 70
     7
  0
LTYPE
  5
11
330
5
100
AcDbSymbolTableRecord
100
AcDbLinetypeTableRecord
  2
BYBLOCK
 70
     0
  3

 72
    65
 73
     0
 40
0.0
  0
LTYPE
  5
12
330
5
100
AcDbSymbolTableRecord
100
AcDbLinetypeTableRecord
  2
BYLAYER
 70
     0
  3

 72
    65
 73
     0
 40
0.0
  0
LTYPE
  5
13
330
5
100
AcDbSymbolTableRecord
100
AcDbLinetypeTableRecord
  2
CONTINUOUS
 70
     0
  3
Solid line
 72
    65
 73
     0
 40
0.0
  0
LTYPE
  5
3A
330
5
100
AcDbSymbolTableRecord
100
AcDbLinetypeTableRecord
  2
HIDDEN
 70
     0
  3
__ __ __ __ __ __ __ __ __ __ __ __ __ __ __ __
 72
    65
 73
     2
 40
0.375
 49
0.25
 74
     0
 49
-0.125
 74
     0
  0
LTYPE
  5
12261
330
5
100
AcDbSymbolTableRecord
100
AcDbLinetypeTableRecord
  2
DASHED2
 70
     0
  3
Dashed (.5x) _ _ _ _ _ _ _ _ _ _ _ _ _ _ _ _ _
 72
    65
 73
     2
 40
0.375
 49
0.25
 74
     0
 49
-0.125
 74
     0
  0
ENDTAB
  0
TABLE
  2
LAYER
  5
2
102
{ACAD_XDICTIONARY
360
133DE
102
}
330
0
100
AcDbSymbolTable
 70
    39
  0
LAYER
  5
E
330
2
100
AcDbSymbolTableRecord
100
AcDbLayerTableRecord
  2
0
 70
     0
 62
     7
  6
CONTINUOUS
370
    -3
390
B579
347
13265
  0
LAYER
  5
41
330
2
100
AcDbSymbolTableRecord
100
AcDbLayerTableRecord
  2
BDR
 70
     0
 62
     7
  6
CONTINUOUS
370
    -3
390
B579
347
13265
  0
LAYER
  5
44
330
2
100
AcDbSymbolTableRecord
100
AcDbLayerTableRecord
  2
AME_FRZ
 70
     0
 62
     7
  6
CONTINUOUS
370
    -3
390
B579
347
13265
  0
LAYER
  5
45
330
2
100
AcDbSymbolTableRecord
100
AcDbLayerTableRecord
  2
ASHADE
 70
     0
 62
     7
  6
CONTINUOUS
370
    -3
390
B579
347
13265
  0
LAYER
  5
B91F
330
2
100
AcDbSymbolTableRecord
100
AcDbLayerTableRecord
  2
HATCH
 70
     0
 62
     4
  6
CONTINUOUS
370
    -3
390
B579
347
13265
  0
LAYER
  5
F047
330
2
100
AcDbSymbolTableRecord
100
AcDbLayerTableRecord
  2
Defpoints
 70
     0
 62
     7
  6
CONTINUOUS
290
     0
370
    -3
390
B579
347
13265
  0
LAYER
  5
111E5
330
2
100
AcDbSymbolTableRecord
100
AcDbLayerTableRecord
  2
TEXT
 70
     0
 62
     7
  6
CONTINUOUS
370
    25
390
B579
347
13265
  0
LAYER
  5
117C7
330
2
100
AcDbSymbolTableRecord
100
AcDbLayerTableRecord
  2
FRAMING
 70
     0
 62
     7
  6
CONTINUOUS
370
    25
390
B579
347
13265
  0
ENDTAB
  0
TABLE
  2
STYLE
  5
3
330
0
100
AcDbSymbolTable
 70
     6
  0
STYLE
  5
F
330
3
100
AcDbSymbolTableRecord
100
AcDbTextStyleTableRecord
  2
STANDARD
 70
     0
 40
0.0
 41
1.0
 50
0.0
 71
     0
 42
2.0
  3
TIMES.TTF
  4

1001
ACAD
1000
Times New Roman
1071
       18
  0
STYLE
  5
1D21
330
3
100
AcDbSymbolTableRecord
100
AcDbTextStyleTableRecord
  2
SIMPLEX
 70
     0
 40
0.1
 41
0.6
 50
0.0
 71
     0
 42
0.1
  3
SIMPLEX.shx
  4

  0
STYLE
  5
10B94
330
3
100
AcDbSymbolTableRecord
100
AcDbTextStyleTableRecord
  2
WEB PAGE
 70
     0
 40
0.0
 41
1.0
 50
0.0
 71
     0
 42
2.0
  3
TIMES.TTF
  4

1001
ACAD
1000
Times New Roman
1071
       18
  0
ENDTAB
  0
TABLE
  2
VIEW
  5
6
330
0
100
AcDbSymbolTable
 70
     2
  0
ENDTAB
  0
TABLE
  2
UCS
  5
7
330
0
100
AcDbSymbolTable
 70
     0
  0
ENDTAB
  0
TABLE
  2
APPID
  5
9
330
0
100
AcDbSymbolTable
 70
     8
  0
APPID
  5
10
330
9
100
AcDbSymbolTableRecord
100
AcDbRegAppTableRecord
  2
ACAD
 70
     0
  0
APPID
  5
3F
330
9
100
AcDbSymbolTableRecord
100
AcDbRegAppTableRecord
  2
AME_SOL
 70
     0
  0
APPID
  5
40
330
9
100
AcDbSymbolTableRecord
100
AcDbRegAppTableRecord
  2
AVE_RENDER
 70
     0
  0
APPID
  5
71A7
330
9
100
AcDbSymbolTableRecord
100
AcDbRegAppTableRecord
  2
AVE_ENTITY_MATERIAL
 70
     0
  0
APPID
  5
71A8
330
9
100
AcDbSymbolTableRecord
100
AcDbRegAppTableRecord
  2
AVE_FINISH
 70
     0
  0
APPID
  5
71A9
330
9
100
AcDbSymbolTableRecord
100
AcDbRegAppTableRecord
  2
AVE_MATERIAL
 70
     0
  0
APPID
  5
71AA
330
9
100
AcDbSymbolTableRecord
100
AcDbRegAppTableRecord
  2
AVE_GLOBAL
 70
     0
  0
APPID
  5
123F8
330
9
100
AcDbSymbolTableRecord
100
AcDbRegAppTableRecord
  2
DCO15
 70
     0
  0
ENDTAB
  0
TABLE
  2
DIMSTYLE
  5
A
330
0
100
AcDbSymbolTable
 70
     1
100
AcDbDimStyleTable
 71
     1
340
190D
  0
DIMSTYLE
105
190D
102
{ACAD_REACTORS
330
11CDE
330
11CDF
330
11CE0
330
11CE1
330
11CFE
330
11CFD
330
11D00
330
11D1F
330
11EA8
330
1205D
330
128F2
102
}
330
A
100
AcDbSymbolTableRecord
100
AcDbDimStyleTableRecord
  2
STANDARD
 70
     0
 41
3.0
 42
2.0
 43
1.0
 44
1.0
140
1.75
141
1.0
147
1.0
276
     2
277
     4
340
10B94
  0
ENDTAB
  0
TABLE
  2
BLOCK_RECORD
  5
1
330
0
100
AcDbSymbolTable
 70
   100
  0
BLOCK_RECORD
  5
17
330
1
100
AcDbSymbolTableRecord
100
AcDbBlockTableRecord
  2
*MODEL_SPACE
340
B57C
 70
     0
280
     1
281
     0
  0
BLOCK_RECORD
  5
14
330
1
100
AcDbSymbolTableRecord
100
AcDbBlockTableRecord
  2
*PAPER_SPACE
340
B57D
 70
     0
280
     1
281
     0
  0
BLOCK_RECORD
  5
20
330
1
100
AcDbSymbolTableRecord
100
AcDbBlockTableRecord
  2
AME_NIL
340
0
102
{BLKREFS
331
3374
331
3E3C
102
}
 70
     0
280
     1
281
     0
  0
BLOCK_RECORD
  5
21
330
1
100
AcDbSymbolTableRecord
100
AcDbBlockTableRecord
  2
AME_SOL
340
0
102
{BLKREFS
331
3375
331
3E3D
102
}
 70
     0
280
     1
281
     0
  0
BLOCK_RECORD
  5
22
330
1
100
AcDbSymbolTableRecord
100
AcDbBlockTableRecord
  2
AVE_RENDER
340
0
102
{BLKREFS
331
3376
331
3377
331
3378
331
3E3E
331
3E3F
331
3E40
331
120FE
331
120FF
331
12100
331
12101
331
12102
331
12103
331
12104
331
12105
102
}
 70
     0
280
     1
281
     0
  0
BLOCK_RECORD
  5
11B1F
330
1
100
AcDbSymbolTableRecord
100
AcDbBlockTableRecord
  2
HA137
340
0
102
{BLKREFS
331
123F5
102
}
 70
     0
280
     1
281
     0
  0
BLOCK_RECORD
  5
11D2A
330
1
100
AcDbSymbolTableRecord
100
AcDbBlockTableRecord
  2
*D64
340
0
 70
     0
280
     1
281
     0
  0
BLOCK_RECORD
  5
11D37
330
1
100
AcDbSymbolTableRecord
100
AcDbBlockTableRecord
  2
*D65
340
0
 70
     0
280
     1
281
     0
  0
BLOCK_RECORD
  5
11D44
330
1
100
AcDbSymbolTableRecord
100
AcDbBlockTableRecord
  2
*D66
340
0
 70
     0
280
     1
281
     0
  0
BLOCK_RECORD
  5
11D51
330
1
100
AcDbSymbolTableRecord
100
AcDbBlockTableRecord
  2
*D67
340
0
 70
     0
280
     1
281
     0
  0
BLOCK_RECORD
  5
11D5E
330
1
100
AcDbSymbolTableRecord
100
AcDbBlockTableRecord
  2
*D68
340
0
 70
     0
280
     1
281
     0
  0
BLOCK_RECORD
  5
11E49
330
1
100
AcDbSymbolTableRecord
100
AcDbBlockTableRecord
  2
WD-9-3-38
340
0
102
{BLKREFS
331
11E5B
102
}
 70
     1
280
     1
281
     0
  0
BLOCK_RECORD
  5
11EA9
330
1
100
AcDbSymbolTableRecord
100
AcDbBlockTableRecord
  2
*D71
340
0
 70
     0
280
     1
281
     0
  0
BLOCK_RECORD
  5
12034
330
1
100
AcDbSymbolTableRecord
100
AcDbBlockTableRecord
  2
A$C2D8E259A
340
0
102
{BLKREFS
331
12045
102
}
 70
     0
280
     1
281
     0
  0
BLOCK_RECORD
  5
1205E
330
1
100
AcDbSymbolTableRecord
100
AcDbBlockTableRecord
  2
*D73
340
0
 70
     0
280
     1
281
     0
  0
BLOCK_RECORD
  5
1222E
330
1
100
AcDbSymbolTableRecord
100
AcDbBlockTableRecord
  2
TRA130
340
0
102
{BLKREFS
331
12260
102
}
 70
     0
280
     1
281
     0
  0
BLOCK_RECORD
  5
12262
330
1
100
AcDbSymbolTableRecord
100
AcDbBlockTableRecord
  2
3-VPT-108
340
0
102
{BLKREFS
331
12277
102
}
 70
     1
280
     1
281
     0
  0
BLOCK_RECORD
  5
123A2
330
1
100
AcDbSymbolTableRecord
100
AcDbBlockTableRecord
  2
141
340
0
102
{BLKREFS
331
123C2
102
}
 70
     1
280
     1
281
     0
  0
BLOCK_RECORD
  5
128F3
330
1
100
AcDbSymbolTableRecord
100
AcDbBlockTableRecord
  2
*D95
340
0
 70
     0
280
     1
281
     0
  0
ENDTAB
  0
ENDSEC
  0
SECTION
  2
BLOCKS
  0
BLOCK
  5
57
330
17
100
AcDbEntity
  8
0
100
AcDbBlockBegin
  2
*MODEL_SPACE
 70
     0
 10
0.0
 20
0.0
 30
0.0
  3
*MODEL_SPACE
  1

  0
ENDBLK
  5
58
330
17
100
AcDbEntity
  8
0
100
AcDbBlockEnd
  0
BLOCK
  5
55
330
14
100
AcDbEntity
 67
     1
  8
0
100
AcDbBlockBegin
  2
*PAPER_SPACE
 70
     0
 10
0.0
 20
0.0
 30
0.0
  3
*PAPER_SPACE
  1

  0
ENDBLK
  5
56
330
14
100
AcDbEntity
 67
     1
  8
0
100
AcDbBlockEnd
  0
BLOCK
  5
91E
330
20
100
AcDbEntity
  8
0
100
AcDbBlockBegin
  2
AME_NIL
 70
     0
 10
0.0
 20
0.0
 30
0.0
  3
AME_NIL
  1
AME_NIL
  0
ENDBLK
  5
91F
330
20
100
AcDbEntity
  8
0
100
AcDbBlockEnd
  0
BLOCK
  5
920
330
21
100
AcDbEntity
  8
0
100
AcDbBlockBegin
  2
AME_SOL
 70
     0
 10
0.0
 20
0.0
 30
0.0
  3
AME_SOL
  1
AME_SOL
  0
ENDBLK
  5
921
330
21
100
AcDbEntity
  8
0
100
AcDbBlockEnd
  0
BLOCK
  5
922
330
22
100
AcDbEntity
  8
0
100
AcDbBlockBegin
  2
AVE_RENDER
 70
     0
 10
0.0
 20
0.0
 30
0.0
  3
AVE_RENDER
  1
AVE_RENDER
  0
ENDBLK
  5
923
330
22
100
AcDbEntity
  8
0
100
AcDbBlockEnd
  0
BLOCK
  5
11B51
330
11B1F
100
AcDbEntity
  8
0
100
AcDbBlockBegin
  2
HA137
 70
     0
 10
0.0
 20
0.0
 30
0.0
  3
HA137
  1

  0
LINE
  5
123C4
330
11B1F
100
AcDbEntity
  8
0
100
AcDbLine
 10
137.0
 20
0.0999999999999659
 30
0.0
 11
0.0
 21
0.0999999999999659
 31
0.0
  0
LINE
  5
123C5
330
11B1F
100
AcDbEntity
  8
0
100
AcDbLine
 10
0.0
 20
0.0
 30
0.0
 11
137.0
 21
0.0
 31
0.0
  0
LINE
  5
123C6
330
11B1F
100
AcDbEntity
  8
0
100
AcDbLine
 10
137.0
 20
1.5
 30
0.0
 11
0.0
 21
1.5
 31
0.0
  0
CIRCLE
  5
123C7
330
11B1F
100
AcDbEntity
  8
0
100
AcDbCircle
 10
3.5
 20
0.8100000000000022
 30
0.0
 40
0.195
  0
LINE
  5
123C8
330
11B1F
100
AcDbEntity
  8
0
100
AcDbLine
 10
0.0
 20
1.5
 30
0.0
 11
0.0
 21
0.0
 31
0.0
  0
ARC
  5
123C9
330
11B1F
100
AcDbEntity
  8
0
100
AcDbCircle
 10
1.240000000000009
 20
0.8100000000000022
 30
0.0
 40
0.195
100
AcDbArc
 50
270.0
 51
90.0
  0
CIRCLE
  5
123CA
330
11B1F
100
AcDbEntity
  8
0
100
AcDbCircle
 10
2.0
 20
0.8100000000000022
 30
0.0
 40
0.195
  0
CIRCLE
  5
123CB
330
11B1F
100
AcDbEntity
  8
0
100
AcDbCircle
 10
2.75
 20
0.8100000000000022
 30
0.0
 40
0.195
  0
ARC
  5
123CC
330
11B1F
100
AcDbEntity
  8
0
100
AcDbCircle
 10
0.3799999999998818
 20
0.8100000000000022
 30
0.0
 40
0.195
100
AcDbArc
 50
90.0
 51
270.0
  0
LINE
  5
123CD
330
11B1F
100
AcDbEntity
  8
0
100
AcDbLine
 10
0.3799999999998818
 20
1.004999999999995
 30
0.0
 11
1.240000000000009
 21
1.004999999999995
 31
0.0
  0
LINE
  5
123CE
330
11B1F
100
AcDbEntity
  8
0
100
AcDbLine
 10
1.240000000000009
 20
0.6150000000000091
 30
0.0
 11
0.3799999999998818
 21
0.6150000000000091
 31
0.0
  0
LINE
  5
123CF
330
11B1F
100
AcDbEntity
  8
0
100
AcDbLine
 10
8.228999999999928
 20
0.6150000000000091
 30
0.0
 11
8.650999999999953
 21
0.6150000000000091
 31
0.0
  0
LINE
  5
123D0
330
11B1F
100
AcDbEntity
  8
0
100
AcDbLine
 10
8.228999999999928
 20
1.004999999999995
 30
0.0
 11
8.650999999999953
 21
1.004999999999995
 31
0.0
  0
CIRCLE
  5
123D1
330
11B1F
100
AcDbEntity
  8
0
100
AcDbCircle
 10
7.43999999999994
 20
0.8100000000000022
 30
0.0
 40
0.195
  0
ARC
  5
123D2
330
11B1F
100
AcDbEntity
  8
0
100
AcDbCircle
 10
8.228999999999928
 20
0.8100000000000022
 30
0.0
 40
0.195
100
AcDbArc
 50
90.0
 51
270.0
  0
ARC
  5
123D3
330
11B1F
100
AcDbEntity
  8
0
100
AcDbCircle
 10
8.650999999999953
 20
0.8100000000000022
 30
0.0
 40
0.195
100
AcDbArc
 50
270.0
 51
90.0
  0
LINE
  5
123D4
330
11B1F
100
AcDbEntity
  8
0
100
AcDbLine
 10
5.288999999999987
 20
1.004999999999995
 30
0.0
 11
5.711000000000012
 21
1.004999999999995
 31
0.0
  0
LINE
  5
123D5
330
11B1F
100
AcDbEntity
  8
0
100
AcDbLine
 10
5.288999999999987
 20
0.6150000000000091
 30
0.0
 11
5.711000000000012
 21
0.6150000000000091
 31
0.0
  0
ARC
  5
123D6
330
11B1F
100
AcDbEntity
  8
0
100
AcDbCircle
 10
5.288999999999987
 20
0.8100000000000022
 30
0.0
 40
0.195
100
AcDbArc
 50
90.0
 51
270.0
  0
CIRCLE
  5
123D7
330
11B1F
100
AcDbEntity
  8
0
100
AcDbCircle
 10
4.5
 20
0.8100000000000022
 30
0.0
 40
0.195
  0
ARC
  5
123D8
330
11B1F
100
AcDbEntity
  8
0
100
AcDbCircle
 10
5.711000000000012
 20
0.8100000000000022
 30
0.0
 40
0.195
100
AcDbArc
 50
270.0
 51
90.0
  0
CIRCLE
  5
123D9
330
11B1F
100
AcDbEntity
  8
0
100
AcDbCircle
 10
6.879999999999881
 20
1.189999999999997
 30
0.0
 40
0.078
  0
CIRCLE
  5
123DA
330
11B1F
100
AcDbEntity
  8
0
100
AcDbCircle
 10
6.879999999999881
 20
0.5600000000000023
 30
0.0
 40
0.078
  0
CIRCLE
  5
123DB
330
11B1F
100
AcDbEntity
  8
0
100
AcDbCircle
 10
14.43999999999994
 20
0.8100000000000022
 30
0.0
 40
0.195
  0
CIRCLE
  5
123DC
330
11B1F
100
AcDbEntity
  8
0
100
AcDbCircle
 10
10.43999999999994
 20
0.8100000000000022
 30
0.0
 40
0.195
  0
CIRCLE
  5
123DD
330
11B1F
100
AcDbEntity
  8
0
100
AcDbCircle
 10
12.43999999999994
 20
0.8100000000000022
 30
0.0
 40
0.195
  0
CIRCLE
  5
123DE
330
11B1F
100
AcDbEntity
  8
0
100
AcDbCircle
 10
16.18999999999994
 20
0.8100000000000022
 30
0.0
 40
0.1325
  0
CIRCLE
  5
123DF
330
11B1F
100
AcDbEntity
  8
0
100
AcDbCircle
 10
21.18999999999994
 20
0.8100000000000022
 30
0.0
 40
0.1325
  0
ARC
  5
123E0
330
11B1F
100
AcDbEntity
  8
0
100
AcDbCircle
 10
40.2924999999999
 20
0.8100000000000022
 30
0.0
 40
0.1325
100
AcDbArc
 50
270.0
 51
90.0
  0
LINE
  5
123E1
330
11B1F
100
AcDbEntity
  8
0
100
AcDbLine
 10
40.08749999999998
 20
0.9424999999999954
 30
0.0
 11
40.2924999999999
 21
0.9424999999999954
 31
0.0
  0
LINE
  5
123E2
330
11B1F
100
AcDbEntity
  8
0
100
AcDbLine
 10
40.2924999999999
 20
0.6775000000000091
 30
0.0
 11
40.08749999999998
 21
0.6775000000000091
 31
0.0
  0
ARC
  5
123E3
330
11B1F
100
AcDbEntity
  8
0
100
AcDbCircle
 10
40.08749999999998
 20
0.8100000000000022
 30
0.0
 40
0.1325
100
AcDbArc
 50
90.0
 51
270.0
  0
ARC
  5
123E4
330
11B1F
100
AcDbEntity
  8
0
100
AcDbCircle
 10
64.08749999999997
 20
0.8100000000000022
 30
0.0
 40
0.1325
100
AcDbArc
 50
90.0
 51
270.0
  0
ARC
  5
123E5
330
11B1F
100
AcDbEntity
  8
0
100
AcDbCircle
 10
64.2924999999999
 20
0.8100000000000022
 30
0.0
 40
0.1325
100
AcDbArc
 50
270.0
 51
90.0
  0
LINE
  5
123E6
330
11B1F
100
AcDbEntity
  8
0
100
AcDbLine
 10
64.2924999999999
 20
0.6775000000000091
 30
0.0
 11
64.08749999999997
 21
0.6775000000000091
 31
0.0
  0
LINE
  5
123E7
330
11B1F
100
AcDbEntity
  8
0
100
AcDbLine
 10
64.08749999999997
 20
0.9424999999999954
 30
0.0
 11
64.2924999999999
 21
0.9424999999999954
 31
0.0
  0
ARC
  5
123E8
330
11B1F
100
AcDbEntity
  8
0
100
AcDbCircle
 10
88.29249999999978
 20
0.8100000000000022
 30
0.0
 40
0.1325
100
AcDbArc
 50
270.0
 51
90.0
  0
ARC
  5
123E9
330
11B1F
100
AcDbEntity
  8
0
100
AcDbCircle
 10
88.08749999999987
 20
0.8100000000000022
 30
0.0
 40
0.1325
100
AcDbArc
 50
90.0
 51
270.0
  0
LINE
  5
123EA
330
11B1F
100
AcDbEntity
  8
0
100
AcDbLine
 10
88.08749999999987
 20
0.9424999999999954
 30
0.0
 11
88.29249999999978
 21
0.9424999999999954
 31
0.0
  0
LINE
  5
123EB
330
11B1F
100
AcDbEntity
  8
0
100
AcDbLine
 10
88.29249999999978
 20
0.6775000000000091
 30
0.0
 11
88.08749999999987
 21
0.6775000000000091
 31
0.0
  0
LINE
  5
123EC
330
11B1F
100
AcDbEntity
  8
0
100
AcDbLine
 10
112.0875
 20
0.9424999999999954
 30
0.0
 11
112.2924999999999
 21
0.9424999999999954
 31
0.0
  0
LINE
  5
123ED
330
11B1F
100
AcDbEntity
  8
0
100
AcDbLine
 10
112.2924999999999
 20
0.6775000000000091
 30
0.0
 11
112.0875
 21
0.6775000000000091
 31
0.0
  0
ARC
  5
123EE
330
11B1F
100
AcDbEntity
  8
0
100
AcDbCircle
 10
112.2924999999999
 20
0.8100000000000022
 30
0.0
 40
0.1325
100
AcDbArc
 50
270.0
 51
90.0
  0
ARC
  5
123EF
330
11B1F
100
AcDbEntity
  8
0
100
AcDbCircle
 10
112.0875
 20
0.8100000000000022
 30
0.0
 40
0.1325
100
AcDbArc
 50
90.0
 51
270.0
  0
LINE
  5
123F0
330
11B1F
100
AcDbEntity
  8
0
100
AcDbLine
 10
135.5874999999999
 20
0.9424999999999954
 30
0.0
 11
135.7925
 21
0.9424999999999954
 31
0.0
  0
LINE
  5
123F1
330
11B1F
100
AcDbEntity
  8
0
100
AcDbLine
 10
135.7925
 20
0.6775000000000091
 30
0.0
 11
135.5874999999999
 21
0.6775000000000091
 31
0.0
  0
ARC
  5
123F2
330
11B1F
100
AcDbEntity
  8
0
100
AcDbCircle
 10
135.7925
 20
0.8100000000000022
 30
0.0
 40
0.1325
100
AcDbArc
 50
270.0
 51
90.0
  0
LINE
  5
123F3
330
11B1F
100
AcDbEntity
  8
0
100
AcDbLine
 10
137.0
 20
0.0
 30
0.0
 11
137.0
 21
1.5
 31
0.0
  0
ARC
  5
123F4
330
11B1F
100
AcDbEntity
  8
0
100
AcDbCircle
 10
135.5874999999999
 20
0.8100000000000022
 30
0.0
 40
0.1325
100
AcDbArc
 50
90.0
 51
270.0
  0
ENDBLK
  5
11B52
330
11B1F
100
AcDbEntity
  8
0
100
AcDbBlockEnd
  0
BLOCK
  5
11D35
330
11D2A
100
AcDbEntity
  8
0
100
AcDbBlockBegin
  2
*D64
 70
     1
 10
0.0
 20
0.0
 30
0.0
  3
*D64
  1

  0
LINE
  5
12937
330
11D2A
100
AcDbEntity
  8
TEXT
 62
     0
370
    -2
100
AcDbLine
 10
132.2169295018095
 20
123.0362941793405
 30
0.0
 11
77.78088021505801
 21
123.0362941793405
 31
0.0
  0
LINE
  5
12938
330
11D2A
100
AcDbEntity
  8
TEXT
 62
     0
370
    -2
100
AcDbLine
 10
139.5919295018095
 20
256.5548893389561
 30
0.0
 11
77.78088021505805
 21
256.5548893389561
 31
0.0
  0
LINE
  5
12939
330
11D2A
100
AcDbEntity
  8
TEXT
 62
     0
370
    -2
100
AcDbLine
 10
78.78088021505802
 20
126.0362941793405
 30
0.0
 11
78.78088021505803
 21
199.4565655181477
 31
0.0
  0
LINE
  5
1293A
330
11D2A
100
AcDbEntity
  8
TEXT
 62
     0
370
    -2
100
AcDbLine
 10
78.78088021505805
 20
253.5548893389561
 30
0.0
 11
78.78088021505803
 21
206.1232321848144
 31
0.0
  0
SOLID
  5
1293B
330
11D2A
100
AcDbEntity
  8
TEXT
 62
     0
100
AcDbTrace
 10
78.28088021505802
 20
126.0362941793405
 30
0.0
 11
79.28088021505802
 21
126.0362941793405
 31
0.0
 12
78.78088021505802
 22
123.0362941793405
 32
0.0
 13
78.78088021505802
 23
123.0362941793405
 33
0.0
  0
SOLID
  5
1293C
330
11D2A
100
AcDbEntity
  8
TEXT
 62
     0
100
AcDbTrace
 10
78.28088021505805
 20
253.5548893389561
 30
0.0
 11
79.28088021505804
 21
253.5548893389561
 31
0.0
 12
78.78088021505805
 22
256.5548893389561
 32
0.0
 13
78.78088021505805
 23
256.5548893389561
 33
0.0
  0
MTEXT
  5
1293D
330
11D2A
100
AcDbEntity
  8
TEXT
 62
     0
100
AcDbMText
 10
78.780880215058
 20
202.7898988514811
 30
0.0
 40
1.75
 41
0.0
 46
0.0
 71
     5
 72
     1
  1
\A1;FLOOR TO\PSHAFT CENTER
  7
WEB PAGE
 73
     1
 44
1.0
  0
POINT
  5
1293E
330
11D2A
100
AcDbEntity
  8
Defpoints
 62
     0
100
AcDbPoint
 10
134.2169295018095
 20
123.0362941793405
 30
0.0
  0
POINT
  5
1293F
330
11D2A
100
AcDbEntity
  8
Defpoints
 62
     0
100
AcDbPoint
 10
141.5919295018095
 20
256.5548893389561
 30
0.0
  0
POINT
  5
12940
330
11D2A
100
AcDbEntity
  8
Defpoints
 62
     0
100
AcDbPoint
 10
78.78088021505805
 20
256.5548893389561
 30
0.0
  0
ENDBLK
  5
11D36
330
11D2A
100
AcDbEntity
  8
0
100
AcDbBlockEnd
  0
BLOCK
  5
11D42
330
11D37
100
AcDbEntity
  8
0
100
AcDbBlockBegin
  2
*D65
 70
     1
 10
0.0
 20
0.0
 30
0.0
  3
*D65
  1

  0
LINE
  5
1297B
330
11D37
100
AcDbEntity
  8
TEXT
 62
     0
370
    -2
100
AcDbLine
 10
132.2169295018095
 20
123.0362941793405
 30
0.0
 11
60.69924351452972
 21
123.0362941793405
 31
0.0
  0
LINE
  5
1297C
330
11D37
100
AcDbEntity
  8
TEXT
 62
     0
370
    -2
100
AcDbLine
 10
136.2169295018095
 20
259.9298893389561
 30
0.0
 11
60.69924351452975
 21
259.9298893389562
 31
0.0
  0
LINE
  5
1297D
330
11D37
100
AcDbEntity
  8
TEXT
 62
     0
370
    -2
100
AcDbLine
 10
61.69924351452973
 20
126.0362941793405
 30
0.0
 11
61.69924351452974
 21
178.0912897901557
 31
0.0
  0
LINE
  5
1297E
330
11D37
100
AcDbEntity
  8
TEXT
 62
     0
370
    -2
100
AcDbLine
 10
61.69924351452976
 20
256.9298893389562
 30
0.0
 11
61.69924351452974
 21
184.7579564568223
 31
0.0
  0
SOLID
  5
1297F
330
11D37
100
AcDbEntity
  8
TEXT
 62
     0
100
AcDbTrace
 10
61.19924351452972
 20
126.0362941793405
 30
0.0
 11
62.19924351452973
 21
126.0362941793405
 31
0.0
 12
61.69924351452973
 22
123.0362941793405
 32
0.0
 13
61.69924351452973
 23
123.0362941793405
 33
0.0
  0
SOLID
  5
12980
330
11D37
100
AcDbEntity
  8
TEXT
 62
     0
100
AcDbTrace
 10
61.19924351452976
 20
256.9298893389562
 30
0.0
 11
62.19924351452975
 21
256.9298893389562
 31
0.0
 12
61.69924351452976
 22
259.9298893389562
 32
0.0
 13
61.69924351452976
 23
259.9298893389562
 33
0.0
  0
MTEXT
  5
12981
330
11D37
100
AcDbEntity
  8
TEXT
 62
     0
100
AcDbMText
 10
61.69924351452971
 20
181.424623123489
 30
0.0
 40
1.75
 41
0.0
 46
0.0
 71
     5
 72
     1
  1
\A1;MINIMUM\PCEILING HEIGHT
  7
WEB PAGE
 73
     1
 44
1.0
  0
POINT
  5
12982
330
11D37
100
AcDbEntity
  8
Defpoints
 62
     0
100
AcDbPoint
 10
134.2169295018095
 20
123.0362941793405
 30
0.0
  0
POINT
  5
12983
330
11D37
100
AcDbEntity
  8
Defpoints
 62
     0
100
AcDbPoint
 10
138.2169295018095
 20
259.9298893389561
 30
0.0
  0
POINT
  5
12984
330
11D37
100
AcDbEntity
  8
Defpoints
 62
     0
100
AcDbPoint
 10
61.69924351452976
 20
259.9298893389562
 30
0.0
  0
ENDBLK
  5
11D43
330
11D37
100
AcDbEntity
  8
0
100
AcDbBlockEnd
  0
BLOCK
  5
11D4F
330
11D44
100
AcDbEntity
  8
0
100
AcDbBlockBegin
  2
*D66
 70
     1
 10
0.0
 20
0.0
 30
0.0
  3
*D66
  1

  0
LINE
  5
12941
330
11D44
100
AcDbEntity
  8
TEXT
 62
     0
370
    -2
100
AcDbLine
 10
207.4861505668555
 20
123.0362941793405
 30
0.0
 11
174.0501848453942
 21
123.0362941793405
 31
0.0
  0
LINE
  5
12942
330
11D44
100
AcDbEntity
  8
TEXT
 62
     0
370
    -2
100
AcDbLine
 10
145.8761470881871
 20
231.0648893389561
 30
0.0
 11
176.0501848453942
 21
231.0648893389561
 31
0.0
  0
LINE
  5
12943
330
11D44
100
AcDbEntity
  8
TEXT
 62
     0
370
    -2
100
AcDbLine
 10
175.0501848453941
 20
126.0362941793405
 30
0.0
 11
175.0501848453941
 21
171.379062324093
 31
0.0
  0
LINE
  5
12944
330
11D44
100
AcDbEntity
  8
TEXT
 62
     0
370
    -2
100
AcDbLine
 10
175.0501848453942
 20
228.064889338956
 30
0.0
 11
175.0501848453941
 21
178.379062324093
 31
0.0
  0
SOLID
  5
12945
330
11D44
100
AcDbEntity
  8
TEXT
 62
     0
100
AcDbTrace
 10
174.5501848453941
 20
126.0362941793405
 30
0.0
 11
175.5501848453941
 21
126.0362941793405
 31
0.0
 12
175.0501848453941
 22
123.0362941793405
 32
0.0
 13
175.0501848453941
 23
123.0362941793405
 33
0.0
  0
SOLID
  5
12946
330
11D44
100
AcDbEntity
  8
TEXT
 62
     0
100
AcDbTrace
 10
174.5501848453942
 20
228.064889338956
 30
0.0
 11
175.5501848453942
 21
228.064889338956
 31
0.0
 12
175.0501848453942
 22
231.0648893389561
 32
0.0
 13
175.0501848453942
 23
231.0648893389561
 33
0.0
  0
MTEXT
  5
12947
330
11D44
100
AcDbEntity
  8
TEXT
 62
     0
100
AcDbMText
 10
175.0501848453941
 20
174.879062324093
 30
0.0
 40
1.75
 41
0.0
 46
0.0
 71
     5
 72
     1
  1
\A1;VERTICAL TRACK\PDOOR HEIGHT-12"
  7
WEB PAGE
 73
     1
 44
1.0
  0
POINT
  5
12948
330
11D44
100
AcDbEntity
  8
Defpoints
 62
     0
100
AcDbPoint
 10
209.4861505668555
 20
123.0362941793405
 30
0.0
  0
POINT
  5
12949
330
11D44
100
AcDbEntity
  8
Defpoints
 62
     0
100
AcDbPoint
 10
143.8761470881871
 20
231.0648893389561
 30
0.0
  0
POINT
  5
1294A
330
11D44
100
AcDbEntity
  8
Defpoints
 62
     0
100
AcDbPoint
 10
175.0501848453942
 20
231.0648893389561
 30
0.0
  0
ENDBLK
  5
11D50
330
11D44
100
AcDbEntity
  8
0
100
AcDbBlockEnd
  0
BLOCK
  5
11D5C
330
11D51
100
AcDbEntity
  8
0
100
AcDbBlockBegin
  2
*D67
 70
     1
 10
0.0
 20
0.0
 30
0.0
  3
*D67
  1

  0
LINE
  5
120D5
330
11D51
100
AcDbEntity
  8
TEXT
 62
     0
370
    -2
100
AcDbLine
 10
132.2169295018095
 20
243.0362941793405
 30
0.0
 11
117.0575413775432
 21
243.0362941793405
 31
0.0
  0
LINE
  5
120D6
330
11D51
100
AcDbEntity
  8
TEXT
 62
     0
370
    -2
100
AcDbLine
 10
132.2169295018095
 20
123.0362941793405
 30
0.0
 11
117.0575413775432
 21
123.0362941793405
 31
0.0
  0
LINE
  5
120D7
330
11D51
100
AcDbEntity
  8
TEXT
 62
     0
370
    -2
100
AcDbLine
 10
118.0575413775432
 20
240.0362941793405
 30
0.0
 11
118.0575413775432
 21
186.3696275126739
 31
0.0
  0
LINE
  5
120D8
330
11D51
100
AcDbEntity
  8
TEXT
 62
     0
370
    -2
100
AcDbLine
 10
118.0575413775432
 20
126.0362941793405
 30
0.0
 11
118.0575413775432
 21
179.7029608460072
 31
0.0
  0
SOLID
  5
120D9
330
11D51
100
AcDbEntity
  8
TEXT
 62
     0
100
AcDbTrace
 10
117.5575413775432
 20
240.0362941793405
 30
0.0
 11
118.5575413775432
 21
240.0362941793405
 31
0.0
 12
118.0575413775432
 22
243.0362941793405
 32
0.0
 13
118.0575413775432
 23
243.0362941793405
 33
0.0
  0
SOLID
  5
120DA
330
11D51
100
AcDbEntity
  8
TEXT
 62
     0
100
AcDbTrace
 10
117.5575413775432
 20
126.0362941793405
 30
0.0
 11
118.5575413775432
 21
126.0362941793405
 31
0.0
 12
118.0575413775432
 22
123.0362941793405
 32
0.0
 13
118.0575413775432
 23
123.0362941793405
 33
0.0
  0
MTEXT
  5
120DB
330
11D51
100
AcDbEntity
  8
TEXT
 62
     0
100
AcDbMText
 10
118.0575413775432
 20
183.0362941793405
 30
0.0
 40
1.75
 41
0.0
 46
0.0
 71
     5
 72
     1
  1
\A1;OPENING\PHEIGHT
  7
WEB PAGE
 73
     1
 44
1.0
  0
POINT
  5
120DC
330
11D51
100
AcDbEntity
  8
Defpoints
 62
     0
100
AcDbPoint
 10
134.2169295018095
 20
243.0362941793405
 30
0.0
  0
POINT
  5
120DD
330
11D51
100
AcDbEntity
  8
Defpoints
 62
     0
100
AcDbPoint
 10
134.2169295018095
 20
123.0362941793405
 30
0.0
  0
POINT
  5
120DE
330
11D51
100
AcDbEntity
  8
Defpoints
 62
     0
100
AcDbPoint
 10
118.0575413775432
 20
123.0362941793405
 30
0.0
  0
ENDBLK
  5
11D5D
330
11D51
100
AcDbEntity
  8
0
100
AcDbBlockEnd
  0
BLOCK
  5
11D6A
330
11D5E
100
AcDbEntity
  8
0
100
AcDbBlockBegin
  2
*D68
 70
     1
 10
0.0
 20
0.0
 30
0.0
  3
*D68
  1

  0
LINE
  5
12438
330
11D5E
100
AcDbEntity
  8
TEXT
 62
     0
370
    -2
100
AcDbLine
 10
132.2169295018095
 20
243.0362941793405
 30
0.0
 11
117.0575413775432
 21
243.0362941793405
 31
0.0
  0
LINE
  5
12439
330
11D5E
100
AcDbEntity
  8
TEXT
 62
     0
370
    -2
100
AcDbLine
 10
136.2169295018095
 20
259.9298893389561
 30
0.0
 11
117.0575413775432
 21
259.9298893389562
 31
0.0
  0
LINE
  5
1243A
330
11D5E
100
AcDbEntity
  8
TEXT
 62
     0
370
    -2
100
AcDbLine
 10
118.0575413775432
 20
246.0362941793405
 30
0.0
 11
118.0575413775432
 21
256.9298893389562
 31
0.0
  0
LINE
  5
1243B
330
11D5E
100
AcDbEntity
  8
TEXT
 62
     0
370
    -2
100
AcDbLine
 10
118.0575413775432
 20
259.9298893389562
 30
0.0
 11
118.0575413775432
 21
272.3008621425022
 31
0.0
  0
LINE
  5
1243C
330
11D5E
100
AcDbEntity
  8
TEXT
 62
     0
370
    -2
100
AcDbLine
 10
118.0575413775432
 20
272.3008621425022
 30
0.0
 11
121.0575413775432
 21
272.3008621425022
 31
0.0
  0
SOLID
  5
1243D
330
11D5E
100
AcDbEntity
  8
TEXT
 62
     0
100
AcDbTrace
 10
117.5575413775432
 20
246.0362941793405
 30
0.0
 11
118.5575413775432
 21
246.0362941793405
 31
0.0
 12
118.0575413775432
 22
243.0362941793405
 32
0.0
 13
118.0575413775432
 23
243.0362941793405
 33
0.0
  0
SOLID
  5
1243E
330
11D5E
100
AcDbEntity
  8
TEXT
 62
     0
100
AcDbTrace
 10
117.5575413775432
 20
256.9298893389562
 30
0.0
 11
118.5575413775432
 21
256.9298893389562
 31
0.0
 12
118.0575413775432
 22
259.9298893389562
 32
0.0
 13
118.0575413775432
 23
259.9298893389562
 33
0.0
  0
MTEXT
  5
1243F
330
11D5E
100
AcDbEntity
  8
TEXT
 62
     0
100
AcDbMText
 10
128.9325413775432
 20
272.3008621425022
 30
0.0
 40
1.75
 41
0.0
 46
0.0
 71
     5
 72
     1
  1
\A1;MINIMUM\PHEADROOM
  7
WEB PAGE
 73
     1
 44
1.0
  0
POINT
  5
12440
330
11D5E
100
AcDbEntity
  8
Defpoints
 62
     0
100
AcDbPoint
 10
134.2169295018095
 20
243.0362941793405
 30
0.0
  0
POINT
  5
12441
330
11D5E
100
AcDbEntity
  8
Defpoints
 62
     0
100
AcDbPoint
 10
138.2169295018095
 20
259.9298893389561
 30
0.0
  0
POINT
  5
12442
330
11D5E
100
AcDbEntity
  8
Defpoints
 62
     0
100
AcDbPoint
 10
118.0575413775432
 20
259.9298893389562
 30
0.0
  0
ENDBLK
  5
11D6B
330
11D5E
100
AcDbEntity
  8
0
100
AcDbBlockEnd
  0
BLOCK
  5
11E59
330
11E49
100
AcDbEntity
  8
0
100
AcDbBlockBegin
  2
WD-9-3-38
 70
     0
 10
0.0
 20
0.0
 30
0.0
  3
WD-9-3-38
  1

  0
LINE
  5
126B4
330
11E49
100
AcDbEntity
  8
0
100
AcDbLine
 10
0.0
 20
4.25
 30
0.0
 11
0.0
 21
0.0
 31
0.0
  0
LINE
  5
126B5
330
11E49
100
AcDbEntity
  8
0
100
AcDbLine
 10
5.0
 20
4.25
 30
0.0
 11
5.0
 21
-2.0
 31
0.0
  0
LINE
  5
126B6
330
11E49
100
AcDbEntity
  8
0
100
AcDbLine
 10
0.0
 20
0.0
 30
0.0
 11
2.25
 21
-0.0000000000000142
 31
0.0
  0
LINE
  5
126B7
330
11E49
100
AcDbEntity
  8
0
100
AcDbLine
 10
4.4375
 20
-1.462500000000005
 30
0.0
 11
3.1875
 21
-1.462500000000005
 31
0.0
  0
LINE
  5
126B8
330
11E49
100
AcDbEntity
  8
0
100
AcDbLine
 10
3.1875
 20
-1.837500000000005
 30
0.0
 11
4.4375
 21
-1.837500000000005
 31
0.0
  0
LINE
  5
126B9
330
11E49
100
AcDbEntity
  8
0
100
AcDbLine
 10
5.0
 20
-2.0
 30
0.0
 11
2.25
 21
-2.0
 31
0.0
  0
LINE
  5
126BA
330
11E49
100
AcDbEntity
  8
0
100
AcDbLine
 10
2.25
 20
-2.0
 30
0.0
 11
2.25
 21
-1.837500000000019
 31
0.0
  0
LINE
  5
126BB
330
11E49
100
AcDbEntity
  8
0
100
AcDbLine
 10
2.25
 20
-1.462500000000019
 30
0.0
 11
2.25
 21
-0.0000000000000142
 31
0.0
  0
LINE
  5
126BC
330
11E49
100
AcDbEntity
  8
0
100
AcDbLine
 10
2.5
 20
-1.462500000000005
 30
0.0
 11
2.25
 21
-1.462500000000019
 31
0.0
  0
LINE
  5
126BD
330
11E49
100
AcDbEntity
  8
0
100
AcDbLine
 10
2.25
 20
-1.837500000000019
 30
0.0
 11
2.5
 21
-1.837500000000005
 31
0.0
  0
ARC
  5
126BE
330
11E49
100
AcDbEntity
  8
0
100
AcDbCircle
 10
3.1875
 20
-1.650000000000005
 30
0.0
 40
0.1875
100
AcDbArc
 50
90.0
 51
270.0
  0
ARC
  5
126BF
330
11E49
100
AcDbEntity
  8
0
100
AcDbCircle
 10
2.5
 20
-1.650000000000005
 30
0.0
 40
0.1875
100
AcDbArc
 50
270.0
 51
90.0
  0
ARC
  5
126C0
330
11E49
100
AcDbEntity
  8
0
100
AcDbCircle
 10
4.4375
 20
-1.650000000000005
 30
0.0
 40
0.1875
100
AcDbArc
 50
270.0
 51
90.0
  0
LINE
  5
126C1
330
11E49
100
AcDbEntity
  8
0
100
AcDbLine
 10
0.0
 20
4.25
 30
0.0
 11
5.0
 21
4.25
 31
0.0
  0
CIRCLE
  5
126C2
330
11E49
100
AcDbEntity
  8
0
100
AcDbCircle
 10
3.375
 20
2.599999999999994
 30
0.0
 40
0.5
  0
ENDBLK
  5
11E5A
330
11E49
100
AcDbEntity
  8
0
100
AcDbBlockEnd
  0
BLOCK
  5
11EB4
330
11EA9
100
AcDbEntity
  8
0
100
AcDbBlockBegin
  2
*D71
 70
     1
 10
0.0
 20
0.0
 30
0.0
  3
*D71
  1

  0
LINE
  5
13255
330
11EA9
100
AcDbEntity
  8
TEXT
 62
     0
370
    -2
100
AcDbLine
 10
140.7756608040905
 20
234.874889338956
 30
0.0
 11
140.7756608040905
 21
241.2407720156136
 31
0.0
  0
LINE
  5
13256
330
11EA9
100
AcDbEntity
  8
TEXT
 62
     0
370
    -2
100
AcDbLine
 10
281.2213102802719
 20
247.8448893389561
 30
0.0
 11
281.2213102802719
 21
239.2407720156136
 31
0.0
  0
LINE
  5
13257
330
11EA9
100
AcDbEntity
  8
TEXT
 62
     0
370
    -2
100
AcDbLine
 10
143.7756608040905
 20
240.2407720156136
 30
0.0
 11
189.1101474023109
 21
240.2407720156136
 31
0.0
  0
LINE
  5
13258
330
11EA9
100
AcDbEntity
  8
TEXT
 62
     0
370
    -2
100
AcDbLine
 10
278.2213102802718
 20
240.2407720156136
 30
0.0
 11
232.8868236820514
 21
240.2407720156136
 31
0.0
  0
SOLID
  5
13259
330
11EA9
100
AcDbEntity
  8
TEXT
 62
     0
100
AcDbTrace
 10
143.7756608040905
 20
240.7407720156136
 30
0.0
 11
143.7756608040905
 21
239.7407720156136
 31
0.0
 12
140.7756608040905
 22
240.2407720156136
 32
0.0
 13
140.7756608040905
 23
240.2407720156136
 33
0.0
  0
SOLID
  5
1325A
330
11EA9
100
AcDbEntity
  8
TEXT
 62
     0
100
AcDbTrace
 10
278.2213102802718
 20
240.7407720156136
 30
0.0
 11
278.2213102802718
 21
239.7407720156136
 31
0.0
 12
281.2213102802719
 22
240.2407720156136
 32
0.0
 13
281.2213102802719
 23
240.2407720156136
 33
0.0
  0
MTEXT
  5
1325B
330
11EA9
100
AcDbEntity
  8
TEXT
 62
     0
100
AcDbMText
 10
210.9984855421812
 20
240.2407720156136
 30
0.0
 40
1.75
 41
0.0
 46
0.0
 71
     5
 72
     1
  1
\A1;HORIZONTAL TRACK LENGTH\P(BACKROOM: DOOR HEIGHT + 21")
  7
WEB PAGE
 73
     1
 44
1.0
  0
POINT
  5
1325C
330
11EA9
100
AcDbEntity
  8
Defpoints
 62
     0
100
AcDbPoint
 10
140.7756608040905
 20
232.874889338956
 30
0.0
  0
POINT
  5
1325D
330
11EA9
100
AcDbEntity
  8
Defpoints
 62
     0
100
AcDbPoint
 10
281.2213102802719
 20
249.8448893389561
 30
0.0
  0
POINT
  5
1325E
330
11EA9
100
AcDbEntity
  8
Defpoints
 62
     0
100
AcDbPoint
 10
281.2213102802719
 20
240.2407720156136
 30
0.0
  0
ENDBLK
  5
11EB5
330
11EA9
100
AcDbEntity
  8
0
100
AcDbBlockEnd
  0
BLOCK
  5
12043
330
12034
100
AcDbEntity
  8
0
100
AcDbBlockBegin
  2
A$C2D8E259A
 70
     0
 10
0.0
 20
0.0
 30
0.0
  3
A$C2D8E259A
  1

  0
LINE
  5
12035
330
12034
100
AcDbEntity
  8
0
100
AcDbLine
 10
-0.0000004604032604
 20
2.095456975818166
 30
0.0
 11
0.9999995395967395
 21
2.095456975818166
 31
0.0
  0
LINE
  5
12036
330
12034
100
AcDbEntity
  8
0
100
AcDbLine
 10
0.0549995395967393
 20
2.040456975818166
 30
0.0
 11
0.9999995395967395
 21
2.040456975818166
 31
0.0
  0
LINE
  5
12037
330
12034
100
AcDbEntity
  8
0
100
AcDbLine
 10
0.8478670952251974
 20
0.3621827433166693
 30
0.0
 11
0.6627309988545634
 21
0.1415461353480936
 31
0.0
  0
LINE
  5
12038
330
12034
100
AcDbEntity
  8
0
100
AcDbLine
 10
0.8899995395967437
 20
0.3268294247839059
 30
0.0
 11
0.8478670952251974
 21
0.3621827433166658
 31
0.0
  0
LINE
  5
12039
330
12034
100
AcDbEntity
  8
0
100
AcDbLine
 10
0.2262781434198011
 20
0.2224495439404386
 30
0.0
 11
0.0549995395967393
 21
0.6071475867100134
 31
0.0
  0
LINE
  5
1203A
330
12034
100
AcDbEntity
  8
0
100
AcDbLine
 10
0.1751036101700158
 20
0.2021667940502745
 30
0.0
 11
-0.0000004604032569
 21
0.5954569758181663
 31
0.0
  0
ARC
  5
1203B
330
12034
100
AcDbEntity
  8
0
100
AcDbCircle
 10
0.4673896658592263
 20
0.3054569758181671
 30
0.0
 40
0.255
100
AcDbArc
 50
198.997042049035
 51
320.0
  0
LINE
  5
1203C
330
12034
100
AcDbEntity
  8
0
100
AcDbLine
 10
0.8899995395967366
 20
0.3268294247839059
 30
0.0
 11
0.7048634432261061
 21
0.1061928168153337
 31
0.0
  0
ARC
  5
1203D
330
12034
100
AcDbEntity
  8
0
100
AcDbCircle
 10
0.4673896658592263
 20
0.3054569758181671
 30
0.0
 40
0.31
100
AcDbArc
 50
199.4627615683172
 51
320.0
  0
LINE
  5
1203E
330
12034
100
AcDbEntity
  8
0
100
AcDbLine
 10
-0.0000004604032604
 20
1.184456975818165
 30
0.0
 11
0.0549995395967429
 21
1.184456975818165
 31
0.0
  0
LINE
  5
1203F
330
12034
100
AcDbEntity
  8
0
100
AcDbLine
 10
-0.0000004604032604
 20
1.456456975818166
 30
0.0
 11
0.0549995395967429
 21
1.456456975818166
 31
0.0
  0
LINE
  5
12040
330
12034
100
AcDbEntity
  8
0
100
AcDbLine
 10
0.0549995395967393
 20
0.6071475867100134
 30
0.0
 11
0.0549995395967393
 21
2.040456975818166
 31
0.0
  0
LINE
  5
12041
330
12034
100
AcDbEntity
  8
0
100
AcDbLine
 10
-0.0000004604032569
 20
0.5954569758181663
 30
0.0
 11
-0.0000004604032604
 21
2.095456975818166
 31
0.0
  0
LINE
  5
12042
330
12034
100
AcDbEntity
  8
0
100
AcDbLine
 10
0.9999995395967395
 20
2.095456975818166
 30
0.0
 11
0.9999995395967395
 21
2.040456975818166
 31
0.0
  0
ENDBLK
  5
12044
330
12034
100
AcDbEntity
  8
0
100
AcDbBlockEnd
  0
BLOCK
  5
1206B
330
1205E
100
AcDbEntity
  8
0
100
AcDbBlockBegin
  2
*D73
 70
     1
 10
0.0
 20
0.0
 30
0.0
  3
*D73
  1

  0
ARC
  5
12971
330
1205E
100
AcDbEntity
  8
TEXT
 62
     0
370
    -2
100
AcDbCircle
 10
222.556101213852
 20
213.6152231550803
 30
0.0
 40
5.663360582444536
100
AcDbArc
 50
118.5653662259092
 51
149.2826831129546
  0
ARC
  5
12972
330
1205E
100
AcDbEntity
  8
TEXT
 62
     0
370
    -2
100
AcDbCircle
 10
222.556101213852
 20
213.6152231550803
 30
0.0
 40
5.663360582444536
100
AcDbArc
 50
255.7173168870453
 51
286.4346337740907
  0
SOLID
  5
12973
330
1205E
100
AcDbEntity
  8
TEXT
 62
     0
100
AcDbTrace
 10
218.1694652404507
 20
216.3756532434295
 30
0.0
 11
217.2051784761729
 21
216.6405136523975
 31
0.0
 12
216.8927406314075
 22
213.6152231550803
 32
0.0
 13
216.8927406314075
 23
213.6152231550803
 33
0.0
  0
SOLID
  5
12974
330
1205E
100
AcDbEntity
  8
TEXT
 62
     0
100
AcDbTrace
 10
220.9116308861461
 20
207.6923459759497
 30
0.0
 11
221.4062000049261
 21
208.5614842772281
 31
0.0
 12
218.5515005417009
 22
209.6106224829291
 32
0.0
 13
218.5515005417009
 23
209.6106224829291
 33
0.0
  0
MTEXT
  5
12975
330
1205E
100
AcDbEntity
  8
TEXT
 62
     0
100
AcDbMText
 10
217.2310416522643
 20
211.6871687594967
 30
0.0
 40
1.75
 41
0.0
 46
0.0
 71
     5
 72
     1
  1
\A1;45°
  7
WEB PAGE
 73
     1
 44
1.0
  0
POINT
  5
12976
330
1205E
100
AcDbEntity
  8
Defpoints
 62
     0
100
AcDbPoint
 10
217.6514870786636
 20
210.783542863858
 30
0.0
  0
POINT
  5
12977
330
1205E
100
AcDbEntity
  8
Defpoints
 62
     0
100
AcDbPoint
 10
210.8238681668181
 20
201.8829901080465
 30
0.0
  0
POINT
  5
12978
330
1205E
100
AcDbEntity
  8
Defpoints
 62
     0
100
AcDbPoint
 10
232.6435859196401
 20
213.6152231550803
 30
0.0
  0
POINT
  5
12979
330
1205E
100
AcDbEntity
  8
Defpoints
 62
     0
100
AcDbPoint
 10
210.8238681668182
 20
213.6152231550803
 30
0.0
  0
POINT
  5
1297A
330
1205E
100
AcDbEntity
  8
Defpoints
 62
     0
100
AcDbPoint
 10
222.556101213852
 20
213.6152231550802
 30
0.0
  0
ENDBLK
  5
1206C
330
1205E
100
AcDbEntity
  8
0
100
AcDbBlockEnd
  0
BLOCK
  5
1225E
330
1222E
100
AcDbEntity
  8
0
100
AcDbBlockBegin
  2
TRA130
 70
     0
 10
0.0
 20
0.0
 30
0.0
  3
TRA130
  1

  0
LINE
  5
1222F
330
1222E
100
AcDbEntity
  8
0
100
AcDbLine
 10
-3.72981777385371
 20
-36.28738554814254
 30
0.0
 11
-3.72981777385371
 21
93.71261445185746
 31
0.0
  0
LINE
  5
12230
330
1222E
100
AcDbEntity
  8
0
100
AcDbLine
 10
-3.814954536643767
 20
-36.28738554814254
 30
0.0
 11
-3.814954536643767
 21
93.71261445185746
 31
0.0
  0
LINE
  5
12231
330
1222E
100
AcDbEntity
  8
0
100
AcDbLine
 10
0.7371287966894578
 20
88.71261445185757
 30
0.0
 11
-0.1443295366437951
 21
4.092614451857457
 31
0.0
  0
LINE
  5
12232
330
1222E
100
AcDbEntity
  8
0
100
AcDbLine
 10
-0.2042253699771663
 20
-1.657385548142542
 30
0.0
 11
-0.5649545366437679
 21
-36.28738554814254
 31
0.0
  0
LINE
  5
12233
330
1222E
100
AcDbEntity
  8
0
100
AcDbLine
 10
-3.814954536643767
 20
-36.28738554814254
 30
0.0
 11
-0.5649545366437679
 21
-36.28738554814254
 31
0.0
  0
ARC
  5
12234
330
1222E
100
AcDbEntity
  8
0
100
AcDbCircle
 10
-2.611603274675019
 20
-26.28738554814254
 30
0.0
 40
0.14085126196875
100
AcDbArc
 50
90.0
 51
270.0
  0
ARC
  5
12235
330
1222E
100
AcDbEntity
  8
0
100
AcDbCircle
 10
-0.890087850612474
 20
-26.28738554814254
 30
0.0
 40
0.14085126196875
100
AcDbArc
 50
270.0
 51
90.0
  0
LINE
  5
12236
330
1222E
100
AcDbEntity
  8
0
100
AcDbLine
 10
-2.611603274675019
 20
-26.14653428617379
 30
0.0
 11
-0.890087850612474
 21
-26.14653428617379
 31
0.0
  0
LINE
  5
12237
330
1222E
100
AcDbEntity
  8
0
100
AcDbLine
 10
-0.890087850612474
 20
-26.42823681011132
 30
0.0
 11
-2.611603274675019
 21
-26.42823681011132
 31
0.0
  0
LINE
  5
12238
330
1222E
100
AcDbEntity
  8
0
100
AcDbLine
 10
-2.002454536643767
 20
-1.657385548142542
 30
0.0
 11
-2.002454536643767
 21
4.092614451857457
 31
0.0
  0
ARC
  5
12239
330
1222E
100
AcDbEntity
  8
0
100
AcDbCircle
 10
-0.6400878506125878
 20
-2.287385548142538
 30
0.0
 40
0.14085126196875
100
AcDbArc
 50
270.0
 51
90.0
  0
LINE
  5
1223A
330
1222E
100
AcDbEntity
  8
0
100
AcDbLine
 10
-2.002454536643767
 20
-1.657385548142542
 30
0.0
 11
-0.2042253699771663
 21
-1.657385548142542
 31
0.0
  0
ARC
  5
1223B
330
1222E
100
AcDbEntity
  8
0
100
AcDbCircle
 10
-2.361603274675019
 20
-2.287385548142538
 30
0.0
 40
0.14085126196875
100
AcDbArc
 50
90.0
 51
270.0
  0
LINE
  5
1223C
330
1222E
100
AcDbEntity
  8
0
100
AcDbLine
 10
-2.361603274675019
 20
-2.146534286173817
 30
0.0
 11
-0.6400878506125878
 21
-2.146534286173817
 31
0.0
  0
LINE
  5
1223D
330
1222E
100
AcDbEntity
  8
0
100
AcDbLine
 10
-0.6400878506125878
 20
-2.428236810111286
 30
0.0
 11
-2.361603274675019
 21
-2.428236810111286
 31
0.0
  0
ARC
  5
1223E
330
1222E
100
AcDbEntity
  8
0
100
AcDbCircle
 10
-0.6400899971484364
 20
4.711836840157047
 30
0.0
 40
0.14085126196875
100
AcDbArc
 50
270.0
 51
90.0
  0
LINE
  5
1223F
330
1222E
100
AcDbEntity
  8
0
100
AcDbLine
 10
-2.002454536643767
 20
4.092614451857457
 30
0.0
 11
-0.1443295366437951
 21
4.092614451857457
 31
0.0
  0
ARC
  5
12240
330
1222E
100
AcDbEntity
  8
0
100
AcDbCircle
 10
-2.361605421210867
 20
4.711836840157047
 30
0.0
 40
0.14085126196875
100
AcDbArc
 50
90.0
 51
270.0
  0
LINE
  5
12241
330
1222E
100
AcDbEntity
  8
0
100
AcDbLine
 10
-2.361605421210867
 20
4.852688102125767
 30
0.0
 11
-0.6400899971484364
 21
4.852688102125767
 31
0.0
  0
LINE
  5
12242
330
1222E
100
AcDbEntity
  8
0
100
AcDbLine
 10
-0.6400899971484364
 20
4.570985578188299
 30
0.0
 11
-2.361605421210867
 21
4.570985578188299
 31
0.0
  0
LINE
  5
12243
330
1222E
100
AcDbEntity
  8
0
100
AcDbLine
 10
-0.3900878506124741
 20
21.5717318962918
 30
0.0
 11
-2.111603274675019
 21
21.5717318962918
 31
0.0
  0
LINE
  5
12244
330
1222E
100
AcDbEntity
  8
0
100
AcDbLine
 10
-2.111603274675019
 20
21.85343442022935
 30
0.0
 11
-0.3900878506124741
 21
21.85343442022935
 31
0.0
  0
ARC
  5
12245
330
1222E
100
AcDbEntity
  8
0
100
AcDbCircle
 10
-0.3900878506124741
 20
21.71258315826054
 30
0.0
 40
0.14085126196875
100
AcDbArc
 50
270.0
 51
90.0
  0
ARC
  5
12246
330
1222E
100
AcDbEntity
  8
0
100
AcDbCircle
 10
-2.111603274675019
 20
21.71258315826054
 30
0.0
 40
0.14085126196875
100
AcDbArc
 50
90.0
 51
270.0
  0
ARC
  5
12247
330
1222E
100
AcDbEntity
  8
0
100
AcDbCircle
 10
-0.1447592613107744
 20
45.71258315826054
 30
0.0
 40
0.14085126196875
100
AcDbArc
 50
270.0
 51
90.0
  0
LINE
  5
12248
330
1222E
100
AcDbEntity
  8
0
100
AcDbLine
 10
-1.866274685373319
 20
45.85343442022934
 30
0.0
 11
-0.1447592613107744
 21
45.85343442022934
 31
0.0
  0
LINE
  5
12249
330
1222E
100
AcDbEntity
  8
0
100
AcDbLine
 10
-0.1447592613107744
 20
45.57173189629179
 30
0.0
 11
-1.866274685373319
 21
45.57173189629179
 31
0.0
  0
ARC
  5
1224A
330
1222E
100
AcDbEntity
  8
0
100
AcDbCircle
 10
-1.866274685373319
 20
45.71258315826054
 30
0.0
 40
0.14085126196875
100
AcDbArc
 50
90.0
 51
270.0
  0
LINE
  5
1224B
330
1222E
100
AcDbEntity
  8
0
100
AcDbLine
 10
-1.59712813336765
 20
71.25968442022929
 30
0.0
 11
0.1243872906947807
 21
71.25968442022929
 31
0.0
  0
LINE
  5
1224C
330
1222E
100
AcDbEntity
  8
0
100
AcDbLine
 10
0.1243872906947807
 20
70.97798189629179
 30
0.0
 11
-1.59712813336765
 21
70.97798189629179
 31
0.0
  0
ARC
  5
1224D
330
1222E
100
AcDbEntity
  8
0
100
AcDbCircle
 10
0.1243872906947807
 20
71.11883315826054
 30
0.0
 40
0.14085126196875
100
AcDbArc
 50
270.0
 51
90.0
  0
ARC
  5
1224E
330
1222E
100
AcDbEntity
  8
0
100
AcDbCircle
 10
-1.59712813336765
 20
71.11883315826054
 30
0.0
 40
0.14085126196875
100
AcDbArc
 50
90.0
 51
270.0
  0
LINE
  5
1224F
330
1222E
100
AcDbEntity
  8
0
100
AcDbLine
 10
-1.59712813336765
 20
72.44718442022929
 30
0.0
 11
0.1243872906947807
 21
72.44718442022929
 31
0.0
  0
LINE
  5
12250
330
1222E
100
AcDbEntity
  8
0
100
AcDbLine
 10
0.1243872906947807
 20
72.16548189629179
 30
0.0
 11
-1.59712813336765
 21
72.16548189629179
 31
0.0
  0
ARC
  5
12251
330
1222E
100
AcDbEntity
  8
0
100
AcDbCircle
 10
0.1243872906947807
 20
72.30633315826054
 30
0.0
 40
0.14085126196875
100
AcDbArc
 50
270.0
 51
90.0
  0
ARC
  5
12252
330
1222E
100
AcDbEntity
  8
0
100
AcDbCircle
 10
-1.59712813336765
 20
72.30633315826054
 30
0.0
 40
0.14085126196875
100
AcDbArc
 50
90.0
 51
270.0
  0
LINE
  5
12253
330
1222E
100
AcDbEntity
  8
0
100
AcDbLine
 10
-1.939954536643767
 20
88.71261445185746
 30
0.0
 11
0.7371287966894578
 21
88.71261445185757
 31
0.0
  0
LINE
  5
12254
330
1222E
100
AcDbEntity
  8
0
100
AcDbLine
 10
-3.814954536643767
 20
93.71261445185746
 30
0.0
 11
-1.939954536643767
 21
93.71261445185746
 31
0.0
  0
ARC
  5
12255
330
1222E
100
AcDbEntity
  8
0
100
AcDbCircle
 10
-2.627454536643767
 20
93.21180996485749
 30
0.0
 40
0.187801682625
100
AcDbArc
 50
0.0
 51
180.0
  0
ARC
  5
12256
330
1222E
100
AcDbEntity
  8
0
100
AcDbCircle
 10
-2.627454536643767
 20
88.17401511115525
 30
0.0
 40
0.187801682625
100
AcDbArc
 50
180.0
 51
0.0
  0
ARC
  5
12257
330
1222E
100
AcDbEntity
  8
0
100
AcDbCircle
 10
-2.627454536643767
 20
90.30243418090526
 30
0.0
 40
0.187801682625
100
AcDbArc
 50
0.0
 51
180.0
  0
ARC
  5
12258
330
1222E
100
AcDbEntity
  8
0
100
AcDbCircle
 10
-2.627454536643767
 20
91.08339089510753
 30
0.0
 40
0.187801682625
100
AcDbArc
 50
180.0
 51
0.0
  0
LINE
  5
12259
330
1222E
100
AcDbEntity
  8
0
100
AcDbLine
 10
-2.815256219268917
 20
90.30243418090526
 30
0.0
 11
-2.815256219268917
 21
88.17401511115525
 31
0.0
  0
LINE
  5
1225A
330
1222E
100
AcDbEntity
  8
0
100
AcDbLine
 10
-2.815256219268917
 20
93.21180996485749
 30
0.0
 11
-2.815256219268917
 21
91.08339089510753
 31
0.0
  0
LINE
  5
1225B
330
1222E
100
AcDbEntity
  8
0
100
AcDbLine
 10
-2.439652854018845
 20
88.17401511115525
 30
0.0
 11
-2.439652854018845
 21
90.30243418090526
 31
0.0
  0
LINE
  5
1225C
330
1222E
100
AcDbEntity
  8
0
100
AcDbLine
 10
-2.439652854018845
 20
91.08339089510753
 30
0.0
 11
-2.439652854018845
 21
93.21180996485749
 31
0.0
  0
LINE
  5
1225D
330
1222E
100
AcDbEntity
  8
0
100
AcDbLine
 10
-1.939954536643767
 20
88.71261445185746
 30
0.0
 11
-1.939954536643767
 21
93.71261445185746
 31
0.0
  0
ENDBLK
  5
1225F
330
1222E
100
AcDbEntity
  8
0
100
AcDbBlockEnd
  0
BLOCK
  5
12275
330
12262
100
AcDbEntity
  8
0
100
AcDbBlockBegin
  2
3-VPT-108
 70
     0
 10
0.0
 20
0.0
 30
0.0
  3
3-VPT-108
  1

  0
LINE
  5
12263
330
12262
100
AcDbEntity
  8
0
100
AcDbLine
 10
1.124921155629635
 20
107.9941412873569
 30
0.0
 11
0.0
 21
0.0
 31
0.0
  0
LINE
  5
12264
330
12262
100
AcDbEntity
  8
0
100
AcDbLine
 10
-2.054906337831425
 20
108.0272639658282
 30
0.0
 11
-3.179827493461061
 21
0.033122678471301
 31
0.0
  0
LINE
  5
12265
330
12262
100
AcDbEntity
  8
0
  6
DASHED2
100
AcDbLine
 10
0.4949553314534115
 20
108.0007033274314
 30
0.0
 11
-0.6299658241762529
 21
0.006562040074499
 31
0.0
  0
LWPOLYLINE
  5
12266
330
12262
100
AcDbEntity
  8
0
100
AcDbPolyline
 90
        4
 70
     1
 43
0.0
 10
-2.357113257545165
 20
9.410062013138102
 42
0.9999999999999998
 10
-2.087127904326763
 20
9.407249710249033
 10
-2.074316302276542
 20
10.6371829860217
 42
0.9999999999999998
 10
-2.344301655494945
 20
10.63999528891078
  0
LINE
  5
12267
330
12262
100
AcDbEntity
  8
0
100
AcDbLine
 10
0.0
 20
0.0
 30
0.0
 11
-3.179827493461061
 21
0.033122678471301
 31
0.0
  0
CIRCLE
  5
12268
330
12262
100
AcDbEntity
  8
0
100
AcDbCircle
 10
-2.104865183352643
 20
1.271993144600159
 30
0.0
 40
0.203
  0
CIRCLE
  5
12269
330
12262
100
AcDbEntity
  8
0
100
AcDbCircle
 10
-1.70265772932143
 20
0.6177682872905877
 30
0.0
 40
0.136
  0
CIRCLE
  5
1226A
330
12262
100
AcDbEntity
  8
0
100
AcDbCircle
 10
-2.452617043816957
 20
0.6255802397602395
 30
0.0
 40
0.136
  0
LWPOLYLINE
  5
1226B
330
12262
100
AcDbEntity
  8
0
100
AcDbPolyline
 90
        4
 70
     1
 43
0.0
 10
-2.107130778516392
 20
33.40876007699521
 42
0.9999999999999998
 10
-1.83714542529799
 20
33.40594777410613
 10
-1.824333823247769
 20
34.63588104987881
 42
0.9999999999999998
 10
-2.094319176466171
 20
34.63869335276788
  0
LWPOLYLINE
  5
1226C
330
12262
100
AcDbEntity
  8
0
100
AcDbPolyline
 90
        4
 70
     1
 43
0.0
 10
-1.857148299487619
 20
57.40745814085231
 42
0.9999999999999998
 10
-1.587162946269216
 20
57.40464583796324
 10
-1.574351344218996
 20
58.6345791137359
 42
0.9999999999999998
 10
-1.844336697437398
 20
58.63739141662498
  0
LINE
  5
1226D
330
12262
100
AcDbEntity
  8
0
100
AcDbLine
 10
-1.594354218408597
 20
82.63608948048208
 30
0.0
 11
-1.607165820458817
 21
81.40615620470942
 31
0.0
  0
LINE
  5
1226E
330
12262
100
AcDbEntity
  8
0
100
AcDbLine
 10
-1.337180467240443
 20
81.40334390182033
 30
0.0
 11
-1.324368865190194
 21
82.63327717759301
 31
0.0
  0
ARC
  5
1226F
330
12262
100
AcDbEntity
  8
0
100
AcDbCircle
 10
-1.47217314384963
 20
81.40475005326488
 30
0.0
 40
0.1349999999999907
100
AcDbArc
 50
179.4031999999982
 51
359.4031999999982
  0
ARC
  5
12270
330
12262
100
AcDbEntity
  8
0
100
AcDbCircle
 10
-1.45936154179941
 20
82.63468332903753
 30
0.0
 40
0.1349999999999981
100
AcDbArc
 50
359.4031999999982
 51
179.4031999999982
  0
LINE
  5
12271
330
12262
100
AcDbEntity
  8
0
100
AcDbLine
 10
1.124921155629635
 20
107.9941412873569
 30
0.0
 11
-2.054906337831425
 21
108.0272639658282
 31
0.0
  0
CIRCLE
  5
12272
330
12262
100
AcDbEntity
  8
0
100
AcDbCircle
 10
-1.340195012138764
 20
107.4197866239243
 30
0.0
 40
0.136
  0
ARC
  5
12273
330
12262
100
AcDbEntity
  8
0
100
AcDbCircle
 10
-1.005983869288513
 20
106.7662700503053
 30
0.0
 40
0.203
100
AcDbArc
 50
250.131434535051
 51
179.4042453669326
  0
CIRCLE
  5
12274
330
12262
100
AcDbEntity
  8
0
100
AcDbCircle
 10
-0.5902356976432373
 20
107.4119746714547
 30
0.0
 40
0.136
  0
ENDBLK
  5
12276
330
12262
100
AcDbEntity
  8
0
100
AcDbBlockEnd
  0
BLOCK
  5
123C0
330
123A2
100
AcDbEntity
  8
0
100
AcDbBlockBegin
  2
141
 70
     0
 10
0.0
 20
0.0
 30
0.0
  3
141
  1

  0
LINE
  5
123A3
330
123A2
100
AcDbEntity
  8
BDR
100
AcDbLine
 10
3.100486284096632
 20
3.619999999999947
 30
0.0
 11
3.100486284096632
 21
0.0
 31
0.0
  0
LINE
  5
123A4
330
123A2
100
AcDbEntity
  8
0
  6
HIDDEN
100
AcDbLine
 10
2.499919181530003
 20
3.594373576309749
 30
0.0
 11
2.499919181530003
 21
0.0
 31
0.0
  0
LINE
  5
123A5
330
123A2
100
AcDbEntity
  8
BDR
100
AcDbLine
 10
0.0
 20
3.619999999999947
 30
0.0
 11
0.0
 21
0.0
 31
0.0
  0
LINE
  5
123A6
330
123A2
100
AcDbEntity
  8
BDR
100
AcDbLine
 10
3.100486284096632
 20
0.0
 30
0.0
 11
0.0
 21
0.0
 31
0.0
  0
LINE
  5
123A7
330
123A2
100
AcDbEntity
  8
BDR
100
AcDbLine
 10
0.6880000000001019
 20
0.5850000000000364
 30
0.0
 11
1.438000000000101
 21
0.5850000000000364
 31
0.0
  0
CIRCLE
  5
123A8
330
123A2
100
AcDbEntity
  8
0
100
AcDbCircle
 10
0.6880000000001019
 20
0.5850000000000364
 30
0.0
 40
0.136
  0
CIRCLE
  5
123A9
330
123A2
100
AcDbEntity
  8
0
100
AcDbCircle
 10
1.438000000000101
 20
0.5850000000000364
 30
0.0
 40
0.136
  0
ARC
  5
123AA
330
123A2
100
AcDbEntity
  8
0
100
AcDbCircle
 10
18.55757527264813
 20
3.319999999999936
 30
0.0
 40
18.56
100
AcDbArc
 50
90.0
 51
179.0738425420151
  0
ARC
  5
123AB
330
123A2
100
AcDbEntity
  8
0
  6
HIDDEN
100
AcDbCircle
 10
18.55757527264813
 20
3.319999999999936
 30
0.0
 40
16.06
100
AcDbArc
 50
90.0
 51
179.0210950958157
  0
ARC
  5
123AC
330
123A2
100
AcDbEntity
  8
0
100
AcDbCircle
 10
18.55757527264813
 20
3.319999999999936
 30
0.0
 40
15.46
100
AcDbArc
 50
90.0
 51
178.8881104285096
  0
LINE
  5
123AD
330
123A2
100
AcDbEntity
  8
0
  6
HIDDEN
100
AcDbLine
 10
140.4456494761813
 20
19.37999999999991
 30
0.0
 11
18.55757527264813
 21
19.37999999999999
 31
0.0
  0
LINE
  5
123AE
330
123A2
100
AcDbEntity
  8
0
100
AcDbLine
 10
140.4456494761813
 20
18.78
 30
0.0
 11
18.55757527264813
 21
18.77999999999997
 31
0.0
  0
LINE
  5
123AF
330
123A2
100
AcDbEntity
  8
0
100
AcDbLine
 10
140.4456494761813
 20
21.88000000000002
 30
0.0
 11
18.55757527264813
 21
21.88
 31
0.0
  0
CIRCLE
  5
123B0
330
123A2
100
AcDbEntity
  8
0
100
AcDbCircle
 10
17.75
 20
21.24000000000001
 30
0.0
 40
0.136
  0
CIRCLE
  5
123B1
330
123A2
100
AcDbEntity
  8
0
100
AcDbCircle
 10
18.75
 20
21.24000000000001
 30
0.0
 40
0.136
  0
CIRCLE
  5
123B2
330
123A2
100
AcDbEntity
  8
0
100
AcDbCircle
 10
36.75
 20
21.24000000000001
 30
0.0
 40
0.136
  0
CIRCLE
  5
123B3
330
123A2
100
AcDbEntity
  8
0
100
AcDbCircle
 10
37.75
 20
21.24000000000001
 30
0.0
 40
0.136
  0
CIRCLE
  5
123B4
330
123A2
100
AcDbEntity
  8
0
100
AcDbCircle
 10
61.75
 20
21.24000000000001
 30
0.0
 40
0.136
  0
CIRCLE
  5
123B5
330
123A2
100
AcDbEntity
  8
0
100
AcDbCircle
 10
60.75
 20
21.24000000000001
 30
0.0
 40
0.136
  0
CIRCLE
  5
123B6
330
123A2
100
AcDbEntity
  8
0
100
AcDbCircle
 10
84.74999999999999
 20
21.24000000000001
 30
0.0
 40
0.136
  0
CIRCLE
  5
123B7
330
123A2
100
AcDbEntity
  8
0
100
AcDbCircle
 10
85.75000000000001
 20
21.24000000000001
 30
0.0
 40
0.136
  0
CIRCLE
  5
123B8
330
123A2
100
AcDbEntity
  8
0
100
AcDbCircle
 10
109.75
 20
21.24000000000001
 30
0.0
 40
0.136
  0
CIRCLE
  5
123B9
330
123A2
100
AcDbEntity
  8
0
100
AcDbCircle
 10
108.75
 20
21.24000000000001
 30
0.0
 40
0.136
  0
LINE
  5
123BA
330
123A2
100
AcDbEntity
  8
0
100
AcDbLine
 10
140.4456494761813
 20
18.77999999999989
 30
0.0
 11
140.4456494761813
 21
21.88000000000002
 31
0.0
  0
CIRCLE
  5
123BB
330
123A2
100
AcDbEntity
  8
0
100
AcDbCircle
 10
132.75
 20
21.24000000000001
 30
0.0
 40
0.136
  0
CIRCLE
  5
123BC
330
123A2
100
AcDbEntity
  8
0
100
AcDbCircle
 10
133.75
 20
21.24000000000001
 30
0.0
 40
0.136
  0
CIRCLE
  5
123BD
330
123A2
100
AcDbEntity
  8
0
100
AcDbCircle
 10
139.1956494761813
 20
21.03800000000004
 30
0.0
 40
0.2075
  0
CIRCLE
  5
123BE
330
123A2
100
AcDbEntity
  8
0
100
AcDbCircle
 10
139.8456494761814
 20
20.65800000000004
 30
0.0
 40
0.136
  0
CIRCLE
  5
123BF
330
123A2
100
AcDbEntity
  8
0
100
AcDbCircle
 10
139.8456494761814
 20
21.40800000000004
 30
0.0
 40
0.136
  0
ENDBLK
  5
123C1
330
123A2
100
AcDbEntity
  8
0
100
AcDbBlockEnd
  0
BLOCK
  5
128FE
330
128F3
100
AcDbEntity
  8
0
100
AcDbBlockBegin
  2
*D95
 70
     1
 10
0.0
 20
0.0
 30
0.0
  3
*D95
  1

  0
LINE
  5
1295B
330
128F3
100
AcDbEntity
  8
TEXT
 62
     0
370
    -2
100
AcDbLine
 10
132.2169295018095
 20
123.0362941793405
 30
0.0
 11
96.3634810886699
 21
123.0362941793405
 31
0.0
  0
LINE
  5
1295C
330
128F3
100
AcDbEntity
  8
TEXT
 62
     0
370
    -2
100
AcDbLine
 10
136.2169295018095
 20
253.0362941793405
 30
0.0
 11
96.36348108866993
 21
253.0362941793405
 31
0.0
  0
LINE
  5
1295D
330
128F3
100
AcDbEntity
  8
TEXT
 62
     0
370
    -2
100
AcDbLine
 10
97.36348108866991
 20
126.0362941793405
 30
0.0
 11
97.36348108866991
 21
183.0779608460072
 31
0.0
  0
LINE
  5
1295E
330
128F3
100
AcDbEntity
  8
TEXT
 62
     0
370
    -2
100
AcDbLine
 10
97.36348108866993
 20
250.0362941793405
 30
0.0
 11
97.36348108866991
 21
192.9946275126738
 31
0.0
  0
SOLID
  5
1295F
330
128F3
100
AcDbEntity
  8
TEXT
 62
     0
100
AcDbTrace
 10
96.8634810886699
 20
126.0362941793405
 30
0.0
 11
97.8634810886699
 21
126.0362941793405
 31
0.0
 12
97.36348108866991
 22
123.0362941793405
 32
0.0
 13
97.36348108866991
 23
123.0362941793405
 33
0.0
  0
SOLID
  5
12960
330
128F3
100
AcDbEntity
  8
TEXT
 62
     0
100
AcDbTrace
 10
96.86348108866994
 20
250.0362941793405
 30
0.0
 11
97.86348108866993
 21
250.0362941793405
 31
0.0
 12
97.36348108866993
 22
253.0362941793405
 32
0.0
 13
97.36348108866993
 23
253.0362941793405
 33
0.0
  0
MTEXT
  5
12961
330
128F3
100
AcDbEntity
  8
TEXT
 62
     0
100
AcDbMText
 10
97.36348108866989
 20
188.0362941793405
 30
0.0
 40
1.75
 41
0.0
 46
0.0
 71
     5
 72
     1
  1
\A1;TAPERED REVERSE\PANGLE\PDOOR HEIGHT+10"
  7
WEB PAGE
 73
     1
 44
1.0
  0
POINT
  5
12962
330
128F3
100
AcDbEntity
  8
Defpoints
 62
     0
100
AcDbPoint
 10
134.2169295018095
 20
123.0362941793405
 30
0.0
  0
POINT
  5
12963
330
128F3
100
AcDbEntity
  8
Defpoints
 62
     0
100
AcDbPoint
 10
138.2169295018095
 20
253.0362941793405
 30
0.0
  0
POINT
  5
12964
330
128F3
100
AcDbEntity
  8
Defpoints
 62
     0
100
AcDbPoint
 10
97.36348108866993
 20
253.0362941793405
 30
0.0
  0
ENDBLK
  5
128FF
330
128F3
100
AcDbEntity
  8
0
100
AcDbBlockEnd
  0
ENDSEC
  0
SECTION
  2
ENTITIES
  0
INSERT
  5
3374
330
17
100
AcDbEntity
  8
AME_FRZ
100
AcDbBlockReference
  2
AME_NIL
 10
0.0
 20
0.0
 30
0.0
 41
24.609375
 42
24.609375
 43
24.609375
  0
INSERT
  5
3375
330
17
100
AcDbEntity
  8
AME_FRZ
100
AcDbBlockReference
  2
AME_SOL
 10
0.0
 20
0.0
 30
0.0
 41
24.609375
 42
24.609375
 43
24.609375
1001
AME_SOL
1000
R2.1
1000
AME2
1000
sq cm
1070
     3
1070
     0
1070
     3
1000
wire
1040
45.0
1000
U
1040
1.0
1000
cm
1000
gm
1000
MILD_STEEL
1070
    25
1000
CSG
1070
     1
1070
     3
1070
     3
1070
     3
1070
     0
1000
cu cm
1070
     1
1070
     0
1005
2D0D
  0
INSERT
  5
3376
330
17
100
AcDbEntity
  8
ASHADE
 62
     1
100
AcDbBlockReference
  2
AVE_RENDER
 10
0.0
 20
0.0
 30
0.0
 41
24.609375
 42
24.609375
 43
24.609375
1001
AVE_RENDER
1002
{
1070
     2
1000
Pref
1070
    30
1070
    20
1070
     0
1070
     0
1000

1070
    10
1070
     0
1070
    30
1040
1.0
1070
     1
1040
0.3
1040
0.7
1040
0.0
1040
10.0
1010
-1.0
1020
-1.0
1030
-1.0
1040
0.3
1070
    49
1002
}
  0
INSERT
  5
3377
330
17
100
AcDbEntity
  8
ASHADE
 62
     3
100
AcDbBlockReference
  2
AVE_RENDER
 10
0.0
 20
0.0
 30
0.0
 41
24.609375
 42
24.609375
 43
24.609375
1001
AVE_RENDER
1002
{
1070
     0
1000
Full Opt
1070
     0
1070
     1
1070
     1
1070
     1
1070
     0
1070
     0
1070
     0
1070
     1
1070
     1
1040
0.0001
1040
0.0001
1002
}
  0
INSERT
  5
3378
330
17
100
AcDbEntity
  8
ASHADE
 62
     4
100
AcDbBlockReference
  2
AVE_RENDER
 10
0.0
 20
0.0
 30
0.0
 41
24.609375
 42
24.609375
 43
24.609375
1001
AVE_RENDER
1002
{
1070
     0
1000
Quick Opt
1070
     0
1070
     1
1070
     1
1070
     1
1070
     0
1070
     0
1070
     1
1002
}
  0
INSERT
  5
3E3C
330
17
100
AcDbEntity
  8
AME_FRZ
100
AcDbBlockReference
  2
AME_NIL
 10
0.0
 20
0.0
 30
0.0
 41
34.993056
 42
34.993056
 43
34.993056
  0
INSERT
  5
3E3D
330
17
100
AcDbEntity
  8
AME_FRZ
100
AcDbBlockReference
  2
AME_SOL
 10
0.0
 20
0.0
 30
0.0
 41
34.993056
 42
34.993056
 43
34.993056
1001
AME_SOL
1000
R2.1
1000
AME2
1000
sq cm
1070
     3
1070
     0
1070
     3
1000
wire
1040
45.0
1000
U
1040
1.0
1000
cm
1000
gm
1000
MILD_STEEL
1070
    25
1000
CSG
1070
     1
1070
     3
1070
     3
1070
     3
1070
     0
1000
cu cm
1070
     1
1070
     0
1005
2D0D
  0
INSERT
  5
3E3E
330
17
100
AcDbEntity
  8
ASHADE
 62
     1
100
AcDbBlockReference
  2
AVE_RENDER
 10
0.0
 20
0.0
 30
0.0
 41
34.993056
 42
34.993056
 43
34.993056
1001
AVE_RENDER
1002
{
1070
     2
1000
Pref
1070
    30
1070
    20
1070
     0
1070
     0
1000

1070
    10
1070
     0
1070
    30
1040
1.0
1070
     1
1040
0.3
1040
0.7
1040
0.0
1040
10.0
1010
-1.0
1020
-1.0
1030
-1.0
1040
0.3
1070
    49
1002
}
  0
INSERT
  5
3E3F
330
17
100
AcDbEntity
  8
ASHADE
 62
     3
100
AcDbBlockReference
  2
AVE_RENDER
 10
0.0
 20
0.0
 30
0.0
 41
34.993056
 42
34.993056
 43
34.993056
1001
AVE_RENDER
1002
{
1070
     0
1000
Full Opt
1070
     0
1070
     1
1070
     1
1070
     1
1070
     0
1070
     0
1070
     0
1070
     1
1070
     1
1040
0.0001
1040
0.0001
1002
}
  0
INSERT
  5
3E40
330
17
100
AcDbEntity
  8
ASHADE
 62
     4
100
AcDbBlockReference
  2
AVE_RENDER
 10
0.0
 20
0.0
 30
0.0
 41
34.993056
 42
34.993056
 43
34.993056
1001
AVE_RENDER
1002
{
1070
     0
1000
Quick Opt
1070
     0
1070
     1
1070
     1
1070
     1
1070
     0
1070
     0
1070
     1
1002
}
  0
MTEXT
  5
405A
330
17
100
AcDbEntity
  8
BDR
100
AcDbMText
 10
353.0635595970848
 20
56.58463448330076
 30
0.0
 40
0.1
 41
37.627
 46
0.0
 71
     1
 72
     5
  1

  7
SIMPLEX
 73
     1
 44
1.0
  0
MTEXT
  5
8913
330
17
100
AcDbEntity
  8
BDR
100
AcDbMText
 10
877.3233813939555
 20
282.200335478095
 30
0.0
 40
3.0
 41
0.0
 46
0.0
 71
     4
 72
     1
  1
\A1;
 73
     1
 44
1.0
  0
MTEXT
  5
BB0D
330
17
100
AcDbEntity
  8
HATCH
 48
0.5
100
AcDbMText
 10
862.711853351133
 20
170.0626199810501
 30
0.0
 40
1.1
 41
0.0
 46
0.0
 71
     4
 72
     1
  1

 73
     1
 44
1.0
  0
MTEXT
  5
BD7C
330
17
100
AcDbEntity
  8
BDR
100
AcDbMText
 10
648.3700742151118
 20
223.690432353357
 30
0.0
 40
2.5
 41
0.0
 46
0.0
 71
     1
 72
     1
  1

 73
     1
 44
1.0
  0
MTEXT
  5
CE5A
330
17
100
AcDbEntity
  8
BDR
100
AcDbMText
 10
645.7641368582438
 20
217.5930814931963
 30
0.0
 40
2.5
 41
0.0
 46
0.0
 71
     1
 72
     1
  1

 73
     1
 44
1.0
  0
MTEXT
  5
D3E4
330
17
100
AcDbEntity
  8
0
100
AcDbMText
 10
393.5054431651311
 20
218.3654697964034
 30
0.0
 40
2.5
 41
0.0
 46
0.0
 71
     1
 72
     1
  1

 73
     1
 44
1.0
  0
MTEXT
  5
D891
330
17
100
AcDbEntity
  8
BDR
100
AcDbMText
 10
278.8170020773584
 20
330.6127380359346
 30
0.0
 40
2.5
 41
0.0
 46
0.0
 71
     1
 72
     1
  1

 73
     1
 44
1.0
  0
MTEXT
  5
D894
330
17
100
AcDbEntity
  8
BDR
100
AcDbMText
 10
282.4572809863948
 20
283.699790306357
 30
0.0
 40
2.5
 41
0.0
 46
0.0
 71
     1
 72
     1
  1

 73
     1
 44
1.0
  0
MTEXT
  5
D8BC
330
17
100
AcDbEntity
  8
BDR
100
AcDbMText
 10
280.6377852630108
 20
262.5297979250931
 30
0.0
 40
2.5
 41
0.0
 46
0.0
 71
     1
 72
     1
  1

 73
     1
 44
1.0
  0
MTEXT
  5
D8BE
330
17
100
AcDbEntity
  8
BDR
100
AcDbMText
 10
280.052229178619
 20
230.2002619872308
 30
0.0
 40
2.5
 41
0.0
 46
0.0
 71
     1
 72
     1
  1

 73
     1
 44
1.0
  0
MTEXT
  5
D8C2
330
17
100
AcDbEntity
  8
BDR
100
AcDbMText
 10
210.2931674542633
 20
331.4813092531851
 30
0.0
 40
2.5
 41
0.0
 46
0.0
 71
     9
 72
     1
  1

 73
     1
 44
1.0
  0
MTEXT
  5
DE82
330
17
100
AcDbEntity
  8
0
100
AcDbMText
 10
230.9601867147205
 20
186.4290317625283
 30
0.0
 40
3.5
 41
0.0
 46
0.0
 71
     1
 72
     1
  1

 73
     1
 44
1.0
  0
DIMENSION
  5
11CDE
330
17
100
AcDbEntity
  8
TEXT
100
AcDbDimension
  2
*D64
 10
78.78088021505805
 20
256.5548893389561
 30
0.0
 11
78.780880215058
 21
202.7898988514811
 31
0.0
 70
   160
  1
FLOOR TO\PSHAFT CENTER
 71
     5
 42
133.5185951596155
 73
     0
 74
     0
 75
     0
  3
STANDARD
100
AcDbAlignedDimension
 13
134.2169295018095
 23
123.0362941793405
 33
0.0
 14
141.5919295018095
 24
256.5548893389561
 34
0.0
 50
90.0
100
AcDbRotatedDimension
1001
ACAD
1000
DSTYLE
1002
{
1070
    40
1040
1.0
1002
}
  0
DIMENSION
  5
11CDF
330
17
100
AcDbEntity
  8
TEXT
100
AcDbDimension
  2
*D65
 10
61.69924351452976
 20
259.9298893389562
 30
0.0
 11
61.69924351452971
 21
181.424623123489
 31
0.0
 70
   160
  1
MINIMUM\PCEILING HEIGHT
 71
     5
 42
136.8935951596156
 73
     0
 74
     0
 75
     0
  3
STANDARD
100
AcDbAlignedDimension
 13
134.2169295018095
 23
123.0362941793405
 33
0.0
 14
138.2169295018095
 24
259.9298893389561
 34
0.0
 50
90.0
100
AcDbRotatedDimension
1001
ACAD
1000
DSTYLE
1002
{
1070
    40
1040
1.0
1002
}
  0
DIMENSION
  5
11CE0
330
17
100
AcDbEntity
  8
TEXT
100
AcDbDimension
  2
*D66
 10
175.0501848453942
 20
231.0648893389561
 30
0.0
 11
175.0501848453941
 21
174.879062324093
 31
0.0
 70
   160
  1
VERTICAL TRACK\PDOOR HEIGHT-12"
 71
     5
 42
108.0285951596155
 73
     0
 74
     0
 75
     0
  3
STANDARD
100
AcDbAlignedDimension
 13
209.4861505668555
 23
123.0362941793405
 33
0.0
 14
143.8761470881871
 24
231.0648893389561
 34
0.0
 50
90.0
100
AcDbRotatedDimension
1001
ACAD
1000
DSTYLE
1002
{
1070
    40
1040
1.0
1002
}
  0
DIMENSION
  5
11CE1
330
17
100
AcDbEntity
  8
TEXT
100
AcDbDimension
  2
*D67
 10
118.0575413775432
 20
123.0362941793405
 30
0.0
 11
118.0575413775432
 21
183.0362941793405
 31
0.0
 70
    32
  1
OPENING\PHEIGHT
 71
     5
 42
120.0
 73
     0
 74
     0
 75
     0
  3
STANDARD
100
AcDbAlignedDimension
 13
134.2169295018095
 23
243.0362941793405
 33
0.0
 14
134.2169295018095
 24
123.0362941793405
 34
0.0
 50
90.0
100
AcDbRotatedDimension
1001
ACAD
1000
DSTYLE
1002
{
1070
    40
1040
1.0
1002
}
  0
LINE
  5
11CE2
102
{ACAD_REACTORS
330
1259E
102
}
330
17
100
AcDbEntity
  8
BDR
100
AcDbLine
 10
134.2169295018095
 20
123.0362941793405
 30
0.0
 11
134.2169295018095
 21
263.9298893389561
 31
0.0
  0
LINE
  5
11CE3
102
{ACAD_REACTORS
330
1259E
102
}
330
17
100
AcDbEntity
  8
BDR
100
AcDbLine
 10
138.2169295018095
 20
123.0362941793405
 30
0.0
 11
138.2169295018095
 21
259.9298893389561
 31
0.0
  0
LINE
  5
11CE5
330
17
100
AcDbEntity
  8
BDR
100
AcDbLine
 10
221.5803211345133
 20
123.0362941793405
 30
0.0
 11
134.2169295018095
 21
123.0362941793405
 31
0.0
  0
MTEXT
  5
11CF6
330
17
100
AcDbEntity
  8
TEXT
100
AcDbMText
 10
159.3213248607085
 20
247.6697764564923
 30
0.0
 40
1.75
 41
0.0
 46
0.0
 71
     1
 72
     1
  1
TAPERED REVERSE\PANGLE
  7
WEB PAGE
 73
     1
 44
1.0
  0
MTEXT
  5
11CF7
330
17
100
AcDbEntity
  8
TEXT
100
AcDbMText
 10
186.5198471084741
 20
271.4175248925766
 30
0.0
 40
1.75
 41
0.0
 46
0.0
 71
     6
 72
     1
  1
HORIZONTAL ANGLE
  7
WEB PAGE
 73
     1
 44
1.0
  0
LINE
  5
11CF8
102
{ACAD_REACTORS
330
1259E
102
}
330
17
100
AcDbEntity
  8
BDR
100
AcDbLine
 10
138.2169295018095
 20
259.9298893389561
 30
0.0
 11
286.026584289913
 21
259.9298893389561
 31
0.0
  0
LEADER
  5
11CFD
330
17
100
AcDbEntity
  8
TEXT
100
AcDbLeader
  3
STANDARD
 73
     0
 74
     0
 75
     1
 40
3.5
 76
     3
 10
146.9538936123103
 20
251.4671943696826
 30
0.0
 10
156.7568279188576
 20
271.3504931055552
 30
0.0
 10
159.7568279188576
 20
271.3504931055552
 30
0.0
213
-30.35839136054324
223
2.172941992376536
233
0.0
1001
ACAD
1000
DSTYLE
1002
{
1070
    40
1040
1.0
1070
   147
1040
3.0
1002
}
  0
DIMENSION
  5
11CFE
330
17
100
AcDbEntity
  8
TEXT
100
AcDbDimension
  2
*D68
 10
118.0575413775432
 20
259.9298893389562
 30
0.0
 11
128.9325413775432
 21
272.3008621425022
 31
0.0
 70
   160
  1
MINIMUM\PHEADROOM
 71
     5
 42
16.89359515961561
 73
     0
 74
     0
 75
     0
  3
STANDARD
100
AcDbAlignedDimension
 13
134.2169295018095
 23
243.0362941793405
 33
0.0
 14
138.2169295018095
 24
259.9298893389561
 34
0.0
 50
90.0
100
AcDbRotatedDimension
1001
ACAD
1000
DSTYLE
1002
{
1070
    40
1040
1.0
1002
}
  0
LEADER
  5
11D00
330
17
100
AcDbEntity
  8
TEXT
100
AcDbLeader
  3
STANDARD
 73
     0
 40
3.5
 76
     2
 10
141.5534877896161
 20
246.3808060174766
 30
0.0
 10
158.3834190818052
 20
246.3788886407526
 30
0.0
213
-28.01915490533588
223
-1.822965986319815
233
0.0
1001
ACAD
1000
DSTYLE
1002
{
1070
    40
1040
1.0
1070
   147
1040
3.0
1002
}
  0
LINE
  5
11D06
102
{ACAD_REACTORS
330
1259E
102
}
330
17
100
AcDbEntity
  8
BDR
100
AcDbLine
 10
138.2169295018095
 20
243.0362941793405
 30
0.0
 11
134.2169295018095
 21
243.0362941793405
 31
0.0
  0
LINE
  5
11D0E
330
17
100
AcDbEntity
  8
0
100
AcDbLine
 10
219.7429017190521
 20
250.4660904555707
 30
0.0
 11
218.2513640181228
 21
250.4660904555707
 31
0.0
  0
LINE
  5
11D0F
330
17
100
AcDbEntity
  8
0
100
AcDbLine
 10
218.2513640181228
 20
250.4660904555707
 30
0.0
 11
218.2513640181228
 21
259.9298893389561
 31
0.0
  0
LINE
  5
11D10
330
17
100
AcDbEntity
  8
0
100
AcDbLine
 10
218.375698600878
 20
250.4660904555707
 30
0.0
 11
218.3756986008777
 21
259.9298893389561
 31
0.0
  0
LINE
  5
11D12
330
17
100
AcDbEntity
  8
0
100
AcDbLine
 10
219.7429017190518
 20
250.4660904555707
 30
0.0
 11
219.7429017190521
 21
259.9298893389561
 31
0.0
  0
CIRCLE
  5
11D13
330
17
100
AcDbEntity
  8
0
100
AcDbCircle
 10
218.9971328685874
 20
257.1134331156567
 30
0.0
 40
0.2171678892550922
  0
CIRCLE
  5
11D14
330
17
100
AcDbEntity
  8
0
100
AcDbCircle
 10
218.9971328685874
 20
251.1353500103381
 30
0.0
 40
0.2171678892550922
  0
CIRCLE
  5
11D15
330
17
100
AcDbEntity
  8
0
100
AcDbCircle
 10
218.9971328685874
 20
253.1280443787776
 30
0.0
 40
0.2171678892550922
  0
CIRCLE
  5
11D16
330
17
100
AcDbEntity
  8
0
100
AcDbCircle
 10
218.9971328685874
 20
254.1220051026761
 30
0.0
 40
0.2171678892550922
  0
CIRCLE
  5
11D17
330
17
100
AcDbEntity
  8
0
100
AcDbCircle
 10
218.9971328685874
 20
252.1293107342366
 30
0.0
 40
0.2171678892550922
  0
CIRCLE
  5
11D18
330
17
100
AcDbEntity
  8
0
100
AcDbCircle
 10
218.9971328685874
 20
256.1146994711156
 30
0.0
 40
0.2171678892550922
  0
CIRCLE
  5
11D19
330
17
100
AcDbEntity
  8
0
100
AcDbCircle
 10
218.9971328685874
 20
255.1207387472171
 30
0.0
 40
0.2171678892550922
  0
MTEXT
  5
11D1B
330
17
100
AcDbEntity
  8
TEXT
100
AcDbMText
 10
235.4719448811817
 20
222.871562798987
 30
0.0
 40
1.75
 41
0.0
 46
0.0
 71
     4
 72
     1
  1
BACK AND INTERMEDIATE HANGERS\PSUPPLIED BY OTHERS
  7
WEB PAGE
 73
     1
 44
1.0
  0
LINE
  5
11D1C
330
17
100
AcDbEntity
  8
0
100
AcDbLine
 10
276.6576140181228
 20
250.9013665084892
 30
0.0
 11
276.6576140181228
 21
259.9298893389561
 31
0.0
  0
LINE
  5
11D1D
330
17
100
AcDbEntity
  8
0
100
AcDbLine
 10
276.781948600878
 20
250.9013665084892
 30
0.0
 11
276.7819486008775
 21
259.9298893389561
 31
0.0
  0
LINE
  5
11D1E
330
17
100
AcDbEntity
  8
0
100
AcDbLine
 10
278.1491517190518
 20
250.9013665084892
 30
0.0
 11
278.1491517190521
 21
259.9298893389561
 31
0.0
  0
LEADER
  5
11D1F
330
17
100
AcDbEntity
  8
TEXT
100
AcDbLeader
  3
STANDARD
 73
     0
 74
     0
 75
     1
 40
3.5
 76
     3
 10
227.8568802770716
 20
216.1662960606622
 30
0.0
 10
231.7555368640072
 20
224.1706241143037
 30
0.0
 10
234.7555368640072
 20
224.1706241143037
 30
0.0
213
-30.73869949890218
223
37.29359984281018
233
0.0
1001
ACAD
1000
DSTYLE
1002
{
1070
    40
1040
1.0
1002
}
  0
LINE
  5
11D20
330
17
100
AcDbEntity
  8
0
100
AcDbLine
 10
278.1491517190521
 20
250.9013665084892
 30
0.0
 11
276.6576140181228
 21
250.9013665084892
 31
0.0
  0
CIRCLE
  5
11D21
330
17
100
AcDbEntity
  8
0
100
AcDbCircle
 10
277.4033828685874
 20
251.5706260632567
 30
0.0
 40
0.2075
  0
CIRCLE
  5
11D22
330
17
100
AcDbEntity
  8
0
100
AcDbCircle
 10
277.4033828685874
 20
254.5572811555945
 30
0.0
 40
0.2171678892550922
  0
CIRCLE
  5
11D23
330
17
100
AcDbEntity
  8
0
100
AcDbCircle
 10
277.4033828685874
 20
255.5560148001357
 30
0.0
 40
0.2171678892550922
  0
CIRCLE
  5
11D24
330
17
100
AcDbEntity
  8
0
100
AcDbCircle
 10
277.4033828685874
 20
256.549975524034
 30
0.0
 40
0.2171678892550922
  0
CIRCLE
  5
11D25
330
17
100
AcDbEntity
  8
0
100
AcDbCircle
 10
277.4033828685874
 20
252.564586787155
 30
0.0
 40
0.2171678892550922
  0
CIRCLE
  5
11D26
330
17
100
AcDbEntity
  8
0
100
AcDbCircle
 10
277.4033828685874
 20
253.5633204316962
 30
0.0
 40
0.2171678892550922
  0
CIRCLE
  5
11D27
330
17
100
AcDbEntity
  8
0
100
AcDbCircle
 10
277.4033828685874
 20
257.5487091685752
 30
0.0
 40
0.2171678892550922
  0
CIRCLE
  5
11D28
330
17
100
AcDbEntity
  8
0
100
AcDbCircle
 10
277.4033828685874
 20
258.4208918404842
 30
0.0
 40
0.2171678892550922
  0
LINE
  5
11D29
102
{ACAD_REACTORS
330
1259E
102
}
330
17
100
AcDbEntity
  8
BDR
100
AcDbLine
 10
286.026584289913
 20
263.9298893389561
 30
0.0
 11
286.026584289913
 21
259.9298893389561
 31
0.0
  0
INSERT
  5
11E5B
330
17
100
AcDbEntity
  8
FRAMING
100
AcDbBlockReference
  2
WD-9-3-38
 10
138.2169295018095
 20
253.9548893389561
 30
0.0
  0
CIRCLE
  5
11E86
330
17
100
AcDbEntity
  8
FRAMING
100
AcDbCircle
 10
141.5919295018095
 20
256.5548893389561
 30
0.0
 40
2.375
  0
DIMENSION
  5
11EA8
330
17
100
AcDbEntity
  8
TEXT
100
AcDbDimension
  2
*D71
 10
281.2213102802719
 20
240.2407720156136
 30
0.0
 11
210.9984855421812
 21
240.2407720156136
 31
0.0
 70
    32
  1
HORIZONTAL TRACK LENGTH\P(BACKROOM: DOOR HEIGHT + 21")
 71
     5
 42
140.4456494761813
 73
     0
 74
     0
 75
     0
  3
STANDARD
100
AcDbAlignedDimension
 13
140.7756608040905
 23
232.874889338956
 33
0.0
 14
281.2213102802719
 24
249.8448893389561
 34
0.0
100
AcDbRotatedDimension
  0
LWPOLYLINE
  5
12008
330
17
100
AcDbEntity
  8
FRAMING
100
AcDbPolyline
 90
        6
 70
     0
 43
0.0
 10
208.3238681668182
 20
213.6152231550803
 10
204.64358591964
 20
213.6152231550803
 10
204.64358591964
 20
216.1152231550802
 10
232.64358591964
 20
216.1152231550802
 10
232.64358591964
 20
213.6152231550803
 10
210.8238681668182
 20
213.6152231550803
  0
LWPOLYLINE
  5
1200A
330
17
100
AcDbEntity
  8
FRAMING
100
AcDbPolyline
 90
        2
 70
     0
 43
0.0
 10
210.8238681668182
 20
201.8829901080465
 10
222.556101213852
 20
213.6152231550803
  0
CIRCLE
  5
1200B
330
17
100
AcDbEntity
  8
FRAMING
100
AcDbCircle
 10
209.5738681668182
 20
192.8652231550802
 30
0.0
 40
0.5
  0
CIRCLE
  5
1200C
330
17
100
AcDbEntity
  8
FRAMING
100
AcDbCircle
 10
209.5738681668182
 20
194.8652231550802
 30
0.0
 40
0.5
  0
CIRCLE
  5
1200D
330
17
100
AcDbEntity
  8
FRAMING
100
AcDbCircle
 10
209.5738681668182
 20
196.8652231550802
 30
0.0
 40
0.5
  0
CIRCLE
  5
1200E
330
17
100
AcDbEntity
  8
FRAMING
100
AcDbCircle
 10
209.5738681668182
 20
198.8652231550802
 30
0.0
 40
0.5
  0
CIRCLE
  5
1200F
330
17
100
AcDbEntity
  8
FRAMING
100
AcDbCircle
 10
209.5738681668182
 20
200.8652231550803
 30
0.0
 40
0.5
  0
CIRCLE
  5
12010
330
17
100
AcDbEntity
  8
FRAMING
100
AcDbCircle
 10
209.5738681668182
 20
202.8652231550803
 30
0.0
 40
0.5
  0
CIRCLE
  5
12011
330
17
100
AcDbEntity
  8
FRAMING
100
AcDbCircle
 10
209.5738681668182
 20
204.8652231550803
 30
0.0
 40
0.5
  0
CIRCLE
  5
12012
330
17
100
AcDbEntity
  8
FRAMING
100
AcDbCircle
 10
209.5738681668182
 20
206.8652231550803
 30
0.0
 40
0.5
  0
CIRCLE
  5
12013
330
17
100
AcDbEntity
  8
FRAMING
100
AcDbCircle
 10
209.5738681668182
 20
208.8652231550803
 30
0.0
 40
0.5
  0
CIRCLE
  5
12014
330
17
100
AcDbEntity
  8
FRAMING
100
AcDbCircle
 10
209.5738681668182
 20
210.8652231550803
 30
0.0
 40
0.5
  0
CIRCLE
  5
12015
330
17
100
AcDbEntity
  8
FRAMING
100
AcDbCircle
 10
209.5738681668182
 20
212.8652231550803
 30
0.0
 40
0.5
  0
CIRCLE
  5
12016
330
17
100
AcDbEntity
  8
FRAMING
100
AcDbCircle
 10
209.5738681668182
 20
214.8652231550803
 30
0.0
 40
0.5
  0
CIRCLE
  5
12017
330
17
100
AcDbEntity
  8
FRAMING
100
AcDbCircle
 10
209.5738681668182
 20
214.8652231550803
 30
0.0
 40
0.5
  0
CIRCLE
  5
12018
330
17
100
AcDbEntity
  8
FRAMING
100
AcDbCircle
 10
211.5738681668182
 20
214.8652231550803
 30
0.0
 40
0.5
  0
CIRCLE
  5
12019
330
17
100
AcDbEntity
  8
FRAMING
100
AcDbCircle
 10
213.5738681668182
 20
214.8652231550803
 30
0.0
 40
0.5
  0
CIRCLE
  5
1201A
330
17
100
AcDbEntity
  8
FRAMING
100
AcDbCircle
 10
215.5738681668182
 20
214.8652231550803
 30
0.0
 40
0.5
  0
CIRCLE
  5
1201B
330
17
100
AcDbEntity
  8
FRAMING
100
AcDbCircle
 10
217.5738681668182
 20
214.8652231550803
 30
0.0
 40
0.5
  0
CIRCLE
  5
1201C
330
17
100
AcDbEntity
  8
FRAMING
100
AcDbCircle
 10
219.5738681668182
 20
214.8652231550803
 30
0.0
 40
0.5
  0
CIRCLE
  5
1201D
330
17
100
AcDbEntity
  8
FRAMING
100
AcDbCircle
 10
221.5738681668182
 20
214.8652231550803
 30
0.0
 40
0.5
  0
CIRCLE
  5
1201E
330
17
100
AcDbEntity
  8
FRAMING
100
AcDbCircle
 10
223.5738681668182
 20
214.8652231550803
 30
0.0
 40
0.5
  0
CIRCLE
  5
1201F
330
17
100
AcDbEntity
  8
FRAMING
100
AcDbCircle
 10
225.5738681668182
 20
214.8652231550803
 30
0.0
 40
0.5
  0
CIRCLE
  5
12020
330
17
100
AcDbEntity
  8
FRAMING
100
AcDbCircle
 10
227.5738681668182
 20
214.8652231550803
 30
0.0
 40
0.5
  0
CIRCLE
  5
12021
330
17
100
AcDbEntity
  8
FRAMING
100
AcDbCircle
 10
229.5738681668182
 20
214.8652231550803
 30
0.0
 40
0.5
  0
CIRCLE
  5
12022
330
17
100
AcDbEntity
  8
FRAMING
100
AcDbCircle
 10
231.5738681668182
 20
214.8652231550803
 30
0.0
 40
0.5
  0
CIRCLE
  5
12023
330
17
100
AcDbEntity
  8
FRAMING
100
AcDbCircle
 10
215.6743732302066
 20
204.9657282184686
 30
0.0
 40
0.5
  0
CIRCLE
  5
12024
330
17
100
AcDbEntity
  8
FRAMING
100
AcDbCircle
 10
214.2601596678335
 20
203.5515146560955
 30
0.0
 40
0.5
  0
CIRCLE
  5
12025
330
17
100
AcDbEntity
  8
FRAMING
100
AcDbCircle
 10
212.8459461054604
 20
202.1373010937224
 30
0.0
 40
0.5
  0
CIRCLE
  5
12026
330
17
100
AcDbEntity
  8
FRAMING
100
AcDbCircle
 10
211.4317325430873
 20
200.7230875313493
 30
0.0
 40
0.5
  0
CIRCLE
  5
12028
330
17
100
AcDbEntity
  8
FRAMING
100
AcDbCircle
 10
222.7454410420721
 20
212.036796030334
 30
0.0
 40
0.5
  0
CIRCLE
  5
12029
330
17
100
AcDbEntity
  8
FRAMING
100
AcDbCircle
 10
221.331227479699
 20
210.6225824679609
 30
0.0
 40
0.5
  0
CIRCLE
  5
1202A
330
17
100
AcDbEntity
  8
FRAMING
100
AcDbCircle
 10
219.9170139173259
 20
209.2083689055879
 30
0.0
 40
0.5
  0
CIRCLE
  5
1202B
330
17
100
AcDbEntity
  8
FRAMING
100
AcDbCircle
 10
218.5028003549528
 20
207.7941553432148
 30
0.0
 40
0.5
  0
CIRCLE
  5
1202C
330
17
100
AcDbEntity
  8
FRAMING
100
AcDbCircle
 10
217.0885867925797
 20
206.3799417808417
 30
0.0
 40
0.5
  0
CIRCLE
  5
1202D
330
17
100
AcDbEntity
  8
FRAMING
100
AcDbCircle
 10
225.5738681668182
 20
214.8652231550803
 30
0.0
 40
0.5
  0
ARC
  5
1202E
330
17
100
AcDbEntity
  8
FRAMING
100
AcDbCircle
 10
224.1596546044451
 20
213.4510095927072
 30
0.0
 40
0.5
100
AcDbArc
 50
160.8266638561468
 51
19.17333614385317
  0
CIRCLE
  5
12030
330
17
100
AcDbEntity
  8
FRAMING
100
AcDbCircle
 10
207.5738681668182
 20
214.8652231550803
 30
0.0
 40
0.5
  0
CIRCLE
  5
12032
330
17
100
AcDbEntity
  8
FRAMING
100
AcDbCircle
 10
205.5738681668182
 20
214.8652231550803
 30
0.0
 40
0.5
  0
ARC
  5
12033
330
17
100
AcDbEntity
  8
FRAMING
100
AcDbCircle
 10
208.6033054183411
 20
197.8946604066031
 30
0.0
 40
0.5
100
AcDbArc
 50
123.9779978142455
 51
236.0220021857545
  0
INSERT
  5
12045
330
17
100
AcDbEntity
  8
FRAMING
100
AcDbBlockReference
  2
A$C2D8E259A
 10
208.3238672460117
 20
192.1381299463221
 30
0.0
 41
-2.0
 42
2.0
 43
2.0
  0
LWPOLYLINE
  5
12046
330
17
100
AcDbEntity
  8
FRAMING
100
AcDbPolyline
 90
        3
 70
     0
 43
0.0
 10
208.3238681668182
 20
196.8619358662408
 10
207.0633410459154
 20
198.1224629871437
 10
208.3238681668182
 20
199.3829901080465
  0
LINE
  5
12047
330
17
100
AcDbEntity
  8
FRAMING
100
AcDbLine
 10
208.3238681668182
 20
215.8035189089617
 30
0.0
 11
210.8238681668182
 21
215.8035189089617
 31
0.0
  0
LINE
  5
12048
330
17
100
AcDbEntity
  8
FRAMING
100
AcDbLine
 10
210.8238681668182
 20
215.8035189089617
 30
0.0
 11
210.8238681668182
 21
191.8035189089617
 31
0.0
  0
LINE
  5
12049
330
17
100
AcDbEntity
  8
FRAMING
100
AcDbLine
 10
210.8238681668182
 20
191.8035189089617
 30
0.0
 11
208.3238681668182
 21
191.8035189089617
 31
0.0
  0
LINE
  5
1204A
330
17
100
AcDbEntity
  8
FRAMING
100
AcDbLine
 10
208.3238681668182
 20
191.8035189089617
 30
0.0
 11
208.3238681668182
 21
215.8035189089617
 31
0.0
  0
LINE
  5
1204B
330
17
100
AcDbEntity
  8
FRAMING
100
AcDbLine
 10
208.6168477971488
 20
191.8035189089617
 30
0.0
 11
208.6168477971488
 21
215.8035189089617
 31
0.0
  0
LWPOLYLINE
  5
1204C
330
17
100
AcDbEntity
  8
FRAMING
100
AcDbPolyline
 90
        2
 70
     0
 43
0.0
 10
226.0916351197847
 20
213.6152231550803
 10
210.8238681668182
 20
198.3474562021138
  0
DIMENSION
  5
1205D
330
17
100
AcDbEntity
  8
TEXT
100
AcDbDimension
  2
*D73
 10
222.556101213852
 20
213.6152231550803
 30
0.0
 11
217.2310416522643
 21
211.6871687594967
 31
0.0
 70
   162
 71
     5
 42
0.7853981633974474
 73
     0
 74
     0
 75
     0
  3
STANDARD
100
AcDb2LineAngularDimension
 13
232.64358591964
 23
213.6152231550803
 33
0.0
 14
210.8238681668182
 24
213.6152231550803
 34
0.0
 15
210.8238681668182
 25
201.8829901080465
 35
0.0
 16
217.6514870786636
 26
210.783542863858
 36
0.0
  0
TEXT
  5
12085
330
17
100
AcDbEntity
  8
TEXT
100
AcDbText
 10
273.9308633903065
 20
233.4171027719595
 30
0.0
 40
1.75
  1
A
  7
WEB PAGE
100
AcDbText
  0
TEXT
  5
12088
330
17
100
AcDbEntity
  8
TEXT
100
AcDbText
 10
273.9308633903065
 20
266.9816107066522
 30
0.0
 40
1.75
  1
A
  7
WEB PAGE
100
AcDbText
  0
TEXT
  5
1208F
330
17
100
AcDbEntity
  8
TEXT
100
AcDbText
 10
106.5284338100042
 20
116.5671156682698
 30
0.0
 40
3.0
  1
%%USTANDARD LIFT TAPERED REVERSE ANGLE MOUNT TRACK SET DETAIL
  7
WEB PAGE
100
AcDbText
  0
SOLID
  5
12091
330
17
100
AcDbEntity
  8
TEXT
100
AcDbTrace
 10
280.305166675194
 20
234.8649231632721
 30
0.0
 11
277.305166675194
 21
234.3649231632721
 31
0.0
 12
280.305166675194
 22
233.8649231632721
 32
0.0
 13
280.305166675194
 23
233.8649231632721
 33
0.0
1001
ACAD
1000
DSTYLE
1002
{
1070
   147
1040
1.0
1070
    77
1070
     0
1002
}
  0
LINE
  5
12092
330
17
100
AcDbEntity
  8
TEXT
100
AcDbLine
 10
287.3555256903735
 20
267.9294310979648
 30
0.0
 11
287.3555256903735
 21
234.3649231632721
 31
0.0
1001
ACAD
1000
DSTYLE
1002
{
1070
   147
1040
1.0
1070
    77
1070
     0
1002
}
  0
LINE
  5
12093
330
17
100
AcDbEntity
  8
TEXT
100
AcDbLine
 10
280.305166675194
 20
234.3649231632721
 30
0.0
 11
287.3555256903735
 21
234.3649231632721
 31
0.0
1001
ACAD
1000
DSTYLE
1002
{
1070
   147
1040
1.0
1070
    77
1070
     0
1002
}
  0
LINE
  5
12094
330
17
100
AcDbEntity
  8
TEXT
100
AcDbLine
 10
280.305166675194
 20
267.9294310979648
 30
0.0
 11
287.3555256903735
 21
267.9294310979648
 31
0.0
1001
ACAD
1000
DSTYLE
1002
{
1070
   147
1040
1.0
1070
    77
1070
     0
1002
}
  0
SOLID
  5
12095
330
17
100
AcDbEntity
  8
TEXT
100
AcDbTrace
 10
280.305166675194
 20
268.4294310979648
 30
0.0
 11
277.305166675194
 21
267.9294310979648
 31
0.0
 12
280.305166675194
 22
267.4294310979647
 32
0.0
 13
280.305166675194
 23
267.4294310979647
 33
0.0
1001
ACAD
1000
DSTYLE
1002
{
1070
   147
1040
1.0
1070
    77
1070
     0
1002
}
  0
TEXT
  5
12096
330
17
100
AcDbEntity
  8
TEXT
100
AcDbText
 10
215.8225506895757
 20
181.5595812266233
 30
0.0
 40
3.0
  1
%%USECTION A-A
  7
WEB PAGE
100
AcDbText
  0
TEXT
  5
12097
330
17
100
AcDbEntity
  8
TEXT
100
AcDbText
 10
205.7861317576873
 20
175.6530810391027
 30
0.0
 40
3.0
  1
%%USUPPORT HANGER DETAIL
  7
WEB PAGE
100
AcDbText
  0
INSERT
  5
12260
102
{ACAD_REACTORS
330
1259E
102
}
330
17
100
AcDbEntity
  8
FRAMING
100
AcDbBlockReference
  2
TRA130
 10
142.0318840384533
 20
159.323679727483
 30
0.0
  0
INSERT
  5
12277
330
17
100
AcDbEntity
  8
FRAMING
100
AcDbBlockReference
  2
3-VPT-108
 10
142.8305671419219
 20
123.0376253731278
 30
0.0
  0
INSERT
  5
123C2
330
17
100
AcDbEntity
  8
FRAMING
100
AcDbBlockReference
  2
141
 10
140.7756608040905
 20
231.0648893389561
 30
0.0
  0
INSERT
  5
123F5
330
17
100
AcDbEntity
  8
FRAMING
100
AcDbBlockReference
  2
HA137
 10
138.3356608040906
 20
251.494889338956
 30
0.0
  0
LINE
  5
12437
102
{ACAD_REACTORS
330
1259E
102
}
330
17
100
AcDbEntity
  8
BDR
100
AcDbLine
 10
134.2169295018095
 20
263.9298893389561
 30
0.0
 11
286.026584289913
 21
263.9298893389561
 31
0.0
  0
HATCH
  5
1259E
330
17
100
AcDbEntity
  8
FRAMING
100
AcDbHatch
 10
0.0
 20
0.0
 30
0.0
210
0.0
220
0.0
230
1.0
  2
ANSI31
 70
     0
 71
     1
 91
        1
 92
        7
 72
     0
 73
     1
 93
        7
 10
286.0265842899129
 20
263.9298893389561
 10
134.2169295018095
 20
263.9298893389561
 10
134.2169295018095
 20
243.0362941793405
 10
138.2169295018095
 20
243.0362941793405
 10
138.2169295018095
 20
253.0362941793405
 10
138.2169295018095
 20
259.9298893389561
 10
286.026584289913
 20
259.9298893389561
 97
        7
330
12437
330
11CE2
330
11D06
330
12260
330
11CE3
330
11CF8
330
11D29
 75
     0
 76
     1
 52
0.0
 41
15.0
 77
     0
 78
     1
 53
45.0
 43
0.0
 44
0.0
 45
-1.325825214724776
 46
1.325825214724776
 79
     0
 47
0.2123778514376867
 98
        1
 10
177.7169915511571
 20
261.7981967458487
  0
DIMENSION
  5
128F2
330
17
100
AcDbEntity
  8
TEXT
100
AcDbDimension
  2
*D95
 10
97.36348108866993
 20
253.0362941793405
 30
0.0
 11
97.36348108866989
 21
188.0362941793405
 31
0.0
 70
    32
  1
TAPERED REVERSE\PANGLE\PDOOR HEIGHT+10"
 71
     5
 42
130.0
 73
     0
 74
     0
 75
     0
  3
STANDARD
100
AcDbAlignedDimension
 13
134.2169295018095
 23
123.0362941793405
 33
0.0
 14
138.2169295018095
 24
253.0362941793405
 34
0.0
 50
90.0
100
AcDbRotatedDimension
  0
MTEXT
  5
132B7
330
17
100
AcDbEntity
  8
TEXT
100
AcDbMText
 10
204.8625137690629
 20
163.0707618337349
 30
0.0
 40
2.6
 41
37.3125
 46
0.0
 71
     2
 72
     5
  1
HEADROOM\PREQUIREMENTS
  7
WEB PAGE
 73
     1
 44
1.0
  0
LINE
  5
132B8
330
17
100
AcDbEntity
  8
TEXT
100
AcDbLine
 10
185.3057942454472
 20
147.1781265763601
 30
0.0
 11
224.0114500393889
 21
147.1781265763601
 31
0.0
  0
LINE
  5
132B9
330
17
100
AcDbEntity
  8
TEXT
100
AcDbLine
 10
185.3057942454472
 20
154.0617363773284
 30
0.0
 11
224.0114500393889
 21
154.0617363773284
 31
0.0
  0
TEXT
  5
132BA
330
17
100
AcDbEntity
  8
TEXT
100
AcDbText
 10
189.6567412150768
 20
137.1989108880156
 30
0.0
 40
1.75
  1
16'3" - 18'
  7
WEB PAGE
 72
     1
 11
194.9559481364899
 21
137.1989108880156
 31
0.0
100
AcDbText
  0
TEXT
  5
132BB
330
17
100
AcDbEntity
  8
TEXT
100
AcDbText
 10
189.469882793614
 20
140.704744066247
 30
0.0
 40
1.75
  1
12'3" - 16'
  7
WEB PAGE
 72
     1
 11
194.7690897150271
 21
140.704744066247
 31
0.0
100
AcDbText
  0
TEXT
  5
132BC
330
17
100
AcDbEntity
  8
TEXT
100
AcDbText
 10
191.7825560014671
 20
144.4884864236775
 30
0.0
 40
1.75
  1
7' - 12'
  7
WEB PAGE
 72
     1
 11
195.2623685465285
 21
144.4884864236775
 31
0.0
100
AcDbText
  0
TEXT
  5
132BD
330
17
100
AcDbEntity
  8
TEXT
100
AcDbText
 10
190.3404892257434
 20
148.3310413928697
 30
0.0
 40
1.75
  1
HEIGHT
  7
WEB PAGE
 72
     1
 11
195.1482577909921
 21
148.3310413928697
 31
0.0
100
AcDbText
  0
TEXT
  5
132BE
330
17
100
AcDbEntity
  8
TEXT
100
AcDbText
 10
191.4760335660462
 20
151.3768803552416
 30
0.0
 40
1.75
  1
DOOR
  7
WEB PAGE
 72
     1
 11
195.1482577909921
 21
151.3768803552416
 31
0.0
100
AcDbText
  0
LINE
  5
132BF
330
17
100
AcDbEntity
  8
TEXT
100
AcDbLine
 10
185.3057942454472
 20
154.0617363773284
 30
0.0
 11
185.3057942454472
 21
132.6436873724875
 31
0.0
  0
LINE
  5
132C0
330
17
100
AcDbEntity
  8
TEXT
100
AcDbLine
 10
204.7525782239203
 20
154.0617363773284
 30
0.0
 11
204.7525782239203
 21
132.6436873724876
 31
0.0
  0
LINE
  5
132C1
330
17
100
AcDbEntity
  8
TEXT
100
AcDbLine
 10
224.0114500393889
 20
154.0617363773284
 30
0.0
 11
224.0114500393889
 21
132.6436873724876
 31
0.0
  0
TEXT
  5
132C2
330
17
100
AcDbEntity
  8
TEXT
100
AcDbText
 10
211.3989342929608
 20
144.4884864236775
 30
0.0
 40
1.75
  1
16-3/8"
  7
WEB PAGE
 72
     1
 11
215.2995291019009
 21
144.4884864236775
 31
0.0
100
AcDbText
  0
TEXT
  5
132C3
330
17
100
AcDbEntity
  8
TEXT
100
AcDbText
 10
211.3989342929608
 20
137.2925863923836
 30
0.0
 40
1.75
  1
16-7/8"
  7
WEB PAGE
 72
     1
 11
215.2995291019009
 21
137.2925863923836
 31
0.0
100
AcDbText
  0
TEXT
  5
132C4
330
17
100
AcDbEntity
  8
TEXT
100
AcDbText
 10
211.3989342929608
 20
140.9622480608772
 30
0.0
 40
1.75
  1
16-7/8"
  7
WEB PAGE
 72
     1
 11
215.2995291019009
 21
140.9622480608772
 31
0.0
100
AcDbText
  0
TEXT
  5
132C5
330
17
100
AcDbEntity
  8
TEXT
100
AcDbText
 10
208.1322819405088
 20
151.3768803552416
 30
0.0
 40
1.75
  1
MINIMUM
  7
WEB PAGE
 72
     1
 11
214.3052271459883
 21
151.3768803552416
 31
0.0
100
AcDbText
  0
TEXT
  5
132C6
330
17
100
AcDbEntity
  8
TEXT
100
AcDbText
 10
206.840284824431
 20
148.3310413928697
 30
0.0
 40
1.75
  1
HEADROOM
  7
WEB PAGE
 72
     1
 11
214.3052271459883
 21
148.3310413928697
 31
0.0
100
AcDbText
  0
LINE
  5
132C7
330
17
100
AcDbEntity
  8
TEXT
100
AcDbLine
 10
224.011450039389
 20
143.544516775392
 30
0.0
 11
185.3057942454472
 21
143.544516775392
 31
0.0
  0
LINE
  5
132C8
330
17
100
AcDbEntity
  8
TEXT
100
AcDbLine
 10
224.011450039389
 20
139.9109069744239
 30
0.0
 11
185.3057942454472
 21
139.9109069744238
 31
0.0
  0
LINE
  5
132C9
330
17
100
AcDbEntity
  8
TEXT
100
AcDbLine
 10
224.011450039389
 20
136.2772971734557
 30
0.0
 11
185.3057942454472
 21
136.2772971734557
 31
0.0
  0
LINE
  5
132CA
330
17
100
AcDbEntity
  8
TEXT
100
AcDbLine
 10
185.3057942454472
 20
164.3002608410128
 30
0.0
 11
224.0114500393889
 21
164.3002608410128
 31
0.0
  0
LINE
  5
132CB
330
17
100
AcDbEntity
  8
TEXT
100
AcDbLine
 10
185.3057942454472
 20
154.0617363773284
 30
0.0
 11
185.3057942454472
 21
164.3002608410128
 31
0.0
  0
LINE
  5
132CC
330
17
100
AcDbEntity
  8
TEXT
100
AcDbLine
 10
224.0114500393889
 20
154.0617363773284
 30
0.0
 11
224.0114500393889
 21
164.3002608410128
 31
0.0
  0
LINE
  5
132CD
330
17
100
AcDbEntity
  8
TEXT
100
AcDbLine
 10
228.9086866335785
 20
154.0617363773284
 30
0.0
 11
276.262438629927
 21
154.0617363773284
 31
0.0
  0
LINE
  5
132CE
330
17
100
AcDbEntity
  8
TEXT
100
AcDbLine
 10
276.262438629927
 20
139.910906974424
 30
0.0
 11
228.9086866335785
 21
139.9109069744239
 31
0.0
  0
LINE
  5
132CF
330
17
100
AcDbEntity
  8
TEXT
100
AcDbLine
 10
276.262438629927
 20
143.5445167753921
 30
0.0
 11
228.9086866335785
 21
143.5445167753921
 31
0.0
  0
LINE
  5
132D0
330
17
100
AcDbEntity
  8
TEXT
100
AcDbLine
 10
276.262438629927
 20
147.1781265763603
 30
0.0
 11
228.9086866335785
 21
147.1781265763602
 31
0.0
  0
LINE
  5
132D1
330
17
100
AcDbEntity
  8
TEXT
100
AcDbLine
 10
228.9086866335785
 20
164.3002608410128
 30
0.0
 11
276.262438629927
 21
164.3002608410128
 31
0.0
  0
LINE
  5
132D2
330
17
100
AcDbEntity
  8
TEXT
100
AcDbLine
 10
228.9086866335785
 20
150.8117363773284
 30
0.0
 11
276.262438629927
 21
150.8117363773284
 31
0.0
  0
LINE
  5
132D3
330
17
100
AcDbEntity
  8
TEXT
100
AcDbLine
 10
276.262438629927
 20
136.2772971734558
 30
0.0
 11
228.9086866335785
 21
136.2772971734558
 31
0.0
  0
LINE
  5
132D4
330
17
100
AcDbEntity
  8
TEXT
100
AcDbLine
 10
228.9086866335785
 20
136.2772971734558
 30
0.0
 11
228.9086866335785
 21
154.0617363773284
 31
0.0
  0
TEXT
  5
132D5
330
17
100
AcDbEntity
  8
TEXT
100
AcDbText
 10
189.0727280728836
 20
129.14814869716
 30
0.0
 40
1.75
  1
* ADD 4" FOR OPERATOR.
  7
WEB PAGE
 72
     1
 11
204.6391484045347
 21
129.14814869716
 31
0.0
100
AcDbText
  0
LINE
  5
132D6
330
17
100
AcDbEntity
  8
TEXT
100
AcDbLine
 10
228.9086866335785
 20
154.0617363773284
 30
0.0
 11
228.9086866335785
 21
164.3002608410128
 31
0.0
  0
TEXT
  5
132D7
330
17
100
AcDbEntity
  8
TEXT
100
AcDbText
 10
233.1517112207361
 20
151.4861683901091
 30
0.0
 40
1.75
  1
DRUM
  7
WEB PAGE
 72
     1
 11
237.0283334269366
 21
151.4861683901091
 31
0.0
100
AcDbText
  0
TEXT
  5
132D8
330
17
100
AcDbEntity
  8
TEXT
100
AcDbText
 10
254.6251084498901
 20
151.4861683901091
 30
0.0
 40
1.75
  1
FORMULA
  7
WEB PAGE
 72
     1
 11
260.9425201297747
 21
151.4861683901091
 31
0.0
100
AcDbText
  0
LINE
  5
132D9
330
17
100
AcDbEntity
  8
TEXT
100
AcDbLine
 10
245.6226016296225
 20
154.0617363773284
 30
0.0
 11
245.6226016296225
 21
136.2772971734558
 31
0.0
  0
TEXT
  5
132DA
330
17
100
AcDbEntity
  8
TEXT
100
AcDbText
 10
232.0263687170367
 20
140.8679876636953
 30
0.0
 40
1.75
  1
D525-216
  7
WEB PAGE
 72
     1
 11
237.2656441316006
 21
140.8679876636953
 31
0.0
100
AcDbText
  0
TEXT
  5
132DB
330
17
100
AcDbEntity
  8
TEXT
100
AcDbText
 10
232.0263687170367
 20
137.0655090760396
 30
0.0
 40
1.75
  1
D800-384
  7
WEB PAGE
 72
     1
 11
237.2656441316006
 21
137.0655090760396
 31
0.0
100
AcDbText
  0
TEXT
  5
132DC
330
17
100
AcDbEntity
  8
TEXT
100
AcDbText
 10
232.6723672750757
 20
147.9993919412116
 30
0.0
 40
1.75
  1
D400-96
  7
WEB PAGE
 72
     1
 11
237.2656441316006
 21
147.9993919412116
 31
0.0
100
AcDbText
  0
TEXT
  5
132DD
330
17
100
AcDbEntity
  8
TEXT
100
AcDbText
 10
232.0263687170367
 20
144.5126154923143
 30
0.0
 40
1.75
  1
D400-144
  7
WEB PAGE
 72
     1
 11
237.2656441316006
 21
144.5126154923143
 31
0.0
100
AcDbText
  0
TEXT
  5
132DE
330
17
100
AcDbEntity
  8
TEXT
100
AcDbText
 10
251.3850219322261
 20
140.8679876636953
 30
0.0
 40
1.75
  1
F= DH + 13-5/16"
  7
WEB PAGE
 72
     1
 11
260.9425201297747
 21
140.8679876636953
 31
0.0
100
AcDbText
  0
TEXT
  5
132DF
330
17
100
AcDbEntity
  8
TEXT
100
AcDbText
 10
251.3850219322261
 20
137.0655090760396
 30
0.0
 40
1.75
  1
F= DH + 15-1/16"
  7
WEB PAGE
 72
     1
 11
260.9425201297747
 21
137.0655090760396
 31
0.0
100
AcDbText
  0
TEXT
  5
132E0
330
17
100
AcDbEntity
  8
TEXT
100
AcDbText
 10
251.3850219322261
 20
147.9993919412116
 30
0.0
 40
1.75
  1
F= DH + 13-5/16"
  7
WEB PAGE
 72
     1
 11
260.9425201297747
 21
147.9993919412116
 31
0.0
100
AcDbText
  0
TEXT
  5
132E1
330
17
100
AcDbEntity
  8
TEXT
100
AcDbText
 10
251.3850219322261
 20
144.5126154923143
 30
0.0
 40
1.75
  1
F= DH + 13-5/16"
  7
WEB PAGE
 72
     1
 11
260.9425201297747
 21
144.5126154923143
 31
0.0
100
AcDbText
  0
MTEXT
  5
132E2
330
17
100
AcDbEntity
  8
TEXT
100
AcDbMText
 10
252.5855626317528
 20
163.0867834688432
 30
0.0
 40
2.6
 41
37.3125
 46
0.0
 71
     2
 72
     5
  1
FLOOR TO SHAFT\PCENTER DISTANCE
  7
WEB PAGE
 73
     1
 44
1.0
  0
LINE
  5
132E3
330
17
100
AcDbEntity
  8
TEXT
100
AcDbLine
 10
276.262438629927
 20
154.0617363773284
 30
0.0
 11
276.262438629927
 21
136.2772971734558
 31
0.0
  0
LINE
  5
132E4
330
17
100
AcDbEntity
  8
TEXT
100
AcDbLine
 10
276.262438629927
 20
154.0617363773284
 30
0.0
 11
276.262438629927
 21
164.3002608410128
 31
0.0
  0
TEXT
  5
132E5
330
17
100
AcDbEntity
  8
TEXT
100
AcDbText
 10
230.8411001441193
 20
132.3556921084281
 30
0.0
 40
1.75
  1
DH = DOOR HEIGHT
  7
WEB PAGE
 72
     1
 11
242.8734541455613
 21
132.3556921084281
 31
0.0
100
AcDbText
  0
LINE
  5
132E6
330
17
100
AcDbEntity
  8
TEXT
100
AcDbLine
 10
224.0114500393889
 20
132.6436873724876
 30
0.0
 11
185.3057942454472
 21
132.6436873724875
 31
0.0
  0
TEXT
  5
132E7
330
17
100
AcDbEntity
  8
TEXT
100
AcDbText
 10
189.6567412150768
 20
133.5653010870475
 30
0.0
 40
1.75
  1
18'3" - 20'
  7
WEB PAGE
 72
     1
 11
194.9559481364899
 21
133.5653010870475
 31
0.0
100
AcDbText
  0
TEXT
  5
132E8
330
17
100
AcDbEntity
  8
TEXT
100
AcDbText
 10
213.4801347255491
 20
133.6589765914155
 30
0.0
 40
1.75
  1
20"
  7
WEB PAGE
 72
     1
 11
215.2995291019009
 21
133.6589765914155
 31
0.0
100
AcDbText
  0
VIEWPORT
  5
C943
330
14
100
AcDbEntity
 67
     1
  8
0
100
AcDbViewport
 10
4.071489855369138
 20
5.249424529897723
 30
0.0
 40
21.25241057697229
 41
13.77766968064369
 68
     1
 69
     1
 12
4.071489855369138
 22
5.249424529897723
 13
0.0
 23
0.0
 14
0.5
 24
0.5
 15
0.5
 25
0.5
 16
0.0
 26
0.0
 36
1.0
 17
0.0
 27
0.0
 37
0.0
 42
50.0
 43
0.0
 44
0.0
 45
13.77766968064369
 50
0.0
 51
0.0
 72
   100
 90
    32800
  1

281
     0
 71
     1
 74
     0
110
0.0
120
0.0
130
0.0
111
1.0
121
0.0
131
0.0
112
0.0
122
1.0
132
0.0
 79
     0
146
0.0
170
     0
 61
     5
348
1326C
292
     1
282
     1
141
0.0
142
0.0
 63
   250
421
  3355443
  0
VIEWPORT
  5
13219
330
14
100
AcDbEntity
 67
     1
  8
Defpoints
100
AcDbViewport
 10
4.080148729311781
 20
4.852705522492219
 30
0.0
 40
7.602233241403836
 41
9.163540261181031
 68
     2
 69
     2
 12
169.5034609462743
 22
188.2327093227231
 13
0.0
 23
0.0
 14
1.0
 24
1.0
 15
0.25
 25
0.25
 16
0.0
 26
0.0
 36
1.0
 17
0.0
 27
0.0
 37
0.0
 42
50.0
 43
0.0
 44
0.0
 45
288.4378164102409
 50
90.0
 51
0.0
 72
   100
 90
    32768
  1

281
     0
 71
     1
 74
     0
110
0.0
120
0.0
130
0.0
111
1.0
121
0.0
131
0.0
112
0.0
122
1.0
132
0.0
 79
     0
146
0.0
170
     0
 61
     5
348
1326C
292
     1
282
     1
141
0.0
142
0.0
 63
   250
421
  3355443
  0
ENDSEC
  0
SECTION
  2
OBJECTS
  0
DICTIONARY
  5
C
330
0
100
AcDbDictionary
281
     1
  3
ACAD_COLOR
350
13250
  3
ACAD_GROUP
350
D
  3
ACAD_LAYOUT
350
B57A
  3
ACAD_MATERIAL
350
1324F
  3
ACAD_MLINESTYLE
350
1A
  3
ACAD_PLOTSETTINGS
350
B57B
  3
ACAD_PLOTSTYLENAME
350
B578
  3
ACAD_TABLESTYLE
350
13277
  3
ACAD_VISUALSTYLE
350
13266
  3
AcadDim
350
119E2
  3
ACDBVARIABLEDICTIONARY
350
59
  3
ASE_INDEX_DICTIONARY
350
123F7
  0
DICTIONARY
  5
13457
330
8
100
AcDbDictionary
280
     1
281
     1
  0
DICTIONARY
  5
133DE
330
2
100
AcDbDictionary
280
     1
281
     1
  3
ACAD_LAYERSTATES
360
133DF
  0
DICTIONARY
  5
13250
102
{ACAD_REACTORS
330
C
102
}
330
C
100
AcDbDictionary
281
     1
  0
DICTIONARY
  5
D
102
{ACAD_REACTORS
330
C
102
}
330
C
100
AcDbDictionary
281
     1
  0
DICTIONARY
  5
B57A
102
{ACAD_REACTORS
330
C
102
}
330
C
100
AcDbDictionary
281
     1
  3
Layout1
350
B57D
  3
Model
350
B57C
  0
DICTIONARY
  5
1324F
102
{ACAD_REACTORS
330
C
102
}
330
C
100
AcDbDictionary
281
     1
  3
ByBlock
350
13264
  3
ByLayer
350
13263
  3
Global
350
13265
  0
DICTIONARY
  5
1A
102
{ACAD_REACTORS
330
C
102
}
330
C
100
AcDbDictionary
281
     1
  3
STANDARD
350
1B
  0
DICTIONARY
  5
B57B
102
{ACAD_REACTORS
330
C
102
}
330
C
100
AcDbDictionary
281
     1
  0
ACDBDICTIONARYWDFLT
  5
B578
102
{ACAD_REACTORS
330
C
102
}
330
C
100
AcDbDictionary
281
     1
  3
Normal
350
B579
100
AcDbDictionaryWithDefault
340
B579
  0
DICTIONARY
  5
13277
102
{ACAD_REACTORS
330
C
102
}
330
C
100
AcDbDictionary
281
     1
  3
Standard
350
13278
  0
DICTIONARY
  5
13266
102
{ACAD_REACTORS
330
C
102
}
330
C
100
AcDbDictionary
281
     1
  3
2dWireframe
350
1326C
  3
3D Hidden
350
1326E
  3
3dWireframe
350
1326D
  3
Basic
350
1326B
  3
Brighten
350
13272
  3
ColorChange
350
13276
  3
Conceptual
350
1326F
  3
Dim
350
13271
  3
Facepattern
350
13275
  3
Flat
350
13267
  3
FlatWithEdges
350
13268
  3
Gouraud
350
13269
  3
GouraudWithEdges
350
1326A
  3
Linepattern
350
13274
  3
Realistic
350
13270
  3
Thicken
350
13273
  0
XRECORD
  5
119E2
102
{ACAD_REACTORS
330
C
102
}
330
C
100
AcDbXrecord
280
     1
 90
   990106
  3

 60
     0
 61
     0
 62
     1
 63
     3
 64
     0
 65
     0
 66
     0
 67
     3
 68
     1
 69
     0
 70
     0
 71
     0
 72
     0
 40
0.0
170
     0
340
0
  0
DICTIONARY
  5
59
102
{ACAD_REACTORS
330
C
102
}
330
C
100
AcDbDictionary
281
     1
  3
CTABLESTYLE
350
13346
  3
DIMADEC
350
5A
  3
SORTENTS
350
769A
  0
DICTIONARY
  5
123F7
102
{ACAD_REACTORS
330
C
102
}
330
C
100
AcDbDictionary
281
     1
  3
ASEBlockHierarchyIndexRecord
350
123F9
1001
DCO15
1040
1434891614.2
  0
DICTIONARY
  5
133DF
102
{ACAD_REACTORS
330
133DE
102
}
330
133DE
100
AcDbDictionary
281
     1
  0
LAYOUT
  5
B57D
102
{ACAD_XDICTIONARY
360
133F3
102
}
102
{ACAD_REACTORS
330
B57A
102
}
330
B57A
100
AcDbPlotSettings
  1

  2
Acrobat PDFWriter
  4
Letter
  6

 40
7.143749713897705
 41
7.143756389617919
 42
7.14373779296875
 43
7.14373779296875
 44
215.8999938964844
 45
279.3999938964844
 46
0.254
 47
0.508
 48
0.0
 49
0.0
140
0.0
141
0.0
142
1.0
143
1.0
 70
   692
 72
     0
 73
     0
 74
     1
  7

 75
    16
147
1.0
 76
     0
 77
     2
 78
   300
148
-3.431638481391534
149
-3.208639088143428
100
AcDbLayout
  1
Layout1
 70
     1
 71
     1
 10
-0.161649064214197
 20
-0.1796601428046904
 11
8.338350695489911
 21
10.82033961689941
 12
0.0
 22
0.0
 32
0.0
 14
0.1725343233829846
 24
0.11033793218167
 34
0.0
 15
7.970382257196629
 25
10.38887614169813
 35
0.0
146
0.0
 13
0.0
 23
0.0
 33
0.0
 16
1.0
 26
0.0
 36
0.0
 17
0.0
 27
1.0
 37
0.0
 76
     0
330
14
331
C943
  0
LAYOUT
  5
B57C
102
{ACAD_REACTORS
330
B57A
102
}
330
B57A
100
AcDbPlotSettings
  1

  2
PMKT1 Marketing HP-8100DN Laser
  4
Letter
  6

 40
4.233333110809326
 41
4.233341693878173
 42
4.233322143554687
 43
4.23333740234375
 44
215.8999938964844
 45
279.3999938964844
 46
23.114
 47
0.0
 48
139.3684830884462
 49
213.5442578355003
140
281.5818113799604
141
346.2220205485337
142
1.0
143
27.21705229722911
 70
 11956
 72
     0
 73
     1
 74
     1
  7

 75
     0
147
0.0367416716946165
 76
     0
 77
     2
 78
   300
148
-1206.917442298433
149
-2586.300170535166
100
AcDbLayout
  1
Model
 70
     1
 71
     0
 10
0.0
 20
0.0
 11
12.0
 21
9.0
 12
0.0
 22
0.0
 32
0.0
 14
0.0
 24
0.0
 34
0.0
 15
0.0
 25
0.0
 35
0.0
146
0.0
 13
0.0
 23
0.0
 33
0.0
 16
1.0
 26
0.0
 36
0.0
 17
0.0
 27
1.0
 37
0.0
 76
     0
330
17
331
13261
  0
MATERIAL
  5
13264
102
{ACAD_REACTORS
330
1324F
102
}
330
1324F
100
AcDbMaterial
  1
ByBlock
  0
MATERIAL
  5
13263
102
{ACAD_REACTORS
330
1324F
102
}
330
1324F
100
AcDbMaterial
  1
ByLayer
  0
MATERIAL
  5
13265
102
{ACAD_REACTORS
330
1324F
102
}
330
1324F
100
AcDbMaterial
  1
Global
  0
MLINESTYLE
  5
1B
102
{ACAD_REACTORS
330
1A
102
}
330
1A
100
AcDbMlineStyle
  2
STANDARD
 70
     0
  3

 62
   256
 51
90.0
 52
90.0
 71
     2
 49
0.5
 62
   256
  6
BYLAYER
 49
-0.5
 62
   256
  6
BYLAYER
  0
ACDBPLACEHOLDER
  5
B579
102
{ACAD_REACTORS
330
B578
102
}
330
B578
  0
TABLESTYLE
  5
13278
102
{ACAD_REACTORS
330
13277
102
}
330
13277
100
AcDbTableStyle
  3
Standard
 70
     0
 71
     0
 40
0.06
 41
0.06
280
     0
281
     0
  7
STANDARD
140
0.18
170
     2
 62
     0
 63
     7
283
     0
 90
      512
 91
        0
  1

274
    -2
284
     1
 64
     0
275
    -2
285
     1
 65
     0
276
    -2
286
     1
 66
     0
277
    -2
287
     1
 67
     0
278
    -2
288
     1
 68
     0
279
    -2
289
     1
 69
     0
  7
STANDARD
140
0.25
170
     5
 62
     0
 63
     7
283
     0
 90
      512
 91
        0
  1

274
    -2
284
     1
 64
     0
275
    -2
285
     1
 65
     0
276
    -2
286
     1
 66
     0
277
    -2
287
     1
 67
     0
278
    -2
288
     1
 68
     0
279
    -2
289
     1
 69
     0
  7
STANDARD
140
0.18
170
     5
 62
     0
 63
     7
283
     0
 90
      512
 91
        0
  1

274
    -2
284
     1
 64
     0
275
    -2
285
     1
 65
     0
276
    -2
286
     1
 66
     0
277
    -2
287
     1
 67
     0
278
    -2
288
     1
 68
     0
279
    -2
289
     1
 69
     0
  0
VISUALSTYLE
  5
1326C
102
{ACAD_REACTORS
330
13266
102
}
330
13266
100
AcDbVisualStyle
  2
2dWireframe
 70
     4
 71
     0
 72
     2
 73
     0
 90
        0
 40
-0.6
 41
-30.0
 62
     5
 63
     7
421
 16777215
 74
     1
 91
        4
 64
     7
 65
   257
 75
     1
175
     1
 42
1.0
 92
        0
 66
   257
 43
1.0
 76
     1
 77
     6
 78
     2
 67
     7
 79
     5
170
     0
171
     0
290
     0
174
     0
 93
        1
 44
0.0
173
     0
291
     0
 45
0.0
  0
VISUALSTYLE
  5
1326E
102
{ACAD_REACTORS
330
13266
102
}
330
13266
100
AcDbVisualStyle
  2
3D Hidden
 70
     6
 71
     1
 72
     2
 73
     2
 90
        0
 40
-0.6
 41
-30.0
 62
     5
 63
     7
421
 16777215
 74
     2
 91
        2
 64
     7
 65
   257
 75
     2
175
     1
 42
40.0
 92
        0
 66
   257
 43
1.0
 76
     1
 77
     6
 78
     2
 67
     7
 79
     3
170
     0
171
     0
290
     0
174
     0
 93
        1
 44
0.0
173
     0
291
     0
 45
0.0
  0
VISUALSTYLE
  5
1326D
102
{ACAD_REACTORS
330
13266
102
}
330
13266
100
AcDbVisualStyle
  2
3dWireframe
 70
     5
 71
     0
 72
     2
 73
     0
 90
        0
 40
-0.6
 41
-30.0
 62
     5
 63
     7
421
 16777215
 74
     1
 91
        4
 64
     7
 65
   257
 75
     1
175
     1
 42
1.0
 92
        0
 66
   257
 43
1.0
 76
     1
 77
     6
 78
     2
 67
     7
 79
     5
170
     0
171
     0
290
     0
174
     0
 93
        1
 44
0.0
173
     0
291
     0
 45
0.0
  0
VISUALSTYLE
  5
1326B
102
{ACAD_REACTORS
330
13266
102
}
330
13266
100
AcDbVisualStyle
  2
Basic
 70
     7
 71
     1
 72
     0
 73
     1
 90
        0
 40
-0.6
 41
-30.0
 62
     5
 63
     7
421
 16777215
 74
     0
 91
        4
 64
     7
 65
   257
 75
     1
175
     1
 42
1.0
 92
        8
 66
     7
 43
1.0
 76
     1
 77
     6
 78
     2
 67
     7
 79
     5
170
     0
171
     0
290
     0
174
     0
 93
        1
 44
0.0
173
     0
291
     1
 45
0.0
  0
VISUALSTYLE
  5
13272
102
{ACAD_REACTORS
330
13266
102
}
330
13266
100
AcDbVisualStyle
  2
Brighten
 70
    12
 71
     2
 72
     2
 73
     0
 90
        0
 40
-0.6
 41
-30.0
 62
     5
 63
     7
421
 16777215
 74
     1
 91
        4
 64
     7
 65
   257
 75
     1
175
     1
 42
1.0
 92
        8
 66
     7
 43
1.0
 76
     1
 77
     6
 78
     2
 67
     7
 79
     5
170
     0
171
     0
290
     0
174
     0
 93
        1
 44
50.0
173
     0
291
     1
 45
0.0
  0
VISUALSTYLE
  5
13276
102
{ACAD_REACTORS
330
13266
102
}
330
13266
100
AcDbVisualStyle
  2
ColorChange
 70
    16
 71
     2
 72
     2
 73
     3
 90
        0
 40
-0.6
 41
-30.0
 62
     5
 63
     8
421
  8421504
 74
     1
 91
        4
 64
     7
 65
   257
 75
     1
175
     1
 42
1.0
 92
        8
 66
     8
424
  8421504
 43
1.0
 76
     1
 77
     6
 78
     2
 67
     7
 79
     5
170
     0
171
     0
290
     0
174
     0
 93
        1
 44
0.0
173
     0
291
     1
 45
0.0
  0
VISUALSTYLE
  5
1326F
102
{ACAD_REACTORS
330
13266
102
}
330
13266
100
AcDbVisualStyle
  2
Conceptual
 70
     9
 71
     3
 72
     2
 73
     0
 90
        0
 40
-0.6
 41
-30.0
 62
     5
 63
     7
421
 16777215
 74
     2
 91
        2
 64
     7
 65
   257
 75
     1
175
     1
 42
40.0
 92
        8
 66
     7
 43
1.0
 76
     1
 77
     6
 78
     2
 67
     7
 79
     3
170
     0
171
     0
290
     0
174
     0
 93
        1
 44
0.0
173
     0
291
     0
 45
0.0
  0
VISUALSTYLE
  5
13271
102
{ACAD_REACTORS
330
13266
102
}
330
13266
100
AcDbVisualStyle
  2
Dim
 70
    11
 71
     2
 72
     2
 73
     0
 90
        0
 40
-0.6
 41
-30.0
 62
     5
 63
     7
421
 16777215
 74
     1
 91
        4
 64
     7
 65
   257
 75
     1
175
     1
 42
1.0
 92
        8
 66
     7
 43
1.0
 76
     1
 77
     6
 78
     2
 67
     7
 79
     5
170
     0
171
     0
290
     0
174
     0
 93
        1
 44
-50.0
173
     0
291
     1
 45
0.0
  0
VISUALSTYLE
  5
13275
102
{ACAD_REACTORS
330
13266
102
}
330
13266
100
AcDbVisualStyle
  2
Facepattern
 70
    15
 71
     2
 72
     2
 73
     0
 90
        0
 40
-0.6
 41
-30.0
 62
     5
 63
     7
421
 16777215
 74
     1
 91
        4
 64
     7
 65
   257
 75
     1
175
     1
 42
1.0
 92
        8
 66
     7
 43
1.0
 76
     1
 77
     6
 78
     2
 67
     7
 79
     5
170
     0
171
     0
290
     0
174
     0
 93
        1
 44
0.0
173
     0
291
     1
 45
0.0
  0
VISUALSTYLE
  5
13267
102
{ACAD_REACTORS
330
13266
102
}
330
13266
100
AcDbVisualStyle
  2
Flat
 70
     0
 71
     2
 72
     1
 73
     1
 90
        2
 40
-0.6
 41
30.0
 62
     5
 63
     7
421
 16777215
 74
     0
 91
        4
 64
     7
 65
   257
 75
     1
175
     1
 42
1.0
 92
        8
 66
     7
 43
1.0
 76
     1
 77
     6
 78
     2
 67
     7
 79
     5
170
     0
171
     0
290
     0
174
     0
 93
       13
 44
0.0
173
     0
291
     1
 45
0.0
  0
VISUALSTYLE
  5
13268
102
{ACAD_REACTORS
330
13266
102
}
330
13266
100
AcDbVisualStyle
  2
FlatWithEdges
 70
     1
 71
     2
 72
     1
 73
     1
 90
        2
 40
-0.6
 41
30.0
 62
     5
 63
     7
421
 16777215
 74
     1
 91
        4
 64
     7
 65
   257
 75
     1
175
     1
 42
1.0
 92
        0
 66
   257
 43
1.0
 76
     1
 77
     6
 78
     2
 67
     7
 79
     5
170
     0
171
     0
290
     0
174
     0
 93
       13
 44
0.0
173
     0
291
     1
 45
0.0
  0
VISUALSTYLE
  5
13269
102
{ACAD_REACTORS
330
13266
102
}
330
13266
100
AcDbVisualStyle
  2
Gouraud
 70
     2
 71
     2
 72
     2
 73
     1
 90
        2
 40
-0.6
 41
30.0
 62
     5
 63
     7
421
 16777215
 74
     0
 91
        4
 64
     7
 65
   257
 75
     1
175
     1
 42
1.0
 92
        0
 66
     7
 43
1.0
 76
     1
 77
     6
 78
     2
 67
     7
 79
     5
170
     0
171
     0
290
     0
174
     0
 93
       13
 44
0.0
173
     0
291
     1
 45
0.0
  0
VISUALSTYLE
  5
1326A
102
{ACAD_REACTORS
330
13266
102
}
330
13266
100
AcDbVisualStyle
  2
GouraudWithEdges
 70
     3
 71
     2
 72
     2
 73
     1
 90
        2
 40
-0.6
 41
30.0
 62
     5
 63
     7
421
 16777215
 74
     1
 91
        4
 64
     7
 65
   257
 75
     1
175
     1
 42
1.0
 92
        0
 66
   257
 43
1.0
 76
     1
 77
     6
 78
     2
 67
     7
 79
     5
170
     0
171
     0
290
     0
174
     0
 93
       13
 44
0.0
173
     0
291
     1
 45
0.0
  0
VISUALSTYLE
  5
13274
102
{ACAD_REACTORS
330
13266
102
}
330
13266
100
AcDbVisualStyle
  2
Linepattern
 70
    14
 71
     2
 72
     2
 73
     0
 90
        0
 40
-0.6
 41
-30.0
 62
     5
 63
     7
421
 16777215
 74
     1
 91
        4
 64
     7
 65
   257
 75
     7
175
     7
 42
1.0
 92
        8
 66
     7
 43
1.0
 76
     1
 77
     6
 78
     2
 67
     7
 79
     5
170
     0
171
     0
290
     0
174
     0
 93
        1
 44
0.0
173
     0
291
     1
 45
0.0
  0
VISUALSTYLE
  5
13270
102
{ACAD_REACTORS
330
13266
102
}
330
13266
100
AcDbVisualStyle
  2
Realistic
 70
     8
 71
     2
 72
     2
 73
     0
 90
        0
 40
-0.6
 41
-30.0
 62
     5
 63
     7
421
 16777215
 74
     1
 91
        0
 64
     7
 65
   257
 75
     1
175
     1
 42
1.0
 92
        8
 66
     8
424
  7895160
 43
1.0
 76
     1
 77
     6
 78
     2
 67
     7
 79
     5
170
     0
171
     0
290
     0
174
     0
 93
       13
 44
0.0
173
     0
291
     0
 45
0.0
  0
VISUALSTYLE
  5
13273
102
{ACAD_REACTORS
330
13266
102
}
330
13266
100
AcDbVisualStyle
  2
Thicken
 70
    13
 71
     2
 72
     2
 73
     0
 90
        0
 40
-0.6
 41
-30.0
 62
     5
 63
     7
421
 16777215
 74
     1
 91
        4
 64
     7
 65
   257
 75
     1
175
     1
 42
1.0
 92
       12
 66
     7
 43
1.0
 76
     1
 77
     6
 78
     2
 67
     7
 79
     5
170
     0
171
     0
290
     0
174
     0
 93
        1
 44
0.0
173
     0
291
     1
 45
0.0
  0
DICTIONARYVAR
  5
13346
102
{ACAD_REACTORS
330
59
102
}
330
59
100
DictionaryVariables
280
     0
  1
STANDARD
  0
DICTIONARYVAR
  5
5A
102
{ACAD_REACTORS
330
59
102
}
330
59
100
DictionaryVariables
280
     0
  1
0
  0
DICTIONARYVAR
  5
769A
102
{ACAD_REACTORS
330
59
102
}
330
59
100
DictionaryVariables
280
     0
  1
96
  0
XRECORD
  5
123F9
102
{ACAD_REACTORS
330
123F7
102
}
330
123F7
100
AcDbXrecord
280
     1
330
3374
330
3375
330
3376
330
3377
330
3378
330
3E3C
330
3E3D
330
3E3E
330
3E3F
330
3E40
330
11E5B
330
12045
330
12260
330
12277
330
0
330
0
330
0
330
0
330
0
330
0
330
123C2
330
123F5
330
D5DD
330
D5E3
330
D5E4
330
D5F9
330
E0B1
330
E140
330
E21C
330
E21D
330
E21E
330
E25E
330
E25F
330
E260
330
FB07
330
10013
330
10014
330
1001D
330
1138F
330
11390
330
11391
330
11392
330
11394
330
11395
330
11397
330
11398
330
11399
330
1139A
330
1139B
330
1139D
330
1139E
330
1139F
330
113F9
330
1140F
330
11412
330
11413
330
11414
330
11416
330
11417
330
11419
330
1141A
330
1141B
330
1141C
330
1141E
330
1141F
330
11420
330
11BC8
330
11BC9
330
11BCA
330
11BF7
330
11C05
330
120FE
330
120FF
330
12100
330
12101
330
12102
330
12103
330
12104
330
12105
330
12106
330
1219D
  0
DICTIONARY
  5
133F3
330
B57D
100
AcDbDictionary
280
     1
281
     1
  3
ADSK_XREC_LAYOUTTHUMBNAIL
360
133F4
  0
XRECORD
  5
133F4
102
{ACAD_REACTORS
330
133F3
102
}
330
133F3
100
AcDbXrecord
280
     1
310
280000006C0000008C0000000100080000000000103B0000000000000000000000010000000000000000000000000000FFFFFF000000000000000000000000000000000000000000000000000000000000000000330000006600000099000000CC000000FF00000000330000333300006633000099330000CC330000FF3300
310
0000660000336600006666000099660000CC660000FF66000000990000339900006699000099990000CC990000FF99000000CC000033CC000066CC000099CC0000CCCC0000FFCC000000FF000033FF000066FF000099FF0000CCFF0000FFFF000000003300330033006600330099003300CC003300FF003300003333003333
310
33006633330099333300CC333300FF33330000663300336633006666330099663300CC663300FF66330000993300339933006699330099993300CC993300FF99330000CC330033CC330066CC330099CC3300CCCC3300FFCC330000FF330033FF330066FF330099FF3300CCFF3300FFFF330000006600330066006600660099
310
006600CC006600FF00660000336600333366006633660099336600CC336600FF33660000666600336666006666660099666600CC666600FF66660000996600339966006699660099996600CC996600FF99660000CC660033CC660066CC660099CC6600CCCC6600FFCC660000FF660033FF660066FF660099FF6600CCFF6600
310
FFFF660000009900330099006600990099009900CC009900FF00990000339900333399006633990099339900CC339900FF33990000669900336699006666990099669900CC669900FF66990000999900339999006699990099999900CC999900FF99990000CC990033CC990066CC990099CC9900CCCC9900FFCC990000FF99
310
0033FF990066FF990099FF9900CCFF9900FFFF99000000CC003300CC006600CC009900CC00CC00CC00FF00CC000033CC003333CC006633CC009933CC00CC33CC00FF33CC000066CC003366CC006666CC009966CC00CC66CC00FF66CC000099CC003399CC006699CC009999CC00CC99CC00FF99CC0000CCCC0033CCCC0066CC
310
CC0099CCCC00CCCCCC00FFCCCC0000FFCC0033FFCC0066FFCC0099FFCC00CCFFCC00FFFFCC000000FF003300FF006600FF009900FF00CC00FF00FF00FF000033FF003333FF006633FF009933FF00CC33FF00FF33FF000066FF003366FF006666FF009966FF00CC66FF00FF66FF000099FF003399FF006699FF009999FF00CC
310
99FF00FF99FF0000CCFF0033CCFF0066CCFF0099CCFF00CCCCFF00FFCCFF0000FFFF0033FFFF0066FFFF0099FFFF00CCFFFF00FFFFFF00000000000D0D0D001A1A1A00282828003535350043434300505050005D5D5D006B6B6B00787878008686860093939300A1A1A100AEAEAE00BBBBBB00C9C9C900D6D6D600E4E4E400
310
F1F1F100FFFFFF0000000000000000000000000000000000000000000000000000000000000000000000000000000000EFEFF5F5F5F5F5F5F5F5F5F5F5F5F5F5F5F5F5F5F5F5F5F5F5F5F5F5F5F5F5F5F5F5F5F5F5F5F5F5F5F5F5F5F5F5F5F5F5F5F5F5F5F5F5F5F5F5F5F5F5F5F5F5F5F5F5F5F5F5F5F5F5F5F5F5F5F5F5
310
F5F5F5F5F5F5F5F5F5F5F5F5F5F5F5F5F5F5F5F5F5F5F5F5F5F5F5F5F5F5F5F5F5F5F5F5F5F5F5F5F5F5F5F5F5F5F5F5F5F5F5F5F5F5F5F5F5F5F5F5F5F5F5F5F5F5F5F5F5F5F5F5F5F5F5F5F5F5F5F5F5F5F5F5F5F5F5F5F5F5F5F5F5F5F5F5F5F5F5F5F5F5F5F5F5F5F5F5F5F5F5F5F5F5F5F5F5F5F5F5F5F5F5F5F5F5F5
310
F5F5F5F5F5F5F5F5F5F5F5E2E2E2E2E2E2E2E2E2E2E2E2E2E2E2E2E2E2E2E2E2E2E2E2E2E2E2E2E2E2E2E2E2E2E2E2E2E2E2E2E2E2E2E2E2E2E2E2E2E2E2E2E2E2E2E2E2E2E2E2E2E2E2E2E2E2E2E2E2E2E2E2E2E2E2E2E2E2E2E2E2E2E2E2E2E2E2E2E2E2E2E2E2E2E2E2E2E2E2E2E2E2E2E2E2E2F5F5E2E2E2E2E2E2E2E2
310
E2E2E2E2E2E2E2E2E2E2E2E2E2E2E2E2E2E2E2E2E2E2E2E2E2E2E2E2E2E2E2E2E2E2E2E2E2E2E2E2E2E2E2E2E2E2E2E2E2E2E2E2E2E2E2E2E2E2E2E2E2E2E2E2E2E2E2E2E2E2E2E2E2E2E2E2E2E2E2E2E2E2E2E2E2E2E2E2E2E2E2E2E2E2E2E2E2E2F5F5E2E2F5F5F5F5F5F5F5F5F5E2E2E2E2E2E2E2E2E2F5F5F5F5F5F5F5
310
F5F5F5F5F5F5F5F5F5E2E2E2E2E2E2E2E2E2F5F5F5F5F5F5F5F5F5F5F5F5F5F5F5F5E2E2E2E2E2E2E2E2E2F5F5F5F5F5F5F5F5F5F5F5F5F5F5F5F5E2E2E2E2E2E2E2E2E2F5F5F5F5F5F5F5F5F5E2E2F5F5E2E2F5E2E2E2E2E2E2E2E2E2E2E2E2E2E2E2E2E2E2E2E2E2E2E2E2E2E2E2E2E2E2E2E2E2E2E2E2E2E2E2E2E2E2E2
310
E2E2E2E2E2E2E2E2E2E2E2E2E2E2E2E2E2E2E2E2E2E2E2E2E2E2E2E2E2E2E2E2E2E2E2E2E2E2E2E2E2E2E2E2E2E2E2E2E2E2E2E2E2E2E2E2E2F5E2E2F5F5E2E2F5E2F5F5F5F5F5F5F5F5F5F5F5F5F5F5F5F5F5F5F5F5F5F5F5F5F5F5F5F5F5F5F5F5F5F5F5F5F5F5F5F5F5F5F5F5F5F5F5F5F5F5F5F5F5F5F5F5F5F5F5F5F5
310
F5F5F5F5F5F5F5F5F5F5F5F5F5F5F5F5F5F5F5F5F5F5F5F5F5F5F5F5F5F5F5F5F5F5F5F5E2E2F5E2E2F5F5E2E2F5E2F5E2E2E2E2E2E2E2E2E2E2E2E2E2E2E2E2E2E2E2E2E2E2E2E2E2E2E2E2E2E2E2E2E2E2E2E2E2E2E2E2E2E2E2E2E2E2E2E2E2E2E2E2E2E2E2E2E2E2E2E2E2E2E2E2E2E2E2E2E2E2E2E2E2E2E2E2E2E2E2
310
E2E2E2E2E2E2E2E2E2E2E2E2E2E2E2E2F5E2E2F5E2E2F5F5E2E2F5E2F5E2E2E2E2E2E2E2E2E2E2E2E2E2E2E2E2E2E2E2E2E2E2E2E2E2E2E2E2E2E2E2E2E2E2E2E2E2E2E2E2E2E2E2E2E2E2E2E2E2E2E2E2E2E2E2E2E2E2E2E2E2E2E2E2E2E2E2E2E2E2E2E2E2E2E2E2E2E2E2E2E2E2E2E2E2E2E2E2E2E2E2E2E2E2E2F5E2E2
310
F5E2E2F5F5E2E2F5E2F5E2E2E2E2E2E2E2E2E2E2E2E2E2E2E2E2E2E2E2E2E2E2E2E2E2E2E2E2E2E2E2E2E2E2E2E2E2E2E2E2E2E2E2E2E2E2E2E2E2E2E2E2E2E2E2E2E2E2E2E2E2E2E2E2E2E2E2E2E2E2E2E2E2E2E2E2E2E2E2E2E2E2E2E2E2E2E2E2E2E2E2E2E2E2E2F5E2E2F5E2E2F5F5E2E2F5E2F5E2E2E2E2E2E2E2E2E2
310
E2E2E2E2E2E2E2E2E2E2E2E2E2E2E2E2E2E2E2E2E2E2E2E2E2E2E2E2E2E2E2E2E2E2E2E2E2E2E2E2E2E2E2E2E2E2E2E2E2E2E2E2E2E2E2E2E2E2E2E2E2E2E2E2E2E2E2E2E2E2E2E2E2E2E2E2E2E2E2E2E2E2E2E2E2E2F5E2E2F5E2E2F5F5E2E2F5E2F5E2E2E2E2E2E2E2E2E2E2E2E2E2E2E2E2E2E2E2E2E2E2E2E2E2E2E2E2
310
E2E2E2E2E2E2E2E2E2E2E2E2E2E2E2E2E2E2E2E2E2E2E2E2E2E2E2E2E2E2E2E2E2E2E2E2E2E2E2E2E2E2E2E2E2E2E2E2E2E2E2E2E2E2E2E2E2E2E2E2E2E2E2E2E2E2E2F5E2E2F5E2E2F5F5E2E2F5E2F5E2E2E2E2E2E2E2E2E2E2E2E2E2E2E2E2E2E2E2E2E2E2E2E2E2E2E2E2E2E2E2E2E2E2E2E2E2E2E2E2E2E2E2E2E2E2E2
310
E2E2E2E2E2E2E2E2E2E2E2E2E2E2E2E2E2E2E2E2E2E2E2E2E2E2E2E2E2E2E2E2E2E2E2E2E2E2E2E2E2E2E2E2E2E2E2E2F5E2E2F5E2E2F5F5E2E2E2E2F5E2E2E2E2E2E2E2E2E2E2E2E2E2E2E2E2E2E2E2E2E2E2E2E2E2E2E2E2E2E2E2E2E2E2E2E2E2E2E2E2E2E2E2E2E2E2E2E2E2E2E2E2E2E2E2E2E2E2E2E2E2E2E2E2E2E2
310
E2E2E2E2E2E2E2E2E2E2E2E2E2E2E2E2E2E2E2E2E2E2E2E2E2E2E2E2E2F5E2E2E2E2E2F5F5E2E2E2E2F5E2E2E2E2E2E2E2E2E2E2E2E2E2E2E2E2E2E2E2E2E2E2E2E2E2E2E2E2E2E2E2E2E2E2E2E2E2E2E2E2E2E2E2E2E2E2E2E2E2E2E2E2E2E2E2E2E2E2E2E2E2E2E2E2E2E2E2E2E2E2E2E2E2E2E2E2E2E2E2E2E2E2E2E2E2
310
E2E2E2E2E2E2E2E2E2E2F5E2E2E2E2E2F5F5E2E2E2E2F5E2E2E2E2E2E2E2E2E2E2E2E2E2E2E2E2E2E2E2E2E2E2E2E2E2E2E2E2E2E2E2E2E2E2E2E2E2E2E2E2E2E2E2E2E2E2E2E2E2E2E2E2E2E2E2E2E2E2E2E2E2E2E2E2E2E2E2E2E2E2E2E2E2E2E2E2E2E2E2E2E2E2E2E2E2E2E2E2E2E2E2E2E2E2E2F5E2E2E2E2E2F5F5E2
310
E2E2E2F5E2E2E2E2E2E2E2E2E2E2E2E2E2E2E2E2E2E2E2E2E2E2E2E2E2E2E2E2E2E2E2E2E2E2E2E2E2E2E2E2E2E2E2E2E2E2E2E2E2E2E2E2E2E2E2E2E2E2E2E2E2E2E2E2E2E2E2E2E2E2E2E2E2E2E2E2E2E2E2E2E2E2E2E2E2E2E2E2E2E2E2E2E2E2E2F5E2E2E2E2E2F5F5E2E2E2E2F5E2E2E2E2E2E2E2E2E2E2E2E2E2E2E2
310
E2E2E2E2E2E2E2E2E2E2E2E2E2E2E2E2E2E2E2E2E2E2E2E2E2E2E2E2E2E2E2E2E2E2E2E2E2E2E2E2E2E2E2E2E2E2E2E2E2E2E2E2E2E2E2E2E2E2E2E2E2E2E2E2E2E2E2E2E2E2E2E2E2E2E2E2E2E2E2E2F5E2E2E2E2E2F5F5E2E2E2E2F5E2E2E2E2E2E2E2E2E2E2E2E2E2E2E2E2E2E2E2E2E2E2E2E2E2E2E2E2E2E2E2E2E2E2
310
E2E2E2E2E2E2E2E2E2E2E2E2E2E2E2E2E2E2E2E2E2E2E2E2E2E2E2E2E2E2E2E2E2E2E2E2E2E2E2E2E2E2E2E2E2E2E2E2E2E2E2E2E2E2E2E2E2E2E2E2E2F5E2E2E2E2E2F5F5E2E2E2E2F5E2E2E2E2E2E2E2E2E2E2E2E2E2E2E2E2E2E2E2E2E2E2E2E2E2E2E2E2E2E2E2E2E2E2E2E2E2E2E2E2E2E2E2E2E2E2E2E2E2E2E2E2E2
310
E2E2E2E2E2E2E2E2E2E2E2E2E2E2E2E2E2E2E2E2E2E2E2E2E2E2E2E2E2E2E2E2E2E2E2E2E2E2E2E2E2E2F5E2E2E2E2E2F5F5E2E2E2E2F5E2E2E2E2E2E2E2E2E2E2E2E2E2E2E2E2E2E2E2E2E2E2E2E2E2E2E2E2E2E2E2E2E2E2E2E2E2E2E2E2E2E2E2E2E2E2E2E2E2E2E2E2E2E2E2E2E2E2E2E2E2E2E2E2E2E2E2E2E2E2E2E2
310
E2E2E2E2E2E2E2E2E2E2E2E2E2E2E2E2E2E2E2E2E2E2E2F5E2E2E2E2E2F5F5E2E2E2E2F5E2E2E2E2E2E2E2E2E2E2E2E2E2E2E2E2E2E2E2E2E2E2E2E2E2E2E2E2E2E2E2E2E2E2E2E2E2E2E2E2E2E2E2E2E2E2E2E2E2E2E2E2E2E2E2E2E2E2E2E2E2E2E2E2E2E2E2E2E2E2E2E2E2E2E2E2E2E2E2E2E2E2E2E2E2E2E2E2E2E2E2
310
E2E2E2E2F5E2E2E2E2E2F5F5E2E2F5E2F5E2E2E2E2E2E2E2E2E2E2E2E2E2E2E2E2E2E2E2E2E2E2E2E2E2E2E2E2E2E2E2E2E2E2E2E2E2E2E2E2E2E2E2E2E2E2E2E2E2E2E2E2E2E2E2E2E2E2E2E2E2E2E2E2E2E2E2E2E2E2E2E2E2E2E2E2E2E2E2E2E2E2E2E2E2E2E2E2E2E2E2E2E2E2E2F5E2E2F5E2E2F5F5E2E2F5E2F5E2E2
310
E2E2E2E2E2E2E2E2E2E2E2E2E2E2E2E2E2E2E2E2E2E2E2E2E2E2E2E2E2E2E2E2E2E2E2E2E2E2E2E2E2E2E2E2E2E2E2E2E2E2E2E2E2E2E2E2E2E2E2E2E2E2E2E2E2E2E2E2E2E2E2E2E2E2E2E2E2E2E2E2E2E2E2E2E2E2E2E2E2E2E2E2E2F5E2E2F5E2E2F5F5E2E2F5E2F5E2E2E2E2E2E2E2E2E2E2E2E2E2E2E2E2E2E2E2E2E2
310
E2E2E2E2E2E2E2E2E2E2E2E2E2E2E2E2E2E2E2E2E2E2E2E2E2E2E2E2E2E2E2E2E2E2E2E2E2E2E2E2E2E2E2E2E2E2E2E2E2E2E2E2E2E2E2E2E2E2E2E2E2E2E2E2E2E2E2E2E2E2E2E2E2E2F5E2E2F5E2E2F5F5E2E2F5E2F5E2E2E2E2E2E2E2E2E2E2E2E2E2E2E2E2E2E2E2E2E2E2E2E2E2E2E2E2E2E2E2E2E2E2E2E2E2E2E2E2
310
E2E2E2E2E2E2E2E2E2E2E2E2E2E2E2E2E2E2E2E2E2E2E2E2E2E2E2E2E2E2E2E2E2E2E2E2E2E2E2E2E2E2E2E2E2E2E2E2E2E2E2E2E2E2E2F5E2E2F5E2E2F5F5E2E2F5E2F5E2E2E2E2E2E2E2E2E2E2E2E2E2E2E2E2E2E2E2E2E2E2E2E2E2E2E2E2E2E2E2E2E2E2E2E2E2E2E2E2E2E2E2E2E2E2E2E2E2E2E2E2E2E2E2E2E2E2E2
310
E2E2E2E2E2E2E2E2E2E2E2E2E2E2E2E2E2E2E2E2E2E2E2E2E2E2E2E2E2E2E2E2E2E2E2E2F5E2E2F5E2E2F5F5E2E2F5E2F5E2E2E2E2E2E2E2E2E2E2E2E2E2E2E2E2E2E2E2E2E2E2E2E2E2E2E2E2E2E2E2E2E2E2E2E2E2E2E2E2E2E2E2E2E2E2E2E2E2E2E2E2E2E2E2E2E2E2E2E2E2E2E2E2E2E2E2E2E2E2E2E2E2E2E2E2E2E2
310
E2E2E2E2E2E2E2E2E2E2E2E2E2E2E2E2E2F5E2E2F5E2E2F5F5E2E2F5E2F5E2E2E2E2E2E2E2E2E2E2E2E2E2E2E2E2E2E2E2E2E2E2E2E2E2E2E2E2E2E2E2E2E2E2E2E2E2E2E2E2E2E2E2E2E2E2E2E2E2E2E2E2E2E2E2E2E2E2E2E2E2E2E2E2E2E2E2E2E2E2E2E2E2E2E2E2E2E2E2E2E2E2E2E2E2E2E2E2E2E2E2E2E2E2E2F5E2
310
E2F5E2E2F5F5E2E2F5E2F5E2E2E2E2E2E2E2E2E2E2E2E2E2E2E2E2E2E2E2E2E2E2E2E2E2E2E2E2E2E2E2E2E2E2E2E2E2E2E2E2E2E2E2E2E2E2E2E2E2E2E2E2E2E2E2E2E2E2E2E2E2E2E2E2E2E2E2E2E2E2E2E2E2E2E2E2E2E2E2E2E2E2E2E2E2E2E2E2E2E2E2E2E2E2E2F5E2E2F5E2E2F5F5E2E2F5E2F5E2E2E2E2E2E2E2E2
310
E2E2E2E2E2E2E2E2E2E2E2E2E2E2E2E2E2E2E2E2E2E2E2E2E2E2E2E2E2E2E2E2E2E2E2E2E2E2E2E2E2E2E2E2E2E2E2E2E2E2E2E2E2E2E2E2E2E2E2E2E2E2E2E2E2E2E2E2E2E2E2E2E2E2E2E2E2E2E2E2E2E2E2E2E2E2E2F5E2E2F5E2E2F5F5E2E2F5E2F5E2E2E2E2E2E2E2E2E2E2E2E2E2E2E2E2E2E2E2E2E2E2E2E2E2E2E2
310
E2E2E2E2E2E2E2E2E2E2E2E2E2E2E2E2E2E2E2E2E2E2E2E2E2E2E2E2E2E2E2E2E2E2E2E2E2E2E2E2E2E2E2E2E2E2E2E2E2E2E2E2E2E2E2E2E2E2E2E2E2E2E2E2E2E2E2E2F5E2E2F5E2E2F5F5E2E2F5E2F5E2E2E2E2E2E2E2E2E2E2E2E2E2E2E2E2E2E2E2E2E2E2E2E2E2E2E2E2E2E2E2E2E2E2E2E2E2E2E2E2E2E2E2E2E2E2
310
E2E2E2E2E2E2E2E2E2E2E2E2E2E2E2E2E2E2E2E2E2E2E2E2E2E2E2E2E2E2E2E2E2E2E2E2E2E2E2E2E2E2E2E2E2E2E2E2E2F5E2E2F5E2E2F5F5E2E2F5E2F5E2E2E2E2E2E2E2E2E2E2E2E2E2E2E2E2E2E2E2E2E2E2E2E2E2E2E2E2E2E2E2E2E2E2E2E2E2E2E2E2E2E2E2E2E2E2E2E2E2E2E2E2E2E2E2E2E2E2E2E2E2E2E2E2E2
310
E2E2E2E2E2E2E2E2E2E2E2E2E2E2E2E2E2E2E2E2E2E2E2E2E2E2E2E2E2E2F5E2E2F5E2E2F5F5E2E2F5E2F5E2E2E2E2E2E2E2E2E2E2E2E2E2E2E2E2E2E2E2E2E2E2F5F5F5F5F5F5F5F5F5F5F5F5F5F5F5F5F5F5F5F5F5F5F5F5F5F5F5F5F5F5F5F5F5F5F5F5F5F5F5F5F5F5F5F5F5F5F5F5F5F5F5F5F5F5F5F5F5F5F5F5F5F5
310
E2E2E2E2E2E2E2E2E2E2E2F5E2E2F5E2E2F5F5E2E2F5E2F5E2E2E2E2E2E2E2E2E2E2E2E2E2E2E2E2E2E2E2E2E2E2F5F5F5F5F5F5F5F5F5F5F5F5F5F5F5F5F5F5F5F5F5F5F5F5F5F5F5F5F5F5F5F5F5F5F5F5F5F5F5F5F5F5F5F5F5F5F5F5F5F5F5F5F5F5F5F5F5F5F5F5F5E2E2E2E2E2E2E2E2E2E2E2E2F5E2E2F5E2E2F5F5
310
E2E2F5E2F5E2E2E2E2E2E2E2E2E2E2E2E2E2E2E2E2E2E2E2E2E2E2E2E2E2E2E2E2E2E2E2E2E2E2E2E2E2E2E2E2E2E2E2E2E2E2E2E2E2E2E2E2E2E2E2E2E2E2E2E2E2E2E2E2E2E2E2E2E2E2E2E2E2E2E2E2E2E2E2E2E2E2E2E2E2E2E2E2E2E2E2E2E2E2E2F5E2E2F5E2E2F5F5E2E2F5E2F5E2E2E2E2F5F5F5F5F5F5F5F5F5F5
310
F5F5F5F5F5F5F5F5F5F5F5F5F5F5F5F5F5F5F5F5F5F5F5F5F5F5F5F5F5F5F5F5F5F5F5F5F5F5F5F5F5F5F5F5F5F5F5F5F5F5F5F5F5F5F5E2E2E2E2E2E2E2E2E2E2E2E2E2E2E2E2E2E2E2E2E2E2E2E2E2E2F5E2E2F5E2E2F5F5E2E2F5E2F5E2E2E2E2E2F5E2E2E2E2E2F5F5E2E2E2E2E2E2F5E2E2E2E2E2E2E2F5E2E2E2E2E2
310
F5E2F5F5F5E2E2E2E2E2E2E2E2E2E2E2E2F5E2E2E2E2E2E2E2E2E2E2E2E2E2E2E2E2E2E2E2E2E2E2E2E2E2E2E2E2E2E2E2E2E2E2E2E2E2E2E2E2E2E2E2E2F5E2E2F5E2E2F5F5E2E2E2E2F5E2E2E2E2F5F5E2E2E2E2E2F5F5E2E2E2E2E2E2F5E2E2E2E2E2E2E2F5E2E2E2E2E2F5E2F5F5F5E2E2E2E2E2E2E2E2E2E2E2E2F5E2
310
E2E2E2E2E2E2E2E2E2E2E2E2E2E2E2E2E2E2E2E2E2E2E2E2E2E2E2E2E2E2E2E2E2E2E2E2E2E2E2E2E2E2E2F5E2E2E2E2E2F5F5E2E2E2E2F5E2E2E2E2E2F5E2E2E2E2E2F5E2E2E2E2E2E2E2F5E2E2E2E2E2E2E2F5E2E2E2E2E2F5E2F5F5F5E2E2E2E2E2E2E2E2E2E2E2E2F5E2E2E2E2F5F5F5F5F5F5F5F5F5F5F5F5F5E2E2E2
310
E2E2E2E2E2E2E2E2E2E2E2E2E2E2E2E2E2E2E2E2E2E2E2E2F5E2E2E2E2E2F5F5E2E2E2E2F5E2E2E2E2E2F5E2E2E2E2E2F5E2E2E2E2E2E2E2F5E2E2E2E2E2E2E2F5E2E2E2E2E2F5E2F5F5F5E2E2E2E2E2E2E2E2E2E2E2E2F5E2E2E2F5F5F5F5F5F5F5F5F5F5F5F5F5F5F5F5E2E2F5F5F5F5F5F5F5F5F5F5E2E2E2E2E2E2E2E2
310
E2E2E2E2E2F5E2E2E2E2E2F5F5E2E2E2E2F5E2E2E2E2E2F5E2E2E2E2E2F5E2E2E2E2E2E2E2F5E2E2E2E2E2E2E2F5E2E2E2E2E2F5E2F5F5F5E2E2E2E2E2E2E2E2E2E2E2E2F5E2E2E2F5E2F5F5F5F5E2E2F5E2E2F5E2E2E2F5E2E2E2E2E2E2E2E2E2E2E2E2E2E2E2E2E2E2E2E2E2E2E2E2E2F5E2E2E2E2E2F5F5E2E2E2E2F5E2
310
E2E2E2E2F5E2E2E2E2E2F5E2E2E2E2E2E2E2F5E2E2E2E2E2E2E2F5E2E2E2E2E2F5E2F5F5F5E2E2E2E2E2E2E2E2E2E2E2E2F5E2E2E2F5F5F5F5F5F5F5F5F5F5F5F5F5F5F5F5E2F5F5F5F5F5F5F5F5F5F5F5F5F5F5F5F5F5F5F5F5E2E2E2E2F5E2E2E2E2E2F5F5E2E2E2E2F5E2E2E2E2E2F5E2E2E2E2E2F5E2E2E2E2E2E2E2F5
310
E2E2E2E2E2E2E2F5E2E2E2E2E2F5E2F5F5F5E2E2E2E2E2E2E2E2E2E2E2E2F5E2E2E2F5F5F5F5F5F5F5F5F5F5F5F5F5F5F5F5E2F5F5F5F5F5F5F5F5F5F5F5F5F5F5F5F5F5F5F5F5E2E2E2E2F5E2E2E2E2E2F5F5E2E2E2E2F5E2E2E2E2E2F5E2E2E2E2E2F5E2E2E2E2E2E2E2F5E2E2E2E2E2E2E2F5E2E2E2E2E2F5E2F5F5F5E2
310
E2E2E2E2E2E2E2E2E2E2E2F5E2E2E2F5E2E2E2E2E2E2E2F5E2F5F5F5E2E2F5E2F5E2E2E2E2E2E2F5E2E2E2E2E2E2E2E2E2E2E2F5E2E2E2E2F5E2E2E2E2E2F5F5E2E2E2E2F5E2E2E2E2E2F5E2E2E2E2E2F5E2E2E2E2E2E2E2F5E2E2E2E2E2E2E2F5E2E2E2E2E2F5E2F5F5F5E2E2E2E2E2E2E2E2E2E2E2E2F5E2E2E2F5F5F5F5
310
F5F5F5F5F5F5F5F5F5F5F5F5E2F5F5F5F5F5F5F5F5F5F5F5F5F5F5F5F5F5F5F5F5E2E2E2E2F5E2E2E2E2E2F5F5E2E2E2E2F5E2E2E2E2E2F5E2E2E2E2E2F5E2E2E2E2E2E2E2F5E2E2E2E2E2E2E2F5E2E2E2E2E2F5E2F5F5F5E2E2E2E2E2E2E2E2E2E2E2E2F5E2E2E2F5F5F5F5F5F5F5F5F5F5F5F5F5F5F5F5E2F5F5F5F5F5F5
310
F5F5F5F5F5F5F5F5F5F5F5F5F5F5E2E2E2E2F5E2E2E2E2E2F5F5E2E2E2E2F5E2E2E2E2E2F5E2E2E2E2E2F5E2E2E2E2E2E2E2F5E2E2E2E2E2E2E2F5E2E2E2E2E2F5E2F5F5F5E2E2E2E2E2E2E2E2E2E2E2E2F5E2E2E2F5E2E2E2E2E2E2E2F5E2E2E2E2E2E2F5E2F5E2E2E2E2E2E2F5E2E2E2E2E2E2E2E2E2E2E2F5E2E2E2E2F5
310
E2E2E2E2E2F5F5E2E2F5E2F5E2E2E2E2E2F5E2E2E2E2E2F5E2E2E2E2E2E2E2F5E2E2E2E2E2E2E2F5E2E2E2E2E2F5E2F5F5F5E2E2E2E2E2E2E2E2E2E2E2E2F5E2E2E2F5E2F5F5F5E2E2E2F5F5F5F5F5F5E2F5E2F5F5F5F5F5F5F5F5F5F5F5F5F5F5F5F5F5F5F5F5E2E2E2E2F5E2E2F5E2E2F5F5E2E2F5E2F5E2E2E2E2E2F5E2
310
E2E2E2E2F5E2E2E2E2E2E2E2F5E2E2E2E2E2E2E2F5E2E2E2E2E2F5E2F5F5F5E2E2E2E2E2E2E2E2E2E2E2E2F5E2E2E2F5F5F5F5F5F5F5F5F5F5F5F5F5F5F5F5E2F5F5F5F5F5F5F5F5F5F5F5F5F5F5F5F5F5F5F5F5E2E2E2E2F5E2E2F5E2E2F5F5E2E2F5E2F5E2E2E2E2E2F5E2E2E2E2E2F5E2E2E2E2E2E2E2F5E2E2E2E2E2E2
310
E2F5E2E2E2E2E2F5E2F5F5F5E2E2E2E2E2E2E2E2E2E2E2E2F5E2E2E2F5E2F5F5F5F5F5F5F5F5F5F5F5F5E2F5E2F5E2E2F5F5F5F5F5F5F5F5F5F5F5F5F5F5E2E2F5E2E2E2E2F5E2E2F5E2E2F5F5E2E2F5E2F5E2E2E2E2E2F5E2E2E2E2E2F5E2E2E2E2E2E2E2F5E2E2E2E2E2E2E2F5E2E2E2E2E2F5E2F5F5F5E2E2E2E2E2E2E2
310
E2E2E2E2E2F5E2E2E2F5E2E2F5F5F5F5F5F5F5F5F5E2E2E2F5E2F5E2E2F5F5F5F5F5F5F5F5F5F5F5F5F5E2E2E2F5E2E2E2E2F5E2E2F5E2E2F5F5E2E2F5E2F5E2E2E2E2E2F5E2E2E2E2E2F5E2E2E2E2E2E2E2F5E2E2E2E2E2E2E2F5E2E2E2E2E2F5E2F5F5F5E2E2E2E2E2E2E2E2E2E2E2E2F5E2E2E2F5E2E2F5F5F5F5F5F5F5
310
F5F5E2E2E2F5E2F5E2E2F5F5F5F5F5F5F5F5F5F5F5F5F5E2E2E2F5E2E2E2E2F5E2E2F5E2E2F5F5E2E2F5E2F5E2E2E2E2E2F5E2E2E2E2E2F5E2E2E2E2E2E2E2F5E2E2E2E2E2E2E2F5E2E2E2E2E2F5E2F5F5F5E2E2E2E2E2E2E2E2E2E2E2E2F5E2E2E2F5F5F5F5F5F5F5F5F5F5F5F5F5F5F5F5E2F5F5F5F5F5F5F5F5F5F5F5F5
310
F5F5F5F5F5F5F5F5E2E2E2E2F5E2E2F5E2E2F5F5E2E2F5E2F5E2E2E2E2E2F5E2E2E2E2E2F5E2E2E2E2E2E2E2F5E2E2E2E2E2E2E2F5E2E2E2E2E2F5E2F5F5F5E2E2E2E2E2E2E2E2E2E2E2E2F5E2E2E2E2E2E2E2E2E2E2E2E2E2E2E2E2E2E2E2E2E2E2E2E2E2E2E2E2E2E2E2E2E2E2E2E2E2E2E2E2E2E2E2E2F5E2E2F5E2E2F5
310
F5E2E2F5E2F5E2E2E2E2E2F5E2E2E2E2E2F5E2E2E2E2E2E2E2F5E2E2E2E2E2E2E2F5E2E2E2E2E2F5E2F5F5F5E2E2E2E2E2E2E2E2E2E2E2E2F5E2E2E2E2E2E2E2E2E2E2E2E2E2E2E2E2E2E2E2E2E2E2E2E2E2E2E2E2E2E2E2E2E2E2E2E2E2E2E2E2E2E2E2E2F5E2E2F5E2E2F5F5E2E2F5E2F5E2E2E2E2E2F5E2E2E2E2E2F5E2
310
E2E2E2E2E2E2F5E2E2E2E2E2E2E2F5E2E2E2E2E2F5E2F5F5F5E2E2E2E2E2E2E2F5F5F5F5F5F5F5F5F5E2E2E2E2E2E2E2E2E2E2E2E2E2E2E2E2E2E2E2E2E2E2E2E2E2E2E2E2E2E2E2E2E2E2E2E2E2E2E2E2E2F5E2E2F5E2E2F5F5E2E2F5E2F5E2E2E2E2E2F5E2E2E2E2E2F5E2E2E2E2E2E2E2F5E2E2E2E2E2E2E2F5E2E2E2E2
310
E2F5E2F5F5F5E2E2E2E2E2E2E2F5F5F5F5F5F5F5F5F5E2E2E2E2E2E2E2E2F5F5F5F5F5F5F5F5F5F5F5F5F5F5F5F5F5F5F5F5F5F5F5E2E2E2E2E2E2E2E2E2E2F5E2E2F5E2E2F5F5E2E2F5E2F5E2E2E2E2E2F5E2E2E2E2E2F5E2E2E2E2E2E2E2F5E2E2E2E2E2E2E2F5E2E2E2E2E2F5E2F5F5F5E2E2E2E2E2E2E2E2E2E2E2E2E2
310
E2E2E2E2E2E2E2E2E2E2E2F5F5F5F5F5F5F5F5F5F5F5F5F5F5F5F5F5F5F5F5F5F5E2E2E2E2E2E2E2E2E2E2E2F5E2E2F5E2E2F5F5E2E2F5E2F5F5F5F5F5F5F5F5F5F5E2E2F5E2E2E2E2E2E2E2F5E2E2E2E2E2F5F5F5F5E2E2E2E2F5E2F5F5F5E2E2E2E2E2E2E2E2E2E2E2E2F5E2E2E2E2E2E2E2E2E2E2E2E2E2E2E2F5F5F5F5
310
F5F5F5F5F5F5F5F5E2E2E2E2E2E2E2E2E2E2E2E2E2E2E2E2E2F5E2E2F5E2E2F5F5E2E2F5E2F5E2E2F5F5F5F5F5E2E2E2E2F5E2E2E2E2E2E2E2F5E2E2E2E2E2F5F5F5F5E2E2E2E2F5E2F5F5F5E2E2E2E2E2E2E2E2E2E2E2E2F5E2E2E2E2E2E2E2E2E2E2E2E2E2E2E2F5F5F5F5F5F5F5F5F5F5F5E2E2E2E2E2E2E2E2E2E2E2E2
310
E2E2E2E2E2E2F5E2E2F5E2E2F5F5E2E2F5E2F5E2E2E2E2E2F5E2E2E2E2E2F5E2E2F5F5F5F5F5F5F5F5F5E2E2F5F5F5F5E2E2E2E2F5E2F5F5F5E2E2E2E2E2E2E2E2E2E2E2E2F5E2E2E2E2E2E2E2E2E2E2E2E2E2E2E2E2E2E2E2E2E2E2E2E2E2E2E2E2E2E2E2E2E2E2E2E2E2E2E2E2E2E2E2E2F5E2E2F5E2E2F5F5E2E2F5E2F5
310
E2E2E2E2E2F5E2E2E2E2E2F5E2E2E2E2E2F5F5F5F5E2E2E2E2E2E2F5E2E2E2E2E2F5E2F5F5F5E2E2E2E2E2E2E2E2E2E2E2E2F5E2E2E2E2E2E2E2E2E2E2E2E2E2E2E2E2E2E2E2E2E2E2E2E2E2E2E2E2E2E2E2E2E2E2E2E2E2E2E2E2E2E2E2E2F5E2E2F5E2E2F5F5E2E2F5E2F5E2E2E2E2E2F5E2E2E2E2E2F5E2E2F5F5F5F5F5
310
F5F5F5F5E2E2E2E2F5E2E2E2E2E2F5E2F5F5F5E2E2E2E2E2E2E2E2E2E2E2E2F5E2E2E2E2E2E2E2E2E2E2E2E2E2E2E2E2E2E2E2E2E2E2E2E2E2E2E2E2E2E2E2E2E2E2E2E2E2E2E2E2E2E2E2E2F5E2E2F5E2E2F5F5E2E2E2E2F5E2E2E2E2E2F5E2E2E2E2E2F5E2E2E2E2E2E2E2F5E2E2E2E2E2E2E2F5E2E2E2E2E2F5E2F5F5F5
310
E2E2E2E2E2E2E2E2E2E2E2E2F5E2E2E2E2E2E2E2E2E2E2E2F5F5F5E2E2E2E2E2E2E2E2E2E2E2E2E2E2E2E2E2E2E2E2E2E2E2E2E2E2E2E2E2E2F5E2E2E2E2E2F5F5E2E2E2E2F5E2E2E2E2E2F5E2E2E2E2E2F5E2E2E2E2E2E2E2F5E2E2E2E2E2E2E2F5E2E2E2E2E2F5E2F5F5F5E2E2E2E2E2E2E2E2E2E2E2E2F5E2E2E2E2E2E2
310
E2E2E2E2E2E2F5F5E2E2E2E2E2E2E2E2E2E2E2E2E2E2E2E2E2E2E2E2E2E2E2E2E2E2E2E2E2E2F5E2E2E2E2E2F5F5E2E2E2E2F5E2E2E2E2E2F5E2E2E2E2E2F5E2E2E2E2E2E2E2F5E2E2E2E2E2E2E2F5E2E2E2E2E2F5E2F5F5F5E2E2E2E2E2E2E2E2E2E2E2E2F5E2E2E2E2E2E2E2E2E2E2E2F5F5F5E2E2E2E2E2E2E2E2E2E2E2
310
E2E2E2E2E2E2E2E2E2E2E2E2E2E2E2E2E2E2E2F5E2E2E2E2E2F5F5E2E2E2E2F5E2E2E2E2E2F5E2E2F5F5F5F5F5F5F5E2E2E2E2F5E2E2E2E2E2E2E2F5E2E2E2E2E2F5E2F5F5F5E2E2E2E2E2E2E2E2E2E2E2E2F5E2E2E2E2E2E2E2E2E2E2E2E2F5F5E2E2E2E2E2E2E2E2E2E2E2E2E2E2E2E2E2E2E2E2E2E2E2E2E2E2E2E2E2E2
310
F5E2E2E2E2E2F5F5E2E2E2E2F5E2E2E2E2E2F5E2E2E2F5F5F5F5F5E2E2E2E2E2F5E2E2E2E2E2E2E2F5E2E2E2E2E2F5E2F5F5F5E2E2E2E2E2E2E2E2E2E2E2E2F5E2E2E2E2E2E2E2E2E2E2E2E2F5F5F5E2E2E2E2E2E2E2E2E2E2E2E2E2E2E2E2E2E2E2E2E2E2E2E2E2E2E2E2E2F5E2E2E2E2E2F5F5E2E2E2E2F5E2E2E2E2E2F5
310
E2E2E2E2E2E2E2E2E2E2E2E2E2F5E2E2E2E2E2E2E2F5E2E2E2E2E2F5E2F5F5F5E2E2E2E2E2E2E2E2E2E2E2E2F5E2E2E2E2E2E2E2E2E2E2E2E2F5F5F5F5E2E2E2E2E2E2E2E2E2E2E2E2E2E2E2E2E2E2E2E2E2E2E2E2E2E2E2E2F5E2E2E2E2E2F5F5E2E2E2E2F5E2E2E2E2E2F5E2E2E2E2E2F5E2E2E2E2E2E2E2F5E2E2E2E2E2
310
E2E2F5E2E2E2E2E2F5E2F5F5F5E2E2E2E2E2E2E2E2E2E2E2E2F5E2E2E2E2E2E2E2E2E2E2E2E2F5F5E2F5F5F5F5E2E2E2E2E2E2E2E2E2E2E2E2E2E2E2E2E2E2E2E2E2E2E2E2E2F5E2E2E2E2E2F5F5E2E2E2E2F5E2E2E2E2E2F5E2E2E2E2E2F5E2E2E2E2E2E2E2F5E2E2E2E2E2E2E2F5E2E2E2E2E2F5E2F5F5F5E2E2E2E2E2E2
310
E2E2E2E2E2E2F5E2E2E2E2E2E2E2E2E2E2E2E2F5F5E2F5F5F5E2E2E2E2E2E2E2E2E2E2E2E2E2E2E2E2E2E2E2E2E2E2E2E2E2E2F5E2E2E2E2E2F5F5E2E2E2E2F5E2E2E2E2E2F5E2E2E2E2E2F5E2E2E2E2E2E2E2F5E2E2E2E2E2E2E2F5E2E2E2E2E2F5E2F5F5F5E2E2E2E2E2E2E2E2E2E2E2E2F5E2E2E2E2E2E2E2E2E2E2E2E2
310
F5F5E2E2F5F5F5E2E2E2E2E2E2E2E2E2E2E2E2E2E2E2E2E2E2E2E2E2E2E2E2E2F5E2E2E2E2E2F5F5E2E2E2E2F5E2E2E2E2E2F5E2E2E2E2E2F5E2E2E2E2E2E2E2F5E2E2E2E2E2E2E2F5E2E2E2E2E2F5E2F5F5F5E2E2E2E2E2E2E2E2E2E2E2E2F5E2E2E2E2E2E2E2E2E2E2E2F5F5F5F5F5F5F5F5F5F5F5F5E2E2E2E2E2E2E2E2
310
E2E2E2E2E2E2E2E2E2E2E2E2E2F5E2E2E2E2E2F5F5E2E2F5E2F5E2E2E2E2E2F5E2E2E2E2E2F5E2E2E2E2E2E2E2F5E2E2E2E2E2E2E2F5E2E2E2E2E2F5E2F5F5F5E2E2E2E2E2E2E2E2E2E2E2E2F5E2E2E2E2E2E2E2E2E2E2E2F5F5F5F5F5F5F5F5F5F5F5F5E2E2E2E2E2E2E2E2E2E2E2E2E2E2E2E2E2E2E2E2E2F5E2E2F5E2E2
310
F5F5E2E2F5E2F5E2E2E2E2E2F5E2E2E2E2E2F5E2E2E2E2E2E2E2F5E2E2E2E2E2E2E2F5E2E2E2E2E2F5E2F5F5F5E2E2E2E2E2E2E2E2E2E2E2E2F5E2E2E2E2E2E2E2E2E2E2E2E2E2E2E2E2E2F5E2E2F5E2E2F5F5F5F5F5F5F5F5F5F5E2E2E2E2E2E2E2E2E2E2E2F5E2E2F5E2E2F5F5E2E2F5E2F5E2E2E2E2E2F5E2E2E2E2E2F5
310
E2E2E2E2E2E2E2F5E2E2E2E2E2E2E2F5E2E2E2E2E2F5E2F5F5F5E2E2E2E2E2E2E2E2E2E2E2E2F5E2E2E2E2E2E2E2E2E2E2E2E2E2E2E2E2E2E2E2E2E2F5E2F5F5F5F5F5F5F5F5F5F5F5F5F5F5F5F5F5F5E2E2E2F5E2E2F5E2E2F5F5E2E2F5E2F5E2E2E2E2E2F5E2E2E2E2E2F5E2E2E2E2E2E2E2F5E2E2E2E2E2E2E2F5E2E2E2
310
E2E2F5E2F5F5F5E2E2E2E2E2E2E2E2E2E2E2E2F5E2E2E2E2E2E2E2E2E2E2E2E2E2E2E2E2E2E2E2E2E2F5F5F5F5F5F5F5F5F5F5F5F5F5F5F5F5F5F5F5F5E2E2E2F5E2E2F5E2E2F5F5E2E2F5E2F5E2E2E2E2E2F5E2E2E2E2E2F5E2E2E2E2E2E2E2F5E2E2E2E2E2E2E2F5E2E2E2E2E2F5E2F5F5F5E2E2E2E2E2E2E2E2E2E2E2E2
310
F5E2E2E2E2E2E2E2E2E2E2E2E2E2E2E2E2E2E2E2E2E2E2E2E2E2E2E2E2E2E2E2E2E2E2E2E2E2E2E2E2E2E2E2E2F5E2E2F5E2E2F5F5E2E2F5E2F5E2E2E2E2E2F5E2E2E2E2E2F5E2E2E2E2E2E2E2F5E2E2E2E2E2E2E2F5E2E2E2E2E2F5E2F5F5F5E2E2E2E2E2E2E2E2E2E2E2E2F5E2E2E2E2E2E2E2E2E2E2E2E2E2E2E2E2E2E2
310
E2E2E2E2E2E2E2E2E2E2E2E2E2E2E2E2E2E2E2E2E2E2E2E2E2E2F5E2E2F5E2E2F5F5E2E2F5E2F5E2E2E2E2E2F5E2E2E2E2E2F5E2E2E2E2E2E2E2F5E2E2E2E2E2E2E2F5E2E2E2E2E2F5E2F5F5F5F5F5F5F5F5F5F5F5F5F5F5F5F5E2E2E2E2E2E2E2E2E2E2E2E2E2E2E2E2E2E2E2E2E2E2E2E2E2E2E2E2E2E2E2E2E2E2E2E2E2
310
E2F5F5E2E2E2E2F5E2E2F5E2E2F5F5E2E2F5E2F5E2E2E2E2E2F5E2E2E2E2E2F5E2E2E2E2E2E2E2F5E2E2E2E2E2E2E2F5E2E2E2E2E2F5E2F5F5F5E2E2E2E2E2E2E2E2E2E2E2E2E2E2E2E2E2E2E2E2E2E2E2E2E2E2E2E2E2E2E2E2E2E2E2E2E2E2E2E2E2E2E2E2E2E2E2E2E2E2E2E2F5F5F5F5F5F5E2E2F5E2E2F5F5E2E2F5E2
310
F5E2E2E2E2E2F5E2E2E2E2E2F5E2E2E2E2E2E2E2F5E2E2E2E2E2E2E2F5E2E2E2E2E2F5E2F5F5F5F5E2E2E2E2E2E2E2E2E2E2E2E2E2E2E2E2E2F5F5F5F5F5F5F5F5F5F5F5F5F5F5F5F5E2E2E2E2E2E2E2E2E2E2E2E2E2E2E2E2E2E2E2E2E2E2F5F5E2E2F5E2E2F5F5E2E2F5E2F5E2E2E2E2E2F5E2E2E2E2E2F5E2E2E2E2E2E2
310
E2F5E2E2E2E2E2E2E2F5E2E2E2E2E2F5E2F5F5F5F5F5F5F5F5F5F5F5F5F5F5F5F5F5F5F5F5F5E2F5F5F5F5F5F5F5F5F5F5F5F5F5F5E2E2F5F5F5F5F5F5F5F5F5F5F5F5F5F5F5F5F5F5F5F5E2F5F5E2E2F5E2E2F5F5E2E2F5E2F5E2E2E2E2E2F5E2E2E2E2E2F5E2E2E2E2E2E2E2F5E2E2E2E2E2E2E2F5F5F5F5F5F5F5F5F5F5
310
F5F5F5E2E2E2F5F5F5F5E2E2E2E2E2E2E2E2E2E2F5F5F5F5F5F5F5F5F5F5F5F5F5F5E2E2E2E2E2E2E2E2E2E2E2E2E2E2E2E2E2E2E2E2F5F5E2F5F5E2E2F5E2E2F5F5E2E2F5E2F5E2E2E2E2E2F5E2E2E2E2E2F5E2E2E2E2E2E2E2F5E2E2E2E2E2E2E2F5E2E2E2E2E2F5F5F5E2F5F5F5E2E2E2F5F5F5F5F5F5F5F5F5F5E2E2E2
310
E2E2E2E2E2E2E2E2E2E2E2E2E2E2E2E2E2E2E2E2E2E2E2E2E2E2E2E2E2E2E2E2E2E2E2E2F5E2F5F5E2E2F5E2E2F5F5E2E2F5E2F5E2E2E2E2E2F5E2E2E2E2E2F5E2E2E2E2E2E2E2F5E2E2E2E2E2E2E2F5E2E2E2E2E2F5F5F5F5F5F5F5F5F5F5F5E2E2E2E2E2E2E2E2E2E2E2E2E2E2E2E2E2E2E2E2E2E2E2E2E2E2E2E2E2E2E2
310
E2E2E2E2E2E2E2E2E2E2E2E2E2E2E2E2E2F5E2F5F5E2E2F5E2E2F5F5E2E2F5E2F5E2E2E2E2E2F5E2E2E2E2E2F5E2E2E2E2E2E2E2F5E2E2E2E2E2E2E2F5E2E2E2E2E2F5E2F5F5E2E2F5E2F5F5F5F5F5F5F5F5F5F5F5F5F5F5F5F5F5F5F5F5F5F5F5F5F5F5F5F5F5F5F5F5F5F5F5F5F5F5F5F5F5F5F5F5F5F5F5F5F5F5F5F5E2
310
F5F5E2E2F5E2E2F5F5E2E2F5E2F5E2E2E2E2E2F5E2E2E2E2E2F5E2E2E2E2E2E2F5F5F5F5F5F5F5F5F5F5F5F5F5F5F5F5F5F5F5F5F5F5F5F5F5F5F5F5F5F5F5F5F5F5F5F5F5F5F5F5F5F5F5F5F5F5F5F5F5F5F5F5F5F5F5F5F5F5F5F5F5F5F5F5F5F5F5F5F5F5F5F5F5F5F5E2F5F5E2E2F5E2E2F5F5E2E2F5E2F5E2E2E2E2E2
310
F5E2E2E2E2E2F5F5E2E2E2E2E2E2E2E2E2E2E2E2E2E2F5E2E2E2E2E2F5F5F5F5F5E2F5E2E2E2E2E2E2E2E2E2E2E2E2E2E2E2E2E2E2E2E2E2E2E2E2E2E2E2F5F5E2E2E2E2E2E2E2E2E2E2E2E2E2E2E2E2E2E2E2E2E2F5F5E2E2F5F5E2E2F5E2E2F5F5E2E2E2E2F5E2E2E2E2F5F5E2E2E2E2E2F5F5F5F5F5F5F5F5F5F5F5F5F5
310
F5F5F5F5F5F5F5F5F5F5F5F5F5F5E2F5E2E2E2E2E2E2E2E2E2E2E2E2E2E2E2E2E2E2E2E2E2E2E2E2E2E2E2F5F5E2E2E2E2E2E2E2E2E2E2E2E2E2E2E2E2E2E2E2E2E2F5F5E2E2F5F5E2E2E2E2E2F5F5E2E2E2E2F5E2E2E2E2F5F5F5F5F5F5F5F5F5F5F5F5F5F5F5F5F5F5F5F5F5F5F5F5F5F5F5F5F5F5F5F5F5F5F5F5F5F5F5
310
F5F5F5F5F5F5F5F5F5F5F5F5F5F5F5F5F5F5F5F5F5F5F5F5F5F5F5F5F5F5F5F5F5F5F5F5F5F5F5F5F5F5F5F5F5F5F5F5F5F5F5F5F5E2E2E2E2E2F5F5E2E2E2E2F5E2E2E2E2E2E2E2E2E2E2E2E2E2E2E2E2E2E2E2E2E2E2E2E2E2E2E2F5E2E2E2E2E2F5F5F5F5F5F5F5F5F5F5F5F5F5F5E2F5F5F5F5F5F5F5F5F5F5F5F5F5F5
310
F5F5F5E2F5F5F5F5F5F5F5F5F5F5F5F5F5F5F5F5F5F5E2F5F5F5F5F5F5F5F5F5F5F5E2E2E2E2E2F5F5E2E2E2E2F5E2E2E2E2E2E2E2E2E2E2E2E2E2E2E2E2E2E2E2E2E2E2E2E2E2E2E2F5E2E2E2E2E2F5F5F5F5F5F5F5F5F5F5F5F5F5F5F5F5F5F5F5F5F5F5F5F5F5F5F5F5F5F5F5F5F5F5F5F5F5F5F5F5F5F5F5F5F5F5F5F5
310
F5F5F5F5F5F5F5F5F5F5F5F5F5F5F5E2E2E2E2E2F5F5E2E2E2E2F5E2E2E2E2E2E2E2E2E2E2E2E2E2E2E2E2E2E2E2E2E2E2E2E2E2E2E2F5E2E2E2E2E2E2E2E2E2E2E2E2E2F5E2E2E2E2E2E2E2E2E2E2E2E2E2E2E2E2E2E2E2E2E2E2E2E2E2E2E2E2E2E2E2E2E2E2E2E2E2E2E2E2E2E2E2E2E2E2E2F5F5F5F5F5F5F5E2E2E2E2
310
E2F5F5E2E2E2E2F5E2E2E2E2E2E2E2E2E2E2E2E2E2E2E2E2E2E2E2E2E2E2E2E2E2E2E2F5F5F5F5F5F5F5E2E2E2E2E2E2E2E2F5E2F5F5F5F5F5F5F5F5F5F5E2E2E2E2E2E2E2E2E2E2E2E2E2E2E2E2E2E2E2E2E2E2E2E2E2E2E2E2E2E2E2E2E2E2E2E2E2F5F5E2E2F5E2E2E2E2E2F5F5E2E2E2E2F5E2E2E2E2E2E2E2E2E2E2E2
310
E2E2E2E2E2E2E2E2E2E2E2E2E2E2E2E2F5F5F5F5F5F5F5E2E2E2E2E2E2E2E2F5F5F5E2E2E2E2E2E2E2E2E2E2E2E2E2E2E2E2E2E2E2E2E2E2E2E2E2E2E2E2E2E2E2E2E2E2E2E2E2E2E2E2E2E2E2E2E2E2E2E2E2E2F5E2E2E2E2E2F5F5E2E2E2E2F5E2E2E2E2E2E2E2E2E2E2E2E2E2E2E2E2E2E2E2E2E2E2E2E2E2E2E2E2E2E2
310
E2E2E2E2E2E2E2E2E2E2E2E2E2E2E2E2E2E2E2E2E2E2E2E2E2E2E2E2E2E2E2E2E2E2E2E2E2E2E2E2E2E2E2E2E2E2E2E2E2E2E2E2E2E2E2E2E2E2E2E2E2E2E2E2E2F5E2E2E2E2E2F5F5E2E2E2E2F5E2E2E2E2E2E2E2E2E2E2E2E2E2E2E2E2E2E2E2E2E2E2E2E2E2E2E2E2E2E2E2E2E2E2E2E2E2E2E2E2E2E2E2E2E2E2E2E2E2
310
E2E2E2E2E2E2E2E2E2E2E2E2E2E2E2E2E2E2E2E2E2E2E2E2E2E2E2E2E2E2E2E2E2E2E2E2E2E2E2E2E2E2E2E2E2E2F5E2E2E2E2E2F5F5E2E2E2E2F5E2E2E2E2E2E2E2E2E2E2E2E2E2E2E2E2E2E2E2E2E2E2E2E2E2E2E2E2E2E2E2E2E2E2E2E2E2E2E2E2E2E2E2E2E2E2E2E2E2E2E2E2E2E2E2E2E2E2E2E2E2E2E2E2E2E2E2E2
310
E2E2E2E2E2E2E2E2E2E2E2E2E2E2E2E2E2E2E2E2E2E2E2E2E2E2E2F5E2E2E2E2E2F5F5E2E2F5E2F5E2E2E2E2E2E2E2E2E2E2E2E2E2E2E2E2E2E2E2E2E2E2E2E2E2E2E2E2E2E2E2E2E2E2E2E2E2E2E2E2E2E2E2E2E2E2E2E2E2E2E2E2E2E2E2E2E2E2E2E2E2E2E2E2E2E2E2E2E2E2E2E2E2E2E2E2E2E2E2E2E2E2E2E2E2E2E2
310
E2E2E2E2E2E2E2E2F5E2E2F5E2E2F5F5E2E2F5E2F5E2E2E2E2E2E2E2E2E2E2E2E2E2E2E2E2E2E2E2E2E2E2E2E2E2E2E2E2E2E2E2E2E2E2E2E2E2E2E2E2E2E2E2E2E2E2E2E2E2E2E2E2E2E2E2E2E2E2E2E2E2E2E2E2E2E2E2E2E2E2E2E2E2E2E2E2E2E2E2E2E2E2E2E2E2E2E2E2E2E2E2E2E2E2E2F5E2E2F5E2E2F5F5E2E2F5
310
E2F5E2E2E2E2E2E2E2E2E2E2E2E2E2E2E2E2E2E2E2E2E2E2E2E2E2E2E2E2E2E2E2E2E2E2E2E2E2E2E2E2E2E2E2E2E2E2E2E2E2E2E2E2E2E2E2E2E2E2E2E2E2E2E2E2E2E2E2E2E2E2E2E2E2E2E2E2E2E2E2E2E2E2E2E2E2E2E2E2E2E2E2E2E2E2E2F5E2E2F5E2E2F5F5E2E2F5E2F5E2E2E2E2E2E2E2E2E2E2E2E2E2E2E2E2E2
310
E2E2E2E2E2E2E2E2E2E2E2E2E2E2E2E2E2E2E2E2E2E2E2E2E2E2E2E2E2E2E2E2E2E2E2E2E2E2E2E2E2E2E2E2E2E2E2E2E2E2E2E2E2E2E2E2E2E2E2E2E2E2E2E2E2E2E2E2E2E2E2E2E2E2E2E2E2E2F5E2E2F5E2E2F5F5E2E2F5E2F5E2E2E2E2E2E2E2E2E2E2E2E2E2E2E2E2E2E2E2E2E2E2E2E2E2E2E2E2E2E2E2E2E2E2E2E2
310
E2E2E2E2E2E2E2E2E2E2E2E2E2E2E2E2E2E2E2E2E2E2E2E2E2E2E2E2E2E2E2E2E2E2E2E2E2E2E2E2E2E2E2E2E2E2E2E2E2E2E2E2E2E2E2E2E2E2E2F5E2E2F5E2E2F5F5E2E2F5E2F5E2E2E2E2E2E2E2E2E2E2E2E2E2E2E2E2E2E2E2E2E2E2E2E2E2E2E2E2E2E2E2E2E2E2E2E2E2E2E2E2E2E2E2E2E2E2E2E2E2E2E2E2E2E2E2
310
E2E2E2E2E2E2E2E2E2E2E2E2E2E2E2E2E2E2E2E2E2E2E2E2E2E2E2E2E2E2E2E2E2E2E2E2E2E2E2E2F5E2E2F5E2E2F5F5E2E2F5E2F5E2E2E2E2E2E2E2E2E2E2E2E2E2E2E2E2E2E2E2E2E2E2E2E2E2E2E2E2E2E2E2E2E2E2E2E2E2E2E2E2E2E2E2E2E2E2E2E2E2E2E2E2E2E2E2E2E2E2E2E2E2E2E2E2E2E2E2E2E2E2E2E2E2E2
310
E2E2E2E2E2E2E2E2E2E2E2E2E2E2E2E2E2E2E2E2E2F5E2E2F5E2E2F5F5E2E2F5E2F5E2E2E2E2E2E2E2E2E2E2E2E2E2E2E2E2E2E2E2E2E2E2E2E2E2E2E2E2E2E2E2E2E2E2E2E2E2E2E2E2E2E2E2E2E2E2E2E2E2E2E2E2E2E2E2E2E2E2E2E2E2E2E2E2E2E2E2E2E2E2E2E2E2E2E2E2E2E2E2E2E2E2E2E2E2E2E2E2E2E2E2E2E2
310
E2E2F5E2E2F5E2E2F5F5E2E2F5E2F5E2E2E2E2E2E2E2E2E2E2E2E2E2E2E2E2E2E2E2E2E2E2E2E2E2E2E2E2E2E2E2E2E2E2E2E2E2E2E2E2E2E2E2E2E2E2E2E2E2E2E2E2E2E2E2E2E2E2E2E2E2E2E2E2E2E2E2E2E2E2E2E2E2E2E2E2E2E2E2E2E2E2E2E2E2E2E2E2E2E2E2E2E2E2E2F5E2E2F5E2E2F5F5E2E2F5E2F5E2E2E2E2
310
E2E2E2E2E2E2E2E2E2E2E2E2E2E2E2E2E2E2E2E2E2E2E2E2E2E2E2E2E2E2E2E2E2E2E2E2E2E2E2E2E2E2E2E2E2E2E2E2E2E2E2E2E2E2E2E2E2E2E2E2E2E2E2E2E2E2E2E2E2E2E2E2E2E2E2E2E2E2E2E2E2E2E2E2E2E2E2E2E2E2E2F5E2E2F5E2E2F5F5E2E2F5E2F5E2E2E2E2E2E2E2E2E2E2E2E2E2E2E2E2E2E2E2E2E2E2E2
310
E2E2E2E2E2E2E2E2E2E2E2E2E2E2E2E2E2E2E2E2E2E2E2E2E2E2E2E2E2E2E2E2E2E2E2E2E2E2E2E2E2E2E2E2E2E2E2E2E2E2E2E2E2E2E2E2E2E2E2E2E2E2E2E2E2E2E2E2E2E2E2E2F5E2E2F5E2E2F5F5E2E2F5E2F5E2E2E2E2E2E2E2E2E2E2E2E2E2E2E2E2E2E2E2E2E2E2E2E2E2E2E2E2E2E2E2E2E2E2E2E2E2E2E2E2E2E2
310
E2E2E2E2E2E2E2E2E2E2E2E2E2E2E2E2E2E2E2E2E2E2E2E2E2E2E2E2E2E2E2E2E2E2E2E2E2E2E2E2E2E2E2E2E2E2E2E2E2E2E2E2E2F5E2E2F5E2E2F5F5E2E2F5E2F5E2E2E2E2E2E2E2E2E2E2E2E2E2E2E2E2E2E2E2E2E2E2E2E2E2E2E2E2E2E2E2E2E2E2E2E2E2E2E2E2E2E2E2E2E2E2E2E2E2E2E2E2E2E2E2E2E2E2E2E2E2
310
E2E2E2E2E2E2E2E2E2E2E2E2E2E2E2E2E2E2E2E2E2E2E2E2E2E2E2E2E2E2E2E2E2E2F5E2E2F5E2E2F5F5E2E2F5E2F5E2E2E2E2E2E2E2E2E2E2E2E2E2E2E2E2E2E2E2E2E2E2E2E2E2E2E2E2E2E2E2E2E2E2E2E2E2E2E2E2E2E2E2E2E2E2E2E2E2E2E2E2E2E2E2E2E2E2E2E2E2E2E2E2E2E2E2E2E2E2E2E2E2E2E2E2E2E2E2E2
310
E2E2E2E2E2E2E2E2E2E2E2E2E2E2E2F5E2E2F5E2E2F5F5E2E2F5E2F5E2E2E2E2E2E2E2E2E2E2E2E2E2E2E2E2E2E2E2E2E2E2E2E2E2E2E2E2E2E2E2E2E2E2E2E2E2E2E2E2E2E2E2E2E2E2E2E2E2E2E2E2E2E2E2E2E2E2E2E2E2E2E2E2E2E2E2E2E2E2E2E2E2E2E2E2E2E2E2E2E2E2E2E2E2E2E2E2E2E2E2E2E2E2E2F5E2E2F5
310
E2E2F5F5E2E2F5E2F5E2E2E2E2E2E2E2E2E2E2E2E2E2E2E2E2E2E2E2E2E2E2E2E2E2E2E2E2E2E2E2E2E2E2E2E2E2E2E2E2E2E2E2E2E2E2E2E2E2E2E2E2E2E2E2E2E2E2E2E2E2E2E2E2E2E2E2E2E2E2E2E2E2E2E2E2E2E2E2E2E2E2E2E2E2E2E2E2E2E2E2E2E2E2E2F5E2E2F5E2E2F5F5E2E2F5E2F5E2E2E2E2E2E2E2E2E2E2
310
E2E2E2E2E2E2E2E2E2E2E2E2E2E2E2E2E2E2E2E2E2E2E2E2E2E2E2E2E2E2E2E2E2E2E2E2E2E2E2E2E2E2E2E2E2E2E2E2E2E2E2E2E2E2E2E2E2E2E2E2E2E2E2E2E2E2E2E2E2E2E2E2E2E2E2E2E2E2E2E2E2E2E2E2E2F5E2E2F5E2E2F5F5E2E2E2E2F5E2E2E2E2E2E2E2E2E2E2E2E2E2E2E2E2E2E2E2E2E2E2E2E2E2E2E2E2E2
310
E2E2E2E2E2E2E2E2E2E2E2E2E2E2E2E2E2E2E2E2E2E2E2E2E2E2E2E2E2E2E2E2E2E2E2E2E2E2E2E2E2E2E2E2E2E2E2E2E2E2E2E2E2E2E2E2E2E2E2E2E2E2E2E2E2E2F5E2E2E2E2E2F5F5E2E2E2E2F5E2E2E2E2E2E2E2E2E2E2E2E2E2E2E2E2E2E2E2E2E2E2E2E2E2E2E2E2E2E2E2E2E2E2E2E2E2E2E2E2E2E2E2E2E2E2E2E2
310
E2E2E2E2E2E2E2E2E2E2E2E2E2E2E2E2E2E2E2E2E2E2E2E2E2E2E2E2E2E2E2E2E2E2E2E2E2E2E2E2E2E2E2E2E2E2E2F5E2E2E2E2E2F5F5E2E2E2E2F5E2E2E2E2E2E2E2E2E2E2E2E2E2E2E2E2E2E2E2E2E2E2E2E2E2E2E2E2E2E2E2E2E2E2E2E2E2E2E2E2E2E2E2E2E2E2E2E2E2E2E2E2E2E2E2E2E2E2E2E2E2E2E2E2E2E2E2
310
E2E2E2E2E2E2E2E2E2E2E2E2E2E2E2E2E2E2E2E2E2E2E2E2E2E2E2E2F5E2E2E2E2E2F5F5E2E2E2E2F5F5F5F5F5F5F5F5F5F5F5F5F5F5F5F5F5F5F5F5F5F5F5F5F5F5F5F5F5F5F5F5F5F5F5F5F5F5F5F5F5F5F5F5F5F5F5F5F5F5F5F5F5F5F5F5F5F5F5F5F5F5F5F5F5F5F5F5F5F5F5F5F5F5F5F5F5F5F5F5F5F5F5F5F5F5F5
310
F5F5F5F5F5F5F5F5F5F5E2E2E2E2E2F5F5E2E2E2E2E2E2E2E2E2E2E2E2E2E2E2E2E2E2E2E2E2E2E2E2E2E2E2E2E2E2E2E2E2E2E2E2E2E2E2E2E2E2E2E2E2E2E2E2E2E2E2E2E2E2E2E2E2E2E2E2E2E2E2E2E2E2E2E2E2E2E2E2E2E2E2E2E2E2E2E2E2E2E2E2E2E2E2E2E2E2E2E2E2E2E2E2E2E2E2E2E2E2E2E2E2E2F5F5E2E2
310
E2E2E2E2E2E2E2E2E2E2E2E2E2E2E2E2E2E2E2E2E2E2E2E2E2E2E2E2E2E2E2E2E2E2E2E2E2E2E2E2E2E2E2E2E2E2E2E2E2E2E2E2E2E2E2E2E2E2E2E2E2E2E2E2E2E2E2E2E2E2E2E2E2E2E2E2E2E2E2E2E2E2E2E2E2E2E2E2E2E2E2E2E2E2E2E2E2E2E2E2E2E2E2E2F5F5E2E2E2E2E2E2E2E2E2E2E2E2E2E2E2E2E2E2E2E2E2
310
E2E2E2E2E2E2E2E2E2E2E2E2E2E2E2E2E2E2E2E2E2E2E2E2E2E2E2E2E2E2E2E2E2E2E2E2E2E2E2E2E2E2E2E2E2E2E2E2E2E2E2E2E2E2E2E2E2E2E2E2E2E2E2E2E2E2E2E2E2E2E2E2E2E2E2E2E2E2E2E2E2E2E2E2E2F5F5E2E2E2E2E2E2E2E2E2E2E2E2E2E2E2E2E2E2E2E2E2E2E2E2E2E2E2E2E2E2E2E2E2E2E2E2E2E2E2E2
310
E2E2E2E2E2E2E2E2E2E2E2E2E2E2E2E2E2E2E2E2E2E2E2E2E2E2E2E2E2E2E2E2E2E2E2E2E2E2E2E2E2E2E2E2E2E2E2E2E2E2E2E2E2E2E2E2E2E2E2E2E2E2E2E2E2E2F5F5E2E2E2E2E2E2E2E2E2E2E2E2E2E2E2E2E2E2E2E2E2E2E2E2E2E2E2E2E2E2E2E2E2E2E2E2E2E2E2E2E2E2E2E2E2E2E2E2E2E2E2E2E2E2E2E2E2E2E2
310
E2E2E2E2E2E2E2E2E2E2E2E2E2E2E2E2E2E2E2E2E2E2E2E2E2E2E2E2E2E2E2E2E2E2E2E2E2E2E2E2E2E2E2E2E2E2E2F5F5E2E2F5E2E2E2E2E2E2E2E2E2E2E2E2E2E2E2E2E2E2E2E2E2E2E2E2E2E2E2E2E2E2E2E2E2E2E2E2E2E2E2E2E2E2E2E2E2E2E2E2E2E2E2E2E2E2E2E2E2E2E2E2E2E2E2E2E2E2E2E2E2E2E2E2E2E2E2
310
E2E2E2E2E2E2E2E2E2E2E2E2E2E2E2E2E2E2E2E2E2E2E2E2E2F5E2E2F5F5E2E2F5E2E2E2E2E2E2E2E2E2E2E2E2E2E2E2E2E2E2E2E2E2E2E2E2E2E2E2E2E2E2E2E2E2E2E2E2E2E2E2E2E2E2E2E2E2E2E2E2E2E2E2E2E2E2E2E2E2E2E2E2E2E2E2E2E2E2E2E2E2E2E2E2E2E2E2E2E2E2E2E2E2E2E2E2E2E2E2E2E2E2E2E2E2E2
310
E2E2E2E2E2E2F5E2E2F5F5E2E2F5E2E2E2E2E2E2E2E2E2E2E2E2E2E2E2E2E2E2E2E2E2E2E2E2E2E2E2E2E2E2E2E2E2E2E2E2E2E2E2E2E2E2E2E2E2E2E2E2E2E2E2E2E2E2E2E2E2E2E2E2E2E2E2E2E2E2E2E2E2E2E2E2E2E2E2E2E2E2E2E2E2E2E2E2E2E2E2E2E2E2E2E2E2E2E2E2E2E2E2E2F5E2E2F5F5E2E2F5E2E2E2E2E2
310
E2E2E2E2E2E2E2E2E2E2E2E2E2E2E2E2E2E2E2E2E2E2E2E2E2E2E2E2E2E2E2E2E2E2E2E2E2E2E2E2E2E2E2E2E2E2E2E2E2E2E2E2E2E2E2E2E2E2E2E2E2E2E2E2E2E2E2E2E2E2E2E2E2E2E2E2E2E2E2E2E2E2E2E2E2E2E2E2E2E2E2E2E2E2E2F5E2E2F5F5E2E2F5E2E2E2E2E2E2E2E2E2E2E2E2E2E2E2E2E2E2E2E2E2E2E2E2
310
E2E2E2E2E2E2E2E2E2E2E2E2E2E2E2E2E2E2E2E2E2E2E2E2E2E2E2E2E2E2E2E2E2E2E2E2E2E2E2E2E2E2E2E2E2E2E2E2E2E2E2E2E2E2E2E2E2E2E2E2E2E2E2E2E2E2E2E2E2E2E2E2E2E2E2E2F5E2E2F5F5E2E2F5E2E2E2E2E2E2E2E2E2E2E2E2E2E2E2E2E2E2E2E2E2E2E2E2E2E2E2E2E2E2E2E2E2E2E2E2E2E2E2E2E2E2E2
310
E2E2E2E2E2E2E2E2E2E2E2E2E2E2E2E2E2E2E2E2E2E2E2E2E2E2E2E2E2E2E2E2E2E2E2E2E2E2E2E2E2E2E2E2E2E2E2E2E2E2E2E2E2E2E2E2E2F5E2E2F5F5E2E2F5E2E2E2E2E2E2E2E2E2E2E2E2E2E2E2E2E2E2E2E2E2E2E2E2E2E2E2E2E2E2E2E2E2E2E2E2E2E2E2E2E2E2E2E2E2E2E2E2E2E2E2E2E2E2E2E2E2E2E2E2E2E2
310
E2E2E2E2E2E2E2E2E2E2E2E2E2E2E2E2E2E2E2E2E2E2E2E2E2E2E2E2E2E2E2E2E2E2E2E2E2E2F5E2E2F5F5E2E2F5E2E2E2E2E2E2E2E2E2E2E2E2E2E2E2E2E2E2E2E2E2E2E2E2E2E2E2E2E2E2E2E2E2E2E2E2E2E2E2E2E2E2E2E2E2E2E2E2E2E2E2E2E2E2E2E2E2E2E2E2E2E2E2E2E2E2E2E2E2E2E2E2E2E2E2E2E2E2E2E2E2
310
E2E2E2E2E2E2E2E2E2E2E2E2E2E2E2E2E2E2E2F5E2E2F5F5E2E2F5F5F5F5F5F5F5F5F5E2E2E2E2E2E2E2E2E2F5F5F5F5F5F5F5F5F5F5F5F5F5F5F5F5E2E2E2E2E2E2E2E2E2F5F5F5F5F5F5F5F5F5F5F5F5F5F5F5F5E2E2E2E2E2E2E2E2E2F5F5F5F5F5F5F5F5F5F5F5F5F5F5F5F5E2E2E2E2E2E2E2E2E2F5F5F5F5F5F5F5F5
310
F5E2E2F5F5E2E2E2E2E2E2E2E2E2E2E2E2E2E2E2E2E2E2E2E2E2E2E2E2E2E2E2E2E2E2E2E2E2E2E2E2E2E2E2E2E2E2E2E2E2E2E2E2E2E2E2E2E2E2E2E2E2E2E2E2E2E2E2E2E2E2E2E2E2E2E2E2E2E2E2E2E2E2E2E2E2E2E2E2E2E2E2E2E2E2E2E2E2E2E2E2E2E2E2E2E2E2E2E2E2E2F5F5E2E2E2E2E2E2E2E2E2E2E2E2E2E2
310
E2E2E2E2E2E2E2E2E2E2E2E2E2E2E2E2E2E2E2E2E2E2E2E2E2E2E2E2E2E2E2E2E2E2E2E2E2E2E2E2E2E2E2E2E2E2E2E2E2E2E2E2E2E2E2E2E2E2E2E2E2E2E2E2E2E2E2E2E2E2E2E2E2E2E2E2E2E2E2E2E2E2E2E2E2E2E2E2E2E2E2E2F5F5E2E2E2E2E2E2E2E2E2E2E2E2E2E2E2E2E2E2E2E2E2E2E2E2E2E2E2E2E2E2E2E2E2
310
E2E2E2E2E2E2E2E2E2E2E2E2E2E2E2E2E2E2E2E2E2E2E2E2E2E2E2E2E2E2E2E2E2E2E2E2E2E2E2E2E2E2E2E2E2E2E2E2E2E2E2E2E2E2E2E2E2E2E2E2E2E2E2E2E2E2E2E2E2E2E2E2E2F5F5F5F5F5F5F5F5F5F5F5F5F5F5F5F5F5F5F5F5F5F5F5F5F5F5F5F5F5F5F5F5F5F5F5F5F5F5F5F5F5F5F5F5F5F5F5F5F5F5F5F5F5F5
310
F5F5F5F5F5F5F5F5F5F5F5F5F5F5F5F5F5F5F5F5F5F5F5F5F5F5F5F5F5F5F5F5F5F5F5F5F5F5F5F5F5F5F5F5F5F5F5F5F5F5F5F5F5F5F5
  0
ENDSEC
  0
EOF
