  0
SECTION
  2
HEADER
  9
$ACADVER
  1
AC1021
  9
$ACADMAINTVER
 70
     1
  9
$DWGCODEPAGE
  3
ANSI_1252
  9
$LASTSAVEDBY
  1
RSutcliffe
  9
$INSBASE
 10
0.0
 20
0.0
 30
0.0
  9
$EXTMIN
 10
57.84731290730997
 20
111.3574666163069
 30
-0.0015258207003583
  9
$EXTMAX
 10
287.3642957541402
 20
275.2147829248429
 30
0.0000000349246037
  9
$LIMMIN
 10
0.0
 20
0.0
  9
$LIMMAX
 10
17.0
 20
11.0
  9
$ORTHOMODE
 70
     1
  9
$REGENMODE
 70
     1
  9
$FILLMODE
 70
     1
  9
$QTEXTMODE
 70
     0
  9
$MIRRTEXT
 70
     1
  9
$LTSCALE
 40
20.0
  9
$ATTMODE
 70
     1
  9
$TEXTSIZE
 40
2.0
  9
$TRACEWID
 40
0.05
  9
$TEXTSTYLE
  7
WEB PAGE
  9
$CLAYER
  8
0
  9
$CELTYPE
  6
BYLAYER
  9
$CECOLOR
 62
   256
  9
$CELTSCALE
 40
1.0
  9
$DISPSILH
 70
     0
  9
$DIMSCALE
 40
1.0
  9
$DIMASZ
 40
3.0
  9
$DIMEXO
 40
2.0
  9
$DIMDLI
 40
1.0
  9
$DIMRND
 40
0.0
  9
$DIMDLE
 40
0.0
  9
$DIMEXE
 40
1.0
  9
$DIMTP
 40
0.0
  9
$DIMTM
 40
0.0
  9
$DIMTXT
 40
1.75
  9
$DIMCEN
 40
1.0
  9
$DIMTSZ
 40
0.0
  9
$DIMTOL
 70
     0
  9
$DIMLIM
 70
     0
  9
$DIMTIH
 70
     1
  9
$DIMTOH
 70
     1
  9
$DIMSE1
 70
     0
  9
$DIMSE2
 70
     0
  9
$DIMTAD
 70
     0
  9
$DIMZIN
 70
     0
  9
$DIMBLK
  1

  9
$DIMASO
 70
     1
  9
$DIMSHO
 70
     1
  9
$DIMPOST
  1

  9
$DIMAPOST
  1

  9
$DIMALT
 70
     0
  9
$DIMALTD
 70
     2
  9
$DIMALTF
 40
25.4
  9
$DIMLFAC
 40
1.0
  9
$DIMTOFL
 70
     0
  9
$DIMTVP
 40
0.0
  9
$DIMTIX
 70
     0
  9
$DIMSOXD
 70
     0
  9
$DIMSAH
 70
     0
  9
$DIMBLK1
  1

  9
$DIMBLK2
  1

  9
$DIMSTYLE
  2
STANDARD
  9
$DIMCLRD
 70
     0
  9
$DIMCLRE
 70
     0
  9
$DIMCLRT
 70
     0
  9
$DIMTFAC
 40
1.0
  9
$DIMGAP
 40
1.0
  9
$DIMJUST
 70
     0
  9
$DIMSD1
 70
     0
  9
$DIMSD2
 70
     0
  9
$DIMTOLJ
 70
     1
  9
$DIMTZIN
 70
     0
  9
$DIMALTZ
 70
     0
  9
$DIMALTTZ
 70
     0
  9
$DIMUPT
 70
     0
  9
$DIMDEC
 70
     4
  9
$DIMTDEC
 70
     4
  9
$DIMALTU
 70
     2
  9
$DIMALTTD
 70
     2
  9
$DIMTXSTY
  7
WEB PAGE
  9
$DIMAUNIT
 70
     0
  9
$DIMADEC
 70
     0
  9
$DIMALTRND
 40
0.0
  9
$DIMAZIN
 70
     0
  9
$DIMDSEP
 70
    46
  9
$DIMATFIT
 70
     3
  9
$DIMFRAC
 70
     2
  9
$DIMLDRBLK
  1

  9
$DIMLUNIT
 70
     4
  9
$DIMLWD
 70
    -2
  9
$DIMLWE
 70
    -2
  9
$DIMTMOVE
 70
     0
  9
$DIMFXL
 40
1.0
  9
$DIMFXLON
 70
     0
  9
$DIMJOGANG
 40
0.7853981633974483
  9
$DIMTFILL
 70
     0
  9
$DIMTFILLCLR
 70
     0
  9
$DIMARCSYM
 70
     0
  9
$DIMLTYPE
  6

  9
$DIMLTEX1
  6

  9
$DIMLTEX2
  6

  9
$LUNITS
 70
     4
  9
$LUPREC
 70
     4
  9
$SKETCHINC
 40
0.1
  9
$FILLETRAD
 40
0.0
  9
$AUNITS
 70
     1
  9
$AUPREC
 70
     4
  9
$MENU
  1
acad
  9
$ELEVATION
 40
0.0
  9
$PELEVATION
 40
0.0
  9
$THICKNESS
 40
0.0
  9
$LIMCHECK
 70
     0
  9
$CHAMFERA
 40
0.0
  9
$CHAMFERB
 40
0.0
  9
$CHAMFERC
 40
0.0
  9
$CHAMFERD
 40
0.0
  9
$SKPOLY
 70
     0
  9
$TDCREATE
 40
2451029.636190972
  9
$TDUCREATE
 40
2451029.844524306
  9
$TDUPDATE
 40
2454099.401088321
  9
$TDUUPDATE
 40
2454099.609421655
  9
$TDINDWG
 40
3.1903519444
  9
$TDUSRTIMER
 40
3.1903519444
  9
$USRTIMER
 70
     1
  9
$ANGBASE
 50
0.0
  9
$ANGDIR
 70
     0
  9
$PDMODE
 70
     2
  9
$PDSIZE
 40
0.0
  9
$PLINEWID
 40
0.0
  9
$SPLFRAME
 70
     0
  9
$SPLINETYPE
 70
     6
  9
$SPLINESEGS
 70
     8
  9
$HANDSEED
  5
12E76
  9
$SURFTAB1
 70
     6
  9
$SURFTAB2
 70
     6
  9
$SURFTYPE
 70
     6
  9
$SURFU
 70
     6
  9
$SURFV
 70
     6
  9
$UCSBASE
  2

  9
$UCSNAME
  2

  9
$UCSORG
 10
0.0
 20
0.0
 30
0.0
  9
$UCSXDIR
 10
1.0
 20
0.0
 30
0.0
  9
$UCSYDIR
 10
0.0
 20
1.0
 30
0.0
  9
$UCSORTHOREF
  2

  9
$UCSORTHOVIEW
 70
     0
  9
$UCSORGTOP
 10
0.0
 20
0.0
 30
0.0
  9
$UCSORGBOTTOM
 10
0.0
 20
0.0
 30
0.0
  9
$UCSORGLEFT
 10
0.0
 20
0.0
 30
0.0
  9
$UCSORGRIGHT
 10
0.0
 20
0.0
 30
0.0
  9
$UCSORGFRONT
 10
0.0
 20
0.0
 30
0.0
  9
$UCSORGBACK
 10
0.0
 20
0.0
 30
0.0
  9
$PUCSBASE
  2

  9
$PUCSNAME
  2

  9
$PUCSORG
 10
0.0
 20
0.0
 30
0.0
  9
$PUCSXDIR
 10
1.0
 20
0.0
 30
0.0
  9
$PUCSYDIR
 10
0.0
 20
1.0
 30
0.0
  9
$PUCSORTHOREF
  2

  9
$PUCSORTHOVIEW
 70
     0
  9
$PUCSORGTOP
 10
0.0
 20
0.0
 30
0.0
  9
$PUCSORGBOTTOM
 10
0.0
 20
0.0
 30
0.0
  9
$PUCSORGLEFT
 10
0.0
 20
0.0
 30
0.0
  9
$PUCSORGRIGHT
 10
0.0
 20
0.0
 30
0.0
  9
$PUCSORGFRONT
 10
0.0
 20
0.0
 30
0.0
  9
$PUCSORGBACK
 10
0.0
 20
0.0
 30
0.0
  9
$USERI1
 70
     0
  9
$USERI2
 70
     0
  9
$USERI3
 70
     0
  9
$USERI4
 70
     0
  9
$USERI5
 70
     0
  9
$USERR1
 40
0.0
  9
$USERR2
 40
0.0
  9
$USERR3
 40
0.0
  9
$USERR4
 40
0.0
  9
$USERR5
 40
0.0
  9
$WORLDVIEW
 70
     1
  9
$SHADEDGE
 70
     3
  9
$SHADEDIF
 70
    70
  9
$TILEMODE
 70
     1
  9
$MAXACTVP
 70
    16
  9
$PINSBASE
 10
0.0
 20
0.0
 30
0.0
  9
$PLIMCHECK
 70
     0
  9
$PEXTMIN
 10
0.2789074086114169
 20
0.3127376949229017
 30
-0.0000000000000053
  9
$PEXTMAX
 10
7.881255520283946
 20
9.467095402952853
 30
0.0000000000000099
  9
$PLIMMIN
 10
-0.1566242155846284
 20
-0.1325595626902465
  9
$PLIMMAX
 10
8.34337554411948
 20
10.86744019701386
  9
$UNITMODE
 70
     0
  9
$VISRETAIN
 70
     0
  9
$PLINEGEN
 70
     0
  9
$PSLTSCALE
 70
     1
  9
$TREEDEPTH
 70
  3020
  9
$CMLSTYLE
  2
STANDARD
  9
$CMLJUST
 70
     0
  9
$CMLSCALE
 40
1.0
  9
$PROXYGRAPHICS
 70
     1
  9
$MEASUREMENT
 70
     0
  9
$CELWEIGHT
370
    -1
  9
$ENDCAPS
280
     0
  9
$JOINSTYLE
280
     0
  9
$LWDISPLAY
290
     0
  9
$INSUNITS
 70
     1
  9
$HYPERLINKBASE
  1

  9
$STYLESHEET
  1

  9
$XEDIT
290
     1
  9
$CEPSNTYPE
380
     0
  9
$PSTYLEMODE
290
     1
  9
$FINGERPRINTGUID
  2
{EED38BEA-5B6B-467F-90D5-C3127D1C881D}
  9
$VERSIONGUID
  2
{D7CE0CF5-CDA7-43F5-B5DE-6FB69F2FD2EE}
  9
$EXTNAMES
290
     1
  9
$PSVPSCALE
 40
0.0
  9
$OLESTARTUP
290
     0
  9
$SORTENTS
280
    96
  9
$INDEXCTL
280
     0
  9
$HIDETEXT
280
     0
  9
$XCLIPFRAME
290
     0
  9
$HALOGAP
280
     0
  9
$OBSCOLOR
 70
   257
  9
$OBSLTYPE
280
     0
  9
$INTERSECTIONDISPLAY
280
     0
  9
$INTERSECTIONCOLOR
 70
   257
  9
$DIMASSOC
280
     1
  9
$PROJECTNAME
  1

  9
$CAMERADISPLAY
290
     0
  9
$LENSLENGTH
 40
50.0
  9
$CAMERAHEIGHT
 40
0.0
  9
$STEPSPERSEC
 40
2.0
  9
$STEPSIZE
 40
6.0
  9
$3DDWFPREC
 40
2.0
  9
$PSOLWIDTH
 40
0.25
  9
$PSOLHEIGHT
 40
4.0
  9
$LOFTANG1
 40
1.570796326794896
  9
$LOFTANG2
 40
1.570796326794896
  9
$LOFTMAG1
 40
0.0
  9
$LOFTMAG2
 40
0.0
  9
$LOFTPARAM
 70
     7
  9
$LOFTNORMALS
280
     1
  9
$LATITUDE
 40
37.795
  9
$LONGITUDE
 40
-122.394
  9
$NORTHDIRECTION
 40
0.0
  9
$TIMEZONE
 70
 -8000
  9
$LIGHTGLYPHDISPLAY
280
     1
  9
$TILEMODELIGHTSYNCH
280
     1
  9
$CMATERIAL
347
12CDE
  9
$SOLIDHIST
280
     1
  9
$SHOWHIST
280
     1
  9
$DWFFRAME
280
     2
  9
$DGNFRAME
280
     0
  9
$REALWORLDSCALE
290
     1
  9
$INTERFERECOLOR
 62
     1
  9
$INTERFEREOBJVS
345
12CEB
  9
$INTERFEREVPVS
346
12CE8
  9
$CSHADOW
280
     0
  9
$SHADOWPLANELOCATION
 40
0.0
  0
ENDSEC
  0
SECTION
  2
CLASSES
  0
CLASS
  1
DICTIONARYVAR
  2
AcDbDictionaryVar
  3
ObjectDBX Classes
 90
        0
 91
        3
280
     0
281
     0
  0
CLASS
  1
ACDBDICTIONARYWDFLT
  2
AcDbDictionaryWithDefault
  3
ObjectDBX Classes
 90
        0
 91
        1
280
     0
281
     0
  0
CLASS
  1
MATERIAL
  2
AcDbMaterial
  3
ObjectDBX Classes
 90
     1024
 91
        3
280
     0
281
     0
  0
CLASS
  1
VISUALSTYLE
  2
AcDbVisualStyle
  3
ObjectDBX Classes
 90
     4095
 91
       16
280
     0
281
     0
  0
CLASS
  1
TABLESTYLE
  2
AcDbTableStyle
  3
ObjectDBX Classes
 90
     4095
 91
        1
280
     0
281
     0
  0
CLASS
  1
SORTENTSTABLE
  2
AcDbSortentsTable
  3
ObjectDBX Classes
 90
        0
 91
        1
280
     0
281
     0
  0
ENDSEC
  0
SECTION
  2
TABLES
  0
TABLE
  2
VPORT
  5
8
102
{ACAD_XDICTIONARY
360
12E10
102
}
330
0
100
AcDbSymbolTable
 70
     1
  0
VPORT
  5
12CDB
330
8
100
AcDbSymbolTableRecord
100
AcDbViewportTableRecord
  2
*Active
 70
     0
 10
0.0
 20
0.0
 11
1.0
 21
1.0
 12
172.6058043307251
 22
193.2861247705749
 13
0.0
 23
0.0
 14
1.0
 24
1.0
 15
0.25
 25
0.25
 16
0.0
 26
0.0
 36
1.0
 17
0.0
 27
0.0
 37
0.0
 40
165.1226237703779
 41
1.542525773195876
 42
50.0
 43
0.0
 44
0.0
 50
0.0
 51
0.0
 71
     0
 72
   100
 73
     1
 74
     0
 75
     0
 76
     0
 77
     0
 78
     0
281
     0
 65
     1
110
0.0
120
0.0
130
0.0
111
1.0
121
0.0
131
0.0
112
0.0
122
1.0
132
0.0
 79
     0
146
0.0
348
12CE7
 60
     3
 61
     5
292
     1
282
     1
141
0.0
142
0.0
 63
   250
421
  3355443
  0
ENDTAB
  0
TABLE
  2
LTYPE
  5
5
330
0
100
AcDbSymbolTable
 70
     2
  0
LTYPE
  5
11
330
5
100
AcDbSymbolTableRecord
100
AcDbLinetypeTableRecord
  2
BYBLOCK
 70
     0
  3

 72
    65
 73
     0
 40
0.0
  0
LTYPE
  5
12
330
5
100
AcDbSymbolTableRecord
100
AcDbLinetypeTableRecord
  2
BYLAYER
 70
     0
  3

 72
    65
 73
     0
 40
0.0
  0
LTYPE
  5
13
330
5
100
AcDbSymbolTableRecord
100
AcDbLinetypeTableRecord
  2
CONTINUOUS
 70
     0
  3
Solid line
 72
    65
 73
     0
 40
0.0
  0
LTYPE
  5
3A
330
5
100
AcDbSymbolTableRecord
100
AcDbLinetypeTableRecord
  2
HIDDEN
 70
     0
  3
__ __ __ __ __ __ __ __ __ __ __ __ __ __ __ __
 72
    65
 73
     2
 40
0.375
 49
0.25
 74
     0
 49
-0.125
 74
     0
  0
ENDTAB
  0
TABLE
  2
LAYER
  5
2
102
{ACAD_XDICTIONARY
360
12DF9
102
}
330
0
100
AcDbSymbolTable
 70
    16
  0
LAYER
  5
E
330
2
100
AcDbSymbolTableRecord
100
AcDbLayerTableRecord
  2
0
 70
     0
 62
     7
  6
CONTINUOUS
370
    -3
390
B579
347
12CE0
  0
LAYER
  5
41
330
2
100
AcDbSymbolTableRecord
100
AcDbLayerTableRecord
  2
BDR
 70
     0
 62
     7
  6
CONTINUOUS
370
    -3
390
B579
347
12CE0
  0
LAYER
  5
43
330
2
100
AcDbSymbolTableRecord
100
AcDbLayerTableRecord
  2
5
 70
     0
 62
     7
  6
CONTINUOUS
370
    -3
390
B579
347
12CE0
  0
LAYER
  5
44
330
2
100
AcDbSymbolTableRecord
100
AcDbLayerTableRecord
  2
AME_FRZ
 70
     0
 62
     7
  6
CONTINUOUS
370
    -3
390
B579
347
12CE0
  0
LAYER
  5
45
330
2
100
AcDbSymbolTableRecord
100
AcDbLayerTableRecord
  2
ASHADE
 70
     0
 62
     7
  6
CONTINUOUS
370
    -3
390
B579
347
12CE0
  0
LAYER
  5
B91F
330
2
100
AcDbSymbolTableRecord
100
AcDbLayerTableRecord
  2
HATCH
 70
     0
 62
     4
  6
CONTINUOUS
370
    -3
390
B579
347
12CE0
  0
LAYER
  5
F047
330
2
100
AcDbSymbolTableRecord
100
AcDbLayerTableRecord
  2
Defpoints
 70
     0
 62
     7
  6
CONTINUOUS
290
     0
370
    -3
390
B579
347
12CE0
  0
LAYER
  5
F086
330
2
100
AcDbSymbolTableRecord
100
AcDbLayerTableRecord
  2
SECTION JOINTS
 70
     0
 62
     7
  6
CONTINUOUS
370
    25
390
B579
347
12CE0
  0
LAYER
  5
111E5
330
2
100
AcDbSymbolTableRecord
100
AcDbLayerTableRecord
  2
TEXT
 70
     0
 62
     7
  6
CONTINUOUS
370
    25
390
B579
347
12CE0
  0
LAYER
  5
117C7
330
2
100
AcDbSymbolTableRecord
100
AcDbLayerTableRecord
  2
FRAMING
 70
     0
 62
     7
  6
CONTINUOUS
370
    25
390
B579
347
12CE0
  0
LAYER
  5
119C9
330
2
100
AcDbSymbolTableRecord
100
AcDbLayerTableRecord
  2
OUTSIDE
 70
     0
 62
     7
  6
CONTINUOUS
370
    -3
390
B579
347
12CE0
  0
LAYER
  5
11C8D
330
2
100
AcDbSymbolTableRecord
100
AcDbLayerTableRecord
  2
HIDDEN
 70
     0
 62
     2
  6
HIDDEN
370
    -3
390
B579
347
12CE0
  0
LAYER
  5
1210A
330
2
100
AcDbSymbolTableRecord
100
AcDbLayerTableRecord
  2
REVERSE-ANGLE
 70
     0
 62
     4
  6
CONTINUOUS
370
    -3
390
B579
347
12CE0
  0
LAYER
  5
1210C
330
2
100
AcDbSymbolTableRecord
100
AcDbLayerTableRecord
  2
JAMB
 70
     0
 62
     1
  6
CONTINUOUS
370
    -3
390
B579
347
12CE0
  0
LAYER
  5
1210D
330
2
100
AcDbSymbolTableRecord
100
AcDbLayerTableRecord
  2
UPPER-ANGLE
 70
     0
 62
     7
  6
CONTINUOUS
370
    -3
390
B579
347
12CE0
  0
ENDTAB
  0
TABLE
  2
STYLE
  5
3
330
0
100
AcDbSymbolTable
 70
     3
  0
STYLE
  5
F
330
3
100
AcDbSymbolTableRecord
100
AcDbTextStyleTableRecord
  2
STANDARD
 70
     0
 40
0.0
 41
1.0
 50
0.0
 71
     0
 42
2.0
  3
TIMES.TTF
  4

1001
ACAD
1000
Times New Roman
1071
       18
  0
STYLE
  5
1D21
330
3
100
AcDbSymbolTableRecord
100
AcDbTextStyleTableRecord
  2
SIMPLEX
 70
     0
 40
0.1
 41
0.6
 50
0.0
 71
     0
 42
0.1
  3
SIMPLEX.shx
  4

  0
STYLE
  5
10B94
330
3
100
AcDbSymbolTableRecord
100
AcDbTextStyleTableRecord
  2
WEB PAGE
 70
     0
 40
0.0
 41
1.0
 50
0.0
 71
     0
 42
2.0
  3
TIMES.TTF
  4

1001
ACAD
1000
Times New Roman
1071
       18
  0
ENDTAB
  0
TABLE
  2
VIEW
  5
6
330
0
100
AcDbSymbolTable
 70
     1
  0
ENDTAB
  0
TABLE
  2
UCS
  5
7
330
0
100
AcDbSymbolTable
 70
     0
  0
ENDTAB
  0
TABLE
  2
APPID
  5
9
330
0
100
AcDbSymbolTable
 70
     7
  0
APPID
  5
10
330
9
100
AcDbSymbolTableRecord
100
AcDbRegAppTableRecord
  2
ACAD
 70
     0
  0
APPID
  5
3F
330
9
100
AcDbSymbolTableRecord
100
AcDbRegAppTableRecord
  2
AME_SOL
 70
     0
  0
APPID
  5
40
330
9
100
AcDbSymbolTableRecord
100
AcDbRegAppTableRecord
  2
AVE_RENDER
 70
     0
  0
APPID
  5
71A7
330
9
100
AcDbSymbolTableRecord
100
AcDbRegAppTableRecord
  2
AVE_ENTITY_MATERIAL
 70
     0
  0
APPID
  5
71A8
330
9
100
AcDbSymbolTableRecord
100
AcDbRegAppTableRecord
  2
AVE_FINISH
 70
     0
  0
APPID
  5
71A9
330
9
100
AcDbSymbolTableRecord
100
AcDbRegAppTableRecord
  2
AVE_MATERIAL
 70
     0
  0
APPID
  5
71AA
330
9
100
AcDbSymbolTableRecord
100
AcDbRegAppTableRecord
  2
AVE_GLOBAL
 70
     0
  0
ENDTAB
  0
TABLE
  2
DIMSTYLE
  5
A
330
0
100
AcDbSymbolTable
 70
     1
100
AcDbDimStyleTable
 71
     1
340
190D
  0
DIMSTYLE
105
190D
102
{ACAD_REACTORS
330
11CDE
330
11CDF
330
11CE0
330
11CE1
330
11CFE
330
11EA8
330
1205D
330
11CFD
330
11D00
330
11D1F
330
1234D
102
}
330
A
100
AcDbSymbolTableRecord
100
AcDbDimStyleTableRecord
  2
STANDARD
 70
     0
 41
3.0
 42
2.0
 43
1.0
 44
1.0
140
1.75
141
1.0
147
1.0
276
     2
277
     4
340
10B94
  0
ENDTAB
  0
TABLE
  2
BLOCK_RECORD
  5
1
330
0
100
AcDbSymbolTable
 70
    24
  0
BLOCK_RECORD
  5
17
330
1
100
AcDbSymbolTableRecord
100
AcDbBlockTableRecord
  2
*MODEL_SPACE
340
B57C
 70
     0
280
     1
281
     0
  0
BLOCK_RECORD
  5
14
330
1
100
AcDbSymbolTableRecord
100
AcDbBlockTableRecord
  2
*PAPER_SPACE
340
B57D
 70
     0
280
     1
281
     0
  0
BLOCK_RECORD
  5
20
330
1
100
AcDbSymbolTableRecord
100
AcDbBlockTableRecord
  2
AME_NIL
340
0
102
{BLKREFS
331
3374
331
3E3C
102
}
 70
     0
280
     1
281
     0
  0
BLOCK_RECORD
  5
21
330
1
100
AcDbSymbolTableRecord
100
AcDbBlockTableRecord
  2
AME_SOL
340
0
102
{BLKREFS
331
3375
331
3E3D
102
}
 70
     0
280
     1
281
     0
  0
BLOCK_RECORD
  5
22
330
1
100
AcDbSymbolTableRecord
100
AcDbBlockTableRecord
  2
AVE_RENDER
340
0
102
{BLKREFS
331
3376
331
3377
331
3378
331
3E3E
331
3E3F
331
3E40
102
}
 70
     0
280
     1
281
     0
  0
BLOCK_RECORD
  5
11B1F
330
1
100
AcDbSymbolTableRecord
100
AcDbBlockTableRecord
  2
HA137
340
0
102
{BLKREFS
331
11CFB
102
}
 70
     0
280
     1
281
     0
  0
BLOCK_RECORD
  5
11D2A
330
1
100
AcDbSymbolTableRecord
100
AcDbBlockTableRecord
  2
*D4
340
0
 70
     0
280
     1
281
     0
  0
BLOCK_RECORD
  5
11D37
330
1
100
AcDbSymbolTableRecord
100
AcDbBlockTableRecord
  2
*D5
340
0
 70
     0
280
     1
281
     0
  0
BLOCK_RECORD
  5
11D44
330
1
100
AcDbSymbolTableRecord
100
AcDbBlockTableRecord
  2
*D6
340
0
 70
     0
280
     1
281
     0
  0
BLOCK_RECORD
  5
11D51
330
1
100
AcDbSymbolTableRecord
100
AcDbBlockTableRecord
  2
*D7
340
0
 70
     0
280
     1
281
     0
  0
BLOCK_RECORD
  5
11D5E
330
1
100
AcDbSymbolTableRecord
100
AcDbBlockTableRecord
  2
*D8
340
0
 70
     0
280
     1
281
     0
  0
BLOCK_RECORD
  5
11E29
330
1
100
AcDbSymbolTableRecord
100
AcDbBlockTableRecord
  2
15R-138TRK
340
0
102
{BLKREFS
331
11E48
102
}
 70
     0
280
     1
281
     0
  0
BLOCK_RECORD
  5
11E49
330
1
100
AcDbSymbolTableRecord
100
AcDbBlockTableRecord
  2
WD-9-3-38
340
0
102
{BLKREFS
331
11E5B
102
}
 70
     1
280
     1
281
     0
  0
BLOCK_RECORD
  5
11EA9
330
1
100
AcDbSymbolTableRecord
100
AcDbBlockTableRecord
  2
*D11
340
0
 70
     0
280
     1
281
     0
  0
BLOCK_RECORD
  5
12034
330
1
100
AcDbSymbolTableRecord
100
AcDbBlockTableRecord
  2
A$C2D8E259A
340
0
102
{BLKREFS
331
12045
102
}
 70
     0
280
     1
281
     0
  0
BLOCK_RECORD
  5
1205E
330
1
100
AcDbSymbolTableRecord
100
AcDbBlockTableRecord
  2
*D13
340
0
 70
     0
280
     1
281
     0
  0
BLOCK_RECORD
  5
1210F
330
1
100
AcDbSymbolTableRecord
100
AcDbBlockTableRecord
  2
2RA-129
340
0
102
{BLKREFS
331
12148
102
}
 70
     0
280
     1
281
     0
  0
BLOCK_RECORD
  5
12149
330
1
100
AcDbSymbolTableRecord
100
AcDbBlockTableRecord
  2
t-4
340
0
102
{BLKREFS
331
12158
102
}
 70
     0
280
     1
281
     0
  0
BLOCK_RECORD
  5
12159
330
1
100
AcDbSymbolTableRecord
100
AcDbBlockTableRecord
  2
t-5
340
0
102
{BLKREFS
331
12168
102
}
 70
     0
280
     1
281
     0
  0
BLOCK_RECORD
  5
12169
330
1
100
AcDbSymbolTableRecord
100
AcDbBlockTableRecord
  2
t-6
340
0
102
{BLKREFS
331
12178
102
}
 70
     0
280
     1
281
     0
  0
BLOCK_RECORD
  5
12179
330
1
100
AcDbSymbolTableRecord
100
AcDbBlockTableRecord
  2
t-7
340
0
102
{BLKREFS
331
12188
102
}
 70
     0
280
     1
281
     0
  0
BLOCK_RECORD
  5
12189
330
1
100
AcDbSymbolTableRecord
100
AcDbBlockTableRecord
  2
A$C5DFD450B
340
0
102
{BLKREFS
331
1219D
102
}
 70
     0
280
     1
281
     0
  0
BLOCK_RECORD
  5
1219C
330
1
100
AcDbSymbolTableRecord
100
AcDbBlockTableRecord
  2
RASPLT-10
340
0
102
{BLKREFS
331
121A0
102
}
 70
     0
280
     1
281
     0
  0
BLOCK_RECORD
  5
121E0
330
1
100
AcDbSymbolTableRecord
100
AcDbBlockTableRecord
  2
A$C3F6E7505
340
0
102
{BLKREFS
331
1221C
102
}
 70
     0
280
     1
281
     0
  0
BLOCK_RECORD
  5
1234E
330
1
100
AcDbSymbolTableRecord
100
AcDbBlockTableRecord
  2
*D22
340
0
 70
     0
280
     1
281
     0
  0
ENDTAB
  0
ENDSEC
  0
SECTION
  2
BLOCKS
  0
BLOCK
  5
57
330
17
100
AcDbEntity
  8
0
100
AcDbBlockBegin
  2
*MODEL_SPACE
 70
     0
 10
0.0
 20
0.0
 30
0.0
  3
*MODEL_SPACE
  1

  0
ENDBLK
  5
58
330
17
100
AcDbEntity
  8
0
100
AcDbBlockEnd
  0
BLOCK
  5
55
330
14
100
AcDbEntity
 67
     1
  8
0
100
AcDbBlockBegin
  2
*PAPER_SPACE
 70
     0
 10
0.0
 20
0.0
 30
0.0
  3
*PAPER_SPACE
  1

  0
ENDBLK
  5
56
330
14
100
AcDbEntity
 67
     1
  8
0
100
AcDbBlockEnd
  0
BLOCK
  5
91E
330
20
100
AcDbEntity
  8
0
100
AcDbBlockBegin
  2
AME_NIL
 70
     0
 10
0.0
 20
0.0
 30
0.0
  3
AME_NIL
  1
AME_NIL
  0
ENDBLK
  5
91F
330
20
100
AcDbEntity
  8
0
100
AcDbBlockEnd
  0
BLOCK
  5
920
330
21
100
AcDbEntity
  8
0
100
AcDbBlockBegin
  2
AME_SOL
 70
     0
 10
0.0
 20
0.0
 30
0.0
  3
AME_SOL
  1
AME_SOL
  0
ENDBLK
  5
921
330
21
100
AcDbEntity
  8
0
100
AcDbBlockEnd
  0
BLOCK
  5
922
330
22
100
AcDbEntity
  8
0
100
AcDbBlockBegin
  2
AVE_RENDER
 70
     0
 10
0.0
 20
0.0
 30
0.0
  3
AVE_RENDER
  1
AVE_RENDER
  0
ENDBLK
  5
923
330
22
100
AcDbEntity
  8
0
100
AcDbBlockEnd
  0
BLOCK
  5
11B51
330
11B1F
100
AcDbEntity
  8
0
100
AcDbBlockBegin
  2
HA137
 70
     0
 10
0.0
 20
0.0
 30
0.0
  3
HA137
  1

  0
LINE
  5
11B20
330
11B1F
100
AcDbEntity
  8
0
100
AcDbLine
 10
137.0
 20
0.0999999999999659
 30
0.0
 11
0.0
 21
0.0999999999999659
 31
0.0
  0
LINE
  5
11B21
330
11B1F
100
AcDbEntity
  8
0
100
AcDbLine
 10
0.0
 20
0.0
 30
0.0
 11
137.0
 21
0.0
 31
0.0
  0
LINE
  5
11B22
330
11B1F
100
AcDbEntity
  8
0
100
AcDbLine
 10
137.0
 20
1.5
 30
0.0
 11
0.0
 21
1.5
 31
0.0
  0
CIRCLE
  5
11B23
330
11B1F
100
AcDbEntity
  8
0
100
AcDbCircle
 10
3.5
 20
0.8100000000000022
 30
0.0
 40
0.195
  0
LINE
  5
11B24
330
11B1F
100
AcDbEntity
  8
0
100
AcDbLine
 10
0.0
 20
1.5
 30
0.0
 11
0.0
 21
0.0
 31
0.0
  0
ARC
  5
11B25
330
11B1F
100
AcDbEntity
  8
0
100
AcDbCircle
 10
1.240000000000009
 20
0.8100000000000022
 30
0.0
 40
0.195
100
AcDbArc
 50
270.0
 51
90.0
  0
CIRCLE
  5
11B26
330
11B1F
100
AcDbEntity
  8
0
100
AcDbCircle
 10
2.0
 20
0.8100000000000022
 30
0.0
 40
0.195
  0
CIRCLE
  5
11B27
330
11B1F
100
AcDbEntity
  8
0
100
AcDbCircle
 10
2.75
 20
0.8100000000000022
 30
0.0
 40
0.195
  0
ARC
  5
11B28
330
11B1F
100
AcDbEntity
  8
0
100
AcDbCircle
 10
0.3799999999998818
 20
0.8100000000000022
 30
0.0
 40
0.195
100
AcDbArc
 50
90.0
 51
270.0
  0
LINE
  5
11B29
330
11B1F
100
AcDbEntity
  8
0
100
AcDbLine
 10
0.3799999999998818
 20
1.004999999999995
 30
0.0
 11
1.240000000000009
 21
1.004999999999995
 31
0.0
  0
LINE
  5
11B2A
330
11B1F
100
AcDbEntity
  8
0
100
AcDbLine
 10
1.240000000000009
 20
0.6150000000000091
 30
0.0
 11
0.3799999999998818
 21
0.6150000000000091
 31
0.0
  0
LINE
  5
11B2B
330
11B1F
100
AcDbEntity
  8
0
100
AcDbLine
 10
8.228999999999928
 20
0.6150000000000091
 30
0.0
 11
8.650999999999953
 21
0.6150000000000091
 31
0.0
  0
LINE
  5
11B2C
330
11B1F
100
AcDbEntity
  8
0
100
AcDbLine
 10
8.228999999999928
 20
1.004999999999995
 30
0.0
 11
8.650999999999953
 21
1.004999999999995
 31
0.0
  0
CIRCLE
  5
11B2D
330
11B1F
100
AcDbEntity
  8
0
100
AcDbCircle
 10
7.43999999999994
 20
0.8100000000000022
 30
0.0
 40
0.195
  0
ARC
  5
11B2E
330
11B1F
100
AcDbEntity
  8
0
100
AcDbCircle
 10
8.228999999999928
 20
0.8100000000000022
 30
0.0
 40
0.195
100
AcDbArc
 50
90.0
 51
270.0
  0
ARC
  5
11B2F
330
11B1F
100
AcDbEntity
  8
0
100
AcDbCircle
 10
8.650999999999953
 20
0.8100000000000022
 30
0.0
 40
0.195
100
AcDbArc
 50
270.0
 51
90.0
  0
LINE
  5
11B30
330
11B1F
100
AcDbEntity
  8
0
100
AcDbLine
 10
5.288999999999987
 20
1.004999999999995
 30
0.0
 11
5.711000000000012
 21
1.004999999999995
 31
0.0
  0
LINE
  5
11B31
330
11B1F
100
AcDbEntity
  8
0
100
AcDbLine
 10
5.288999999999987
 20
0.6150000000000091
 30
0.0
 11
5.711000000000012
 21
0.6150000000000091
 31
0.0
  0
ARC
  5
11B32
330
11B1F
100
AcDbEntity
  8
0
100
AcDbCircle
 10
5.288999999999987
 20
0.8100000000000022
 30
0.0
 40
0.195
100
AcDbArc
 50
90.0
 51
270.0
  0
CIRCLE
  5
11B33
330
11B1F
100
AcDbEntity
  8
0
100
AcDbCircle
 10
4.5
 20
0.8100000000000022
 30
0.0
 40
0.195
  0
ARC
  5
11B34
330
11B1F
100
AcDbEntity
  8
0
100
AcDbCircle
 10
5.711000000000012
 20
0.8100000000000022
 30
0.0
 40
0.195
100
AcDbArc
 50
270.0
 51
90.0
  0
CIRCLE
  5
11B35
330
11B1F
100
AcDbEntity
  8
0
100
AcDbCircle
 10
6.879999999999881
 20
1.189999999999997
 30
0.0
 40
0.078
  0
CIRCLE
  5
11B36
330
11B1F
100
AcDbEntity
  8
0
100
AcDbCircle
 10
6.879999999999881
 20
0.5600000000000023
 30
0.0
 40
0.078
  0
CIRCLE
  5
11B37
330
11B1F
100
AcDbEntity
  8
0
100
AcDbCircle
 10
14.43999999999994
 20
0.8100000000000022
 30
0.0
 40
0.195
  0
CIRCLE
  5
11B38
330
11B1F
100
AcDbEntity
  8
0
100
AcDbCircle
 10
10.43999999999994
 20
0.8100000000000022
 30
0.0
 40
0.195
  0
CIRCLE
  5
11B39
330
11B1F
100
AcDbEntity
  8
0
100
AcDbCircle
 10
12.43999999999994
 20
0.8100000000000022
 30
0.0
 40
0.195
  0
CIRCLE
  5
11B3A
330
11B1F
100
AcDbEntity
  8
0
100
AcDbCircle
 10
16.18999999999994
 20
0.8100000000000022
 30
0.0
 40
0.1325
  0
CIRCLE
  5
11B3B
330
11B1F
100
AcDbEntity
  8
0
100
AcDbCircle
 10
21.18999999999994
 20
0.8100000000000022
 30
0.0
 40
0.1325
  0
ARC
  5
11B3C
330
11B1F
100
AcDbEntity
  8
0
100
AcDbCircle
 10
40.2924999999999
 20
0.8100000000000022
 30
0.0
 40
0.1325
100
AcDbArc
 50
270.0
 51
90.0
  0
LINE
  5
11B3D
330
11B1F
100
AcDbEntity
  8
0
100
AcDbLine
 10
40.08749999999998
 20
0.9424999999999954
 30
0.0
 11
40.2924999999999
 21
0.9424999999999954
 31
0.0
  0
LINE
  5
11B3E
330
11B1F
100
AcDbEntity
  8
0
100
AcDbLine
 10
40.2924999999999
 20
0.6775000000000091
 30
0.0
 11
40.08749999999998
 21
0.6775000000000091
 31
0.0
  0
ARC
  5
11B3F
330
11B1F
100
AcDbEntity
  8
0
100
AcDbCircle
 10
40.08749999999998
 20
0.8100000000000022
 30
0.0
 40
0.1325
100
AcDbArc
 50
90.0
 51
270.0
  0
ARC
  5
11B40
330
11B1F
100
AcDbEntity
  8
0
100
AcDbCircle
 10
64.08749999999997
 20
0.8100000000000022
 30
0.0
 40
0.1325
100
AcDbArc
 50
90.0
 51
270.0
  0
ARC
  5
11B41
330
11B1F
100
AcDbEntity
  8
0
100
AcDbCircle
 10
64.2924999999999
 20
0.8100000000000022
 30
0.0
 40
0.1325
100
AcDbArc
 50
270.0
 51
90.0
  0
LINE
  5
11B42
330
11B1F
100
AcDbEntity
  8
0
100
AcDbLine
 10
64.2924999999999
 20
0.6775000000000091
 30
0.0
 11
64.08749999999997
 21
0.6775000000000091
 31
0.0
  0
LINE
  5
11B43
330
11B1F
100
AcDbEntity
  8
0
100
AcDbLine
 10
64.08749999999997
 20
0.9424999999999954
 30
0.0
 11
64.2924999999999
 21
0.9424999999999954
 31
0.0
  0
ARC
  5
11B44
330
11B1F
100
AcDbEntity
  8
0
100
AcDbCircle
 10
88.29249999999978
 20
0.8100000000000022
 30
0.0
 40
0.1325
100
AcDbArc
 50
270.0
 51
90.0
  0
ARC
  5
11B45
330
11B1F
100
AcDbEntity
  8
0
100
AcDbCircle
 10
88.08749999999987
 20
0.8100000000000022
 30
0.0
 40
0.1325
100
AcDbArc
 50
90.0
 51
270.0
  0
LINE
  5
11B46
330
11B1F
100
AcDbEntity
  8
0
100
AcDbLine
 10
88.08749999999987
 20
0.9424999999999954
 30
0.0
 11
88.29249999999978
 21
0.9424999999999954
 31
0.0
  0
LINE
  5
11B47
330
11B1F
100
AcDbEntity
  8
0
100
AcDbLine
 10
88.29249999999978
 20
0.6775000000000091
 30
0.0
 11
88.08749999999987
 21
0.6775000000000091
 31
0.0
  0
LINE
  5
11B48
330
11B1F
100
AcDbEntity
  8
0
100
AcDbLine
 10
112.0875
 20
0.9424999999999954
 30
0.0
 11
112.2924999999999
 21
0.9424999999999954
 31
0.0
  0
LINE
  5
11B49
330
11B1F
100
AcDbEntity
  8
0
100
AcDbLine
 10
112.2924999999999
 20
0.6775000000000091
 30
0.0
 11
112.0875
 21
0.6775000000000091
 31
0.0
  0
ARC
  5
11B4A
330
11B1F
100
AcDbEntity
  8
0
100
AcDbCircle
 10
112.2924999999999
 20
0.8100000000000022
 30
0.0
 40
0.1325
100
AcDbArc
 50
270.0
 51
90.0
  0
ARC
  5
11B4B
330
11B1F
100
AcDbEntity
  8
0
100
AcDbCircle
 10
112.0875
 20
0.8100000000000022
 30
0.0
 40
0.1325
100
AcDbArc
 50
90.0
 51
270.0
  0
LINE
  5
11B4C
330
11B1F
100
AcDbEntity
  8
0
100
AcDbLine
 10
135.5874999999999
 20
0.9424999999999954
 30
0.0
 11
135.7925
 21
0.9424999999999954
 31
0.0
  0
LINE
  5
11B4D
330
11B1F
100
AcDbEntity
  8
0
100
AcDbLine
 10
135.7925
 20
0.6775000000000091
 30
0.0
 11
135.5874999999999
 21
0.6775000000000091
 31
0.0
  0
ARC
  5
11B4E
330
11B1F
100
AcDbEntity
  8
0
100
AcDbCircle
 10
135.7925
 20
0.8100000000000022
 30
0.0
 40
0.1325
100
AcDbArc
 50
270.0
 51
90.0
  0
LINE
  5
11B4F
330
11B1F
100
AcDbEntity
  8
0
100
AcDbLine
 10
137.0
 20
0.0
 30
0.0
 11
137.0
 21
1.5
 31
0.0
  0
ARC
  5
11B50
330
11B1F
100
AcDbEntity
  8
0
100
AcDbCircle
 10
135.5874999999999
 20
0.8100000000000022
 30
0.0
 40
0.1325
100
AcDbArc
 50
90.0
 51
270.0
  0
ENDBLK
  5
11B52
330
11B1F
100
AcDbEntity
  8
0
100
AcDbBlockEnd
  0
BLOCK
  5
11D35
330
11D2A
100
AcDbEntity
  8
0
100
AcDbBlockBegin
  2
*D4
 70
     1
 10
0.0
 20
0.0
 30
0.0
  3
*D4
  1

  0
LINE
  5
123C7
330
11D2A
100
AcDbEntity
  8
TEXT
 62
     0
370
    -2
100
AcDbLine
 10
132.2169295018095
 20
123.0362941793405
 30
0.0
 11
82.18114229960351
 21
123.0362941793405
 31
0.0
  0
LINE
  5
123C8
330
11D2A
100
AcDbEntity
  8
TEXT
 62
     0
370
    -2
100
AcDbLine
 10
139.5919295018095
 20
255.753848011267
 30
0.0
 11
82.18114229960354
 21
255.753848011267
 31
0.0
  0
LINE
  5
123C9
330
11D2A
100
AcDbEntity
  8
TEXT
 62
     0
370
    -2
100
AcDbLine
 10
83.1811422996035
 20
126.0362941793405
 30
0.0
 11
83.18114229960352
 21
199.1117775100808
 31
0.0
  0
LINE
  5
123CA
330
11D2A
100
AcDbEntity
  8
TEXT
 62
     0
370
    -2
100
AcDbLine
 10
83.18114229960354
 20
252.753848011267
 30
0.0
 11
83.18114229960352
 21
205.7784441767475
 31
0.0
  0
SOLID
  5
123CB
330
11D2A
100
AcDbEntity
  8
TEXT
 62
     0
100
AcDbTrace
 10
82.68114229960351
 20
126.0362941793405
 30
0.0
 11
83.68114229960351
 21
126.0362941793405
 31
0.0
 12
83.1811422996035
 22
123.0362941793405
 32
0.0
 13
83.1811422996035
 23
123.0362941793405
 33
0.0
  0
SOLID
  5
123CC
330
11D2A
100
AcDbEntity
  8
TEXT
 62
     0
100
AcDbTrace
 10
82.68114229960353
 20
252.753848011267
 30
0.0
 11
83.68114229960353
 21
252.753848011267
 31
0.0
 12
83.18114229960354
 22
255.753848011267
 32
0.0
 13
83.18114229960354
 23
255.753848011267
 33
0.0
  0
MTEXT
  5
123CD
330
11D2A
100
AcDbEntity
  8
TEXT
 62
     0
100
AcDbMText
 10
83.18114229960348
 20
202.4451108434142
 30
0.0
 40
1.75
 41
0.0
 46
0.0
 71
     5
 72
     1
  1
\A1;FLOOR TO\PSHAFT CENTER
  7
WEB PAGE
 73
     1
 44
1.0
  0
POINT
  5
123CE
330
11D2A
100
AcDbEntity
  8
Defpoints
 62
     0
100
AcDbPoint
 10
134.2169295018095
 20
123.0362941793405
 30
0.0
  0
POINT
  5
123CF
330
11D2A
100
AcDbEntity
  8
Defpoints
 62
     0
100
AcDbPoint
 10
141.5919295018095
 20
255.753848011267
 30
0.0
  0
POINT
  5
123D0
330
11D2A
100
AcDbEntity
  8
Defpoints
 62
     0
100
AcDbPoint
 10
83.18114229960354
 20
255.753848011267
 30
0.0
  0
ENDBLK
  5
11D36
330
11D2A
100
AcDbEntity
  8
0
100
AcDbBlockEnd
  0
BLOCK
  5
11D42
330
11D37
100
AcDbEntity
  8
0
100
AcDbBlockBegin
  2
*D5
 70
     1
 10
0.0
 20
0.0
 30
0.0
  3
*D5
  1

  0
LINE
  5
123D1
330
11D37
100
AcDbEntity
  8
TEXT
 62
     0
370
    -2
100
AcDbLine
 10
132.2169295018095
 20
123.0362941793405
 30
0.0
 11
67.17092211315902
 21
123.0362941793405
 31
0.0
  0
LINE
  5
123D2
330
11D37
100
AcDbEntity
  8
TEXT
 62
     0
370
    -2
100
AcDbLine
 10
136.2169295018095
 20
258.628848011267
 30
0.0
 11
67.17092211315905
 21
258.6288480112671
 31
0.0
  0
LINE
  5
123D3
330
11D37
100
AcDbEntity
  8
TEXT
 62
     0
370
    -2
100
AcDbLine
 10
68.17092211315902
 20
126.0362941793405
 30
0.0
 11
68.17092211315904
 21
177.7465017820888
 31
0.0
  0
LINE
  5
123D4
330
11D37
100
AcDbEntity
  8
TEXT
 62
     0
370
    -2
100
AcDbLine
 10
68.17092211315905
 20
255.628848011267
 30
0.0
 11
68.17092211315904
 21
184.4131684487555
 31
0.0
  0
SOLID
  5
123D5
330
11D37
100
AcDbEntity
  8
TEXT
 62
     0
100
AcDbTrace
 10
67.67092211315902
 20
126.0362941793405
 30
0.0
 11
68.67092211315902
 21
126.0362941793405
 31
0.0
 12
68.17092211315902
 22
123.0362941793405
 32
0.0
 13
68.17092211315902
 23
123.0362941793405
 33
0.0
  0
SOLID
  5
123D6
330
11D37
100
AcDbEntity
  8
TEXT
 62
     0
100
AcDbTrace
 10
67.67092211315905
 20
255.628848011267
 30
0.0
 11
68.67092211315905
 21
255.628848011267
 31
0.0
 12
68.17092211315905
 22
258.6288480112671
 32
0.0
 13
68.17092211315905
 23
258.6288480112671
 33
0.0
  0
MTEXT
  5
123D7
330
11D37
100
AcDbEntity
  8
TEXT
 62
     0
100
AcDbMText
 10
68.17092211315901
 20
181.0798351154221
 30
0.0
 40
1.75
 41
0.0
 46
0.0
 71
     5
 72
     1
  1
\A1;MINIMUM\PCEILING HEIGHT
  7
WEB PAGE
 73
     1
 44
1.0
  0
POINT
  5
123D8
330
11D37
100
AcDbEntity
  8
Defpoints
 62
     0
100
AcDbPoint
 10
134.2169295018095
 20
123.0362941793405
 30
0.0
  0
POINT
  5
123D9
330
11D37
100
AcDbEntity
  8
Defpoints
 62
     0
100
AcDbPoint
 10
138.2169295018095
 20
258.628848011267
 30
0.0
  0
POINT
  5
123DA
330
11D37
100
AcDbEntity
  8
Defpoints
 62
     0
100
AcDbPoint
 10
68.17092211315905
 20
258.6288480112671
 30
0.0
  0
ENDBLK
  5
11D43
330
11D37
100
AcDbEntity
  8
0
100
AcDbBlockEnd
  0
BLOCK
  5
11D4F
330
11D44
100
AcDbEntity
  8
0
100
AcDbBlockBegin
  2
*D6
 70
     1
 10
0.0
 20
0.0
 30
0.0
  3
*D6
  1

  0
LINE
  5
1232A
330
11D44
100
AcDbEntity
  8
TEXT
 62
     0
370
    -2
100
AcDbLine
 10
207.4861505668555
 20
123.0362941793405
 30
0.0
 11
174.0501848453942
 21
123.0362941793405
 31
0.0
  0
LINE
  5
1232B
330
11D44
100
AcDbEntity
  8
TEXT
 62
     0
370
    -2
100
AcDbLine
 10
144.7782259511818
 20
235.0280241008174
 30
0.0
 11
176.0501848453942
 21
235.0280241008174
 31
0.0
  0
LINE
  5
1232C
330
11D44
100
AcDbEntity
  8
TEXT
 62
     0
370
    -2
100
AcDbLine
 10
175.0501848453941
 20
126.0362941793405
 30
0.0
 11
175.0501848453941
 21
171.379062324093
 31
0.0
  0
LINE
  5
1232D
330
11D44
100
AcDbEntity
  8
TEXT
 62
     0
370
    -2
100
AcDbLine
 10
175.0501848453942
 20
232.0280241008175
 30
0.0
 11
175.0501848453941
 21
178.379062324093
 31
0.0
  0
SOLID
  5
1232E
330
11D44
100
AcDbEntity
  8
TEXT
 62
     0
100
AcDbTrace
 10
174.5501848453941
 20
126.0362941793405
 30
0.0
 11
175.5501848453941
 21
126.0362941793405
 31
0.0
 12
175.0501848453941
 22
123.0362941793405
 32
0.0
 13
175.0501848453941
 23
123.0362941793405
 33
0.0
  0
SOLID
  5
1232F
330
11D44
100
AcDbEntity
  8
TEXT
 62
     0
100
AcDbTrace
 10
174.5501848453942
 20
232.0280241008175
 30
0.0
 11
175.5501848453942
 21
232.0280241008175
 31
0.0
 12
175.0501848453942
 22
235.0280241008174
 32
0.0
 13
175.0501848453942
 23
235.0280241008174
 33
0.0
  0
MTEXT
  5
12330
330
11D44
100
AcDbEntity
  8
TEXT
 62
     0
100
AcDbMText
 10
175.0501848453941
 20
174.879062324093
 30
0.0
 40
1.75
 41
0.0
 46
0.0
 71
     5
 72
     1
  1
\A1;VERTICAL TRACK\PDOOR HEIGHT-8"
  7
WEB PAGE
 73
     1
 44
1.0
  0
POINT
  5
12331
330
11D44
100
AcDbEntity
  8
Defpoints
 62
     0
100
AcDbPoint
 10
209.4861505668555
 20
123.0362941793405
 30
0.0
  0
POINT
  5
12332
330
11D44
100
AcDbEntity
  8
Defpoints
 62
     0
100
AcDbPoint
 10
142.7782259511818
 20
235.0280241008174
 30
0.0
  0
POINT
  5
12333
330
11D44
100
AcDbEntity
  8
Defpoints
 62
     0
100
AcDbPoint
 10
175.0501848453942
 20
235.0280241008174
 30
0.0
  0
ENDBLK
  5
11D50
330
11D44
100
AcDbEntity
  8
0
100
AcDbBlockEnd
  0
BLOCK
  5
11D5C
330
11D51
100
AcDbEntity
  8
0
100
AcDbBlockBegin
  2
*D7
 70
     1
 10
0.0
 20
0.0
 30
0.0
  3
*D7
  1

  0
LINE
  5
1229B
330
11D51
100
AcDbEntity
  8
TEXT
 62
     0
370
    -2
100
AcDbLine
 10
132.2169295018095
 20
243.0362941793405
 30
0.0
 11
117.0575413775432
 21
243.0362941793405
 31
0.0
  0
LINE
  5
1229C
330
11D51
100
AcDbEntity
  8
TEXT
 62
     0
370
    -2
100
AcDbLine
 10
132.2169295018095
 20
123.0362941793405
 30
0.0
 11
117.0575413775432
 21
123.0362941793405
 31
0.0
  0
LINE
  5
1229D
330
11D51
100
AcDbEntity
  8
TEXT
 62
     0
370
    -2
100
AcDbLine
 10
118.0575413775432
 20
240.0362941793405
 30
0.0
 11
118.0575413775432
 21
186.3696275126739
 31
0.0
  0
LINE
  5
1229E
330
11D51
100
AcDbEntity
  8
TEXT
 62
     0
370
    -2
100
AcDbLine
 10
118.0575413775432
 20
126.0362941793405
 30
0.0
 11
118.0575413775432
 21
179.7029608460072
 31
0.0
  0
SOLID
  5
1229F
330
11D51
100
AcDbEntity
  8
TEXT
 62
     0
100
AcDbTrace
 10
117.5575413775432
 20
240.0362941793405
 30
0.0
 11
118.5575413775432
 21
240.0362941793405
 31
0.0
 12
118.0575413775432
 22
243.0362941793405
 32
0.0
 13
118.0575413775432
 23
243.0362941793405
 33
0.0
  0
SOLID
  5
122A0
330
11D51
100
AcDbEntity
  8
TEXT
 62
     0
100
AcDbTrace
 10
117.5575413775432
 20
126.0362941793405
 30
0.0
 11
118.5575413775432
 21
126.0362941793405
 31
0.0
 12
118.0575413775432
 22
123.0362941793405
 32
0.0
 13
118.0575413775432
 23
123.0362941793405
 33
0.0
  0
MTEXT
  5
122A1
330
11D51
100
AcDbEntity
  8
TEXT
 62
     0
100
AcDbMText
 10
118.0575413775432
 20
183.0362941793405
 30
0.0
 40
1.75
 41
0.0
 46
0.0
 71
     5
 72
     1
  1
\A1;OPENING\PHEIGHT
  7
WEB PAGE
 73
     1
 44
1.0
  0
POINT
  5
122A2
330
11D51
100
AcDbEntity
  8
Defpoints
 62
     0
100
AcDbPoint
 10
134.2169295018095
 20
243.0362941793405
 30
0.0
  0
POINT
  5
122A3
330
11D51
100
AcDbEntity
  8
Defpoints
 62
     0
100
AcDbPoint
 10
134.2169295018095
 20
123.0362941793405
 30
0.0
  0
POINT
  5
122A4
330
11D51
100
AcDbEntity
  8
Defpoints
 62
     0
100
AcDbPoint
 10
118.0575413775432
 20
123.0362941793405
 30
0.0
  0
ENDBLK
  5
11D5D
330
11D51
100
AcDbEntity
  8
0
100
AcDbBlockEnd
  0
BLOCK
  5
11D6A
330
11D5E
100
AcDbEntity
  8
0
100
AcDbBlockBegin
  2
*D8
 70
     1
 10
0.0
 20
0.0
 30
0.0
  3
*D8
  1

  0
LINE
  5
122A5
330
11D5E
100
AcDbEntity
  8
TEXT
 62
     0
370
    -2
100
AcDbLine
 10
132.2169295018095
 20
243.0362941793405
 30
0.0
 11
117.0575413775432
 21
243.0362941793405
 31
0.0
  0
LINE
  5
122A6
330
11D5E
100
AcDbEntity
  8
TEXT
 62
     0
370
    -2
100
AcDbLine
 10
136.2169295018095
 20
258.628848011267
 30
0.0
 11
117.0575413775432
 21
258.6288480112671
 31
0.0
  0
LINE
  5
122A7
330
11D5E
100
AcDbEntity
  8
TEXT
 62
     0
370
    -2
100
AcDbLine
 10
118.0575413775432
 20
246.0362941793405
 30
0.0
 11
118.0575413775432
 21
255.628848011267
 31
0.0
  0
LINE
  5
122A8
330
11D5E
100
AcDbEntity
  8
TEXT
 62
     0
370
    -2
100
AcDbLine
 10
118.0575413775432
 20
258.6288480112671
 30
0.0
 11
118.0575413775432
 21
272.3008621425022
 31
0.0
  0
LINE
  5
122A9
330
11D5E
100
AcDbEntity
  8
TEXT
 62
     0
370
    -2
100
AcDbLine
 10
118.0575413775432
 20
272.3008621425022
 30
0.0
 11
121.0575413775432
 21
272.3008621425022
 31
0.0
  0
SOLID
  5
122AA
330
11D5E
100
AcDbEntity
  8
TEXT
 62
     0
100
AcDbTrace
 10
117.5575413775432
 20
246.0362941793405
 30
0.0
 11
118.5575413775432
 21
246.0362941793405
 31
0.0
 12
118.0575413775432
 22
243.0362941793405
 32
0.0
 13
118.0575413775432
 23
243.0362941793405
 33
0.0
  0
SOLID
  5
122AB
330
11D5E
100
AcDbEntity
  8
TEXT
 62
     0
100
AcDbTrace
 10
117.5575413775432
 20
255.628848011267
 30
0.0
 11
118.5575413775432
 21
255.628848011267
 31
0.0
 12
118.0575413775432
 22
258.6288480112671
 32
0.0
 13
118.0575413775432
 23
258.6288480112671
 33
0.0
  0
MTEXT
  5
122AC
330
11D5E
100
AcDbEntity
  8
TEXT
 62
     0
100
AcDbMText
 10
128.9325413775432
 20
272.3008621425022
 30
0.0
 40
1.75
 41
0.0
 46
0.0
 71
     5
 72
     1
  1
\A1;MINIMUM\PHEADROOM
  7
WEB PAGE
 73
     1
 44
1.0
  0
POINT
  5
122AD
330
11D5E
100
AcDbEntity
  8
Defpoints
 62
     0
100
AcDbPoint
 10
134.2169295018095
 20
243.0362941793405
 30
0.0
  0
POINT
  5
122AE
330
11D5E
100
AcDbEntity
  8
Defpoints
 62
     0
100
AcDbPoint
 10
138.2169295018095
 20
258.628848011267
 30
0.0
  0
POINT
  5
122AF
330
11D5E
100
AcDbEntity
  8
Defpoints
 62
     0
100
AcDbPoint
 10
118.0575413775432
 20
258.6288480112671
 30
0.0
  0
ENDBLK
  5
11D6B
330
11D5E
100
AcDbEntity
  8
0
100
AcDbBlockEnd
  0
BLOCK
  5
11E46
330
11E29
100
AcDbEntity
  8
0
100
AcDbBlockBegin
  2
15R-138TRK
 70
     0
 10
0.0
 20
0.0
 30
0.0
  3
15R-138TRK
  1

  0
LINE
  5
11E2A
330
11E29
100
AcDbEntity
  8
0
  6
HIDDEN
100
AcDbLine
 10
114.1051810554323
 20
7.450154694662671
 30
0.0
 11
-6.3373817739552
 21
7.450154694662671
 31
0.0
  0
LINE
  5
11E2B
330
11E29
100
AcDbEntity
  8
0
100
AcDbLine
 10
114.1051810554324
 20
6.850154694662649
 30
0.0
 11
-6.3373817739552
 21
6.850154694662649
 31
0.0
  0
LINE
  5
11E2C
330
11E29
100
AcDbEntity
  8
0
100
AcDbLine
 10
114.1051810554324
 20
8.950154694662671
 30
0.0
 11
-6.3373817739552
 21
8.950154694662671
 31
0.0
  0
ARC
  5
11E2D
330
11E29
100
AcDbEntity
  8
0
  6
HIDDEN
100
AcDbCircle
 10
-6.3373817739552
 20
-8.609845305337387
 30
0.0
 40
16.06
100
AcDbArc
 50
90.0
 51
179.0210950958157
  0
ARC
  5
11E2E
330
11E29
100
AcDbEntity
  8
0
100
AcDbCircle
 10
-6.3373817739552
 20
-8.609845305337387
 30
0.0
 40
15.46
100
AcDbArc
 50
90.0
 51
178.8881104285096
  0
ARC
  5
11E2F
330
11E29
100
AcDbEntity
  8
0
100
AcDbCircle
 10
-6.3373817739552
 20
-8.609845305337387
 30
0.0
 40
17.56
100
AcDbArc
 50
90.0
 51
179.0210950958157
  0
CIRCLE
  5
11E30
330
11E29
100
AcDbEntity
  8
0
100
AcDbCircle
 10
-22.70481894456754
 20
-7.709845305337353
 30
0.0
 40
0.136
  0
CIRCLE
  5
11E31
330
11E29
100
AcDbEntity
  8
0
100
AcDbCircle
 10
-23.45481894456753
 20
-7.709845305337353
 30
0.0
 40
0.136
  0
LINE
  5
11E32
330
11E29
100
AcDbEntity
  8
0
100
AcDbLine
 10
-21.79447076250665
 20
-8.309845305337319
 30
0.0
 11
-23.89481894456759
 21
-8.309845305337319
 31
0.0
  0
CIRCLE
  5
11E33
330
11E29
100
AcDbEntity
  8
0
100
AcDbCircle
 10
-8.991068944567587
 20
8.140154694662612
 30
0.0
 40
0.25
  0
CIRCLE
  5
11E34
330
11E29
100
AcDbEntity
  8
0
100
AcDbCircle
 10
-10.05106894456759
 20
8.140154694662612
 30
0.0
 40
0.136
  0
CIRCLE
  5
11E35
330
11E29
100
AcDbEntity
  8
0
100
AcDbCircle
 10
-5.051068944567589
 20
8.140154694662612
 30
0.0
 40
0.136
  0
CIRCLE
  5
11E36
330
11E29
100
AcDbEntity
  8
0
100
AcDbCircle
 10
13.94893105543241
 20
8.140154694662612
 30
0.0
 40
0.136
  0
CIRCLE
  5
11E37
330
11E29
100
AcDbEntity
  8
0
100
AcDbCircle
 10
13.94893105543241
 20
8.140154694662612
 30
0.0
 40
0.136
  0
CIRCLE
  5
11E38
330
11E29
100
AcDbEntity
  8
0
100
AcDbCircle
 10
37.94893105543241
 20
8.140154694662612
 30
0.0
 40
0.136
  0
CIRCLE
  5
11E39
330
11E29
100
AcDbEntity
  8
0
100
AcDbCircle
 10
37.94893105543241
 20
8.140154694662612
 30
0.0
 40
0.136
  0
CIRCLE
  5
11E3A
330
11E29
100
AcDbEntity
  8
0
100
AcDbCircle
 10
61.94893105543241
 20
8.140154694662612
 30
0.0
 40
0.136
  0
CIRCLE
  5
11E3B
330
11E29
100
AcDbEntity
  8
0
100
AcDbCircle
 10
61.94893105543241
 20
8.140154694662612
 30
0.0
 40
0.136
  0
CIRCLE
  5
11E3C
330
11E29
100
AcDbEntity
  8
0
100
AcDbCircle
 10
78.44893105543241
 20
8.140154694662612
 30
0.0
 40
0.136
  0
CIRCLE
  5
11E3D
330
11E29
100
AcDbEntity
  8
0
100
AcDbCircle
 10
78.44893105543241
 20
8.140154694662612
 30
0.0
 40
0.136
  0
CIRCLE
  5
11E3E
330
11E29
100
AcDbEntity
  8
0
100
AcDbCircle
 10
85.9489310554324
 20
8.140154694662612
 30
0.0
 40
0.136
  0
CIRCLE
  5
11E3F
330
11E29
100
AcDbEntity
  8
0
100
AcDbCircle
 10
85.9489310554324
 20
8.140154694662612
 30
0.0
 40
0.136
  0
CIRCLE
  5
11E40
330
11E29
100
AcDbEntity
  8
0
100
AcDbCircle
 10
112.8551810554324
 20
8.140154694662726
 30
0.0
 40
0.2075
  0
CIRCLE
  5
11E41
330
11E29
100
AcDbEntity
  8
0
100
AcDbCircle
 10
110.1989310554325
 20
8.140154694662612
 30
0.0
 40
0.136
  0
CIRCLE
  5
11E42
330
11E29
100
AcDbEntity
  8
0
100
AcDbCircle
 10
110.1989310554325
 20
8.140154694662612
 30
0.0
 40
0.136
  0
LINE
  5
11E43
330
11E29
100
AcDbEntity
  8
0
100
AcDbLine
 10
114.1051810554324
 20
6.850154694662649
 30
0.0
 11
114.1051810554324
 21
8.950154694662671
 31
0.0
  0
CIRCLE
  5
11E44
330
11E29
100
AcDbEntity
  8
0
100
AcDbCircle
 10
113.5051810554324
 20
8.510154694662674
 30
0.0
 40
0.136
  0
CIRCLE
  5
11E45
330
11E29
100
AcDbEntity
  8
0
100
AcDbCircle
 10
113.5051810554324
 20
7.760154694662674
 30
0.0
 40
0.136
  0
ENDBLK
  5
11E47
330
11E29
100
AcDbEntity
  8
0
100
AcDbBlockEnd
  0
BLOCK
  5
11E59
330
11E49
100
AcDbEntity
  8
0
100
AcDbBlockBegin
  2
WD-9-3-38
 70
     0
 10
0.0
 20
0.0
 30
0.0
  3
WD-9-3-38
  1

  0
LINE
  5
11E4A
330
11E49
100
AcDbEntity
  8
0
100
AcDbLine
 10
0.0
 20
4.25
 30
0.0
 11
0.0
 21
0.0
 31
0.0
  0
LINE
  5
11E4B
330
11E49
100
AcDbEntity
  8
0
100
AcDbLine
 10
5.0
 20
4.25
 30
0.0
 11
5.0
 21
-2.0
 31
0.0
  0
LINE
  5
11E4C
330
11E49
100
AcDbEntity
  8
0
100
AcDbLine
 10
0.0
 20
0.0
 30
0.0
 11
2.25
 21
-0.0000000000000142
 31
0.0
  0
LINE
  5
11E4D
330
11E49
100
AcDbEntity
  8
0
100
AcDbLine
 10
4.4375
 20
-1.462500000000005
 30
0.0
 11
3.1875
 21
-1.462500000000005
 31
0.0
  0
LINE
  5
11E4E
330
11E49
100
AcDbEntity
  8
0
100
AcDbLine
 10
3.1875
 20
-1.837500000000005
 30
0.0
 11
4.4375
 21
-1.837500000000005
 31
0.0
  0
LINE
  5
11E4F
330
11E49
100
AcDbEntity
  8
0
100
AcDbLine
 10
5.0
 20
-2.0
 30
0.0
 11
2.25
 21
-2.0
 31
0.0
  0
LINE
  5
11E50
330
11E49
100
AcDbEntity
  8
0
100
AcDbLine
 10
2.25
 20
-2.0
 30
0.0
 11
2.25
 21
-1.837500000000019
 31
0.0
  0
LINE
  5
11E51
330
11E49
100
AcDbEntity
  8
0
100
AcDbLine
 10
2.25
 20
-1.462500000000019
 30
0.0
 11
2.25
 21
-0.0000000000000142
 31
0.0
  0
LINE
  5
11E52
330
11E49
100
AcDbEntity
  8
0
100
AcDbLine
 10
2.5
 20
-1.462500000000005
 30
0.0
 11
2.25
 21
-1.462500000000019
 31
0.0
  0
LINE
  5
11E53
330
11E49
100
AcDbEntity
  8
0
100
AcDbLine
 10
2.25
 20
-1.837500000000019
 30
0.0
 11
2.5
 21
-1.837500000000005
 31
0.0
  0
ARC
  5
11E54
330
11E49
100
AcDbEntity
  8
0
100
AcDbCircle
 10
3.1875
 20
-1.650000000000005
 30
0.0
 40
0.1875
100
AcDbArc
 50
90.0
 51
270.0
  0
ARC
  5
11E55
330
11E49
100
AcDbEntity
  8
0
100
AcDbCircle
 10
2.5
 20
-1.650000000000005
 30
0.0
 40
0.1875
100
AcDbArc
 50
270.0
 51
90.0
  0
ARC
  5
11E56
330
11E49
100
AcDbEntity
  8
0
100
AcDbCircle
 10
4.4375
 20
-1.650000000000005
 30
0.0
 40
0.1875
100
AcDbArc
 50
270.0
 51
90.0
  0
LINE
  5
11E57
330
11E49
100
AcDbEntity
  8
0
100
AcDbLine
 10
0.0
 20
4.25
 30
0.0
 11
5.0
 21
4.25
 31
0.0
  0
CIRCLE
  5
11E58
330
11E49
100
AcDbEntity
  8
0
100
AcDbCircle
 10
3.375
 20
2.599999999999994
 30
0.0
 40
0.5
  0
ENDBLK
  5
11E5A
330
11E49
100
AcDbEntity
  8
0
100
AcDbBlockEnd
  0
BLOCK
  5
11EB4
330
11EA9
100
AcDbEntity
  8
0
100
AcDbBlockBegin
  2
*D11
 70
     1
 10
0.0
 20
0.0
 30
0.0
  3
*D11
  1

  0
LINE
  5
122B0
330
11EA9
100
AcDbEntity
  8
TEXT
 62
     0
370
    -2
100
AcDbLine
 10
140.6533828685875
 20
237.0538480112669
 30
0.0
 11
140.6533828685875
 21
243.5301141835794
 31
0.0
  0
LINE
  5
122B1
330
11EA9
100
AcDbEntity
  8
TEXT
 62
     0
370
    -2
100
AcDbLine
 10
278.6533828685875
 20
248.213848011267
 30
0.0
 11
278.6533828685875
 21
241.5301141835794
 31
0.0
  0
LINE
  5
122B2
330
11EA9
100
AcDbEntity
  8
TEXT
 62
     0
370
    -2
100
AcDbLine
 10
143.6533828685875
 20
242.5301141835794
 30
0.0
 11
185.3617162019208
 21
242.5301141835794
 31
0.0
  0
LINE
  5
122B3
330
11EA9
100
AcDbEntity
  8
TEXT
 62
     0
370
    -2
100
AcDbLine
 10
275.6533828685875
 20
242.5301141835794
 30
0.0
 11
233.9450495352541
 21
242.5301141835794
 31
0.0
  0
SOLID
  5
122B4
330
11EA9
100
AcDbEntity
  8
TEXT
 62
     0
100
AcDbTrace
 10
143.6533828685875
 20
243.0301141835794
 30
0.0
 11
143.6533828685875
 21
242.0301141835794
 31
0.0
 12
140.6533828685875
 22
242.5301141835794
 32
0.0
 13
140.6533828685875
 23
242.5301141835794
 33
0.0
  0
SOLID
  5
122B5
330
11EA9
100
AcDbEntity
  8
TEXT
 62
     0
100
AcDbTrace
 10
275.6533828685875
 20
243.0301141835794
 30
0.0
 11
275.6533828685875
 21
242.0301141835794
 31
0.0
 12
278.6533828685875
 22
242.5301141835794
 32
0.0
 13
278.6533828685875
 23
242.5301141835794
 33
0.0
  0
MTEXT
  5
122B6
330
11EA9
100
AcDbEntity
  8
TEXT
 62
     0
100
AcDbMText
 10
209.6533828685875
 20
242.5301141835794
 30
0.0
 40
1.75
 41
0.0
 46
0.0
 71
     5
 72
     1
  1
\A1;HORIZONTAL TRACK LENGTH\P(BACKROOM: DOOR HEIGHT + 18")
  7
WEB PAGE
 73
     1
 44
1.0
  0
POINT
  5
122B7
330
11EA9
100
AcDbEntity
  8
Defpoints
 62
     0
100
AcDbPoint
 10
140.6533828685875
 20
235.0538480112669
 30
0.0
  0
POINT
  5
122B8
330
11EA9
100
AcDbEntity
  8
Defpoints
 62
     0
100
AcDbPoint
 10
278.6533828685875
 20
250.213848011267
 30
0.0
  0
POINT
  5
122B9
330
11EA9
100
AcDbEntity
  8
Defpoints
 62
     0
100
AcDbPoint
 10
278.6533828685875
 20
242.5301141835794
 30
0.0
  0
ENDBLK
  5
11EB5
330
11EA9
100
AcDbEntity
  8
0
100
AcDbBlockEnd
  0
BLOCK
  5
12043
330
12034
100
AcDbEntity
  8
0
100
AcDbBlockBegin
  2
A$C2D8E259A
 70
     0
 10
0.0
 20
0.0
 30
0.0
  3
A$C2D8E259A
  1

  0
LINE
  5
12035
330
12034
100
AcDbEntity
  8
0
100
AcDbLine
 10
-0.0000004604032604
 20
2.095456975818166
 30
0.0
 11
0.9999995395967395
 21
2.095456975818166
 31
0.0
  0
LINE
  5
12036
330
12034
100
AcDbEntity
  8
0
100
AcDbLine
 10
0.0549995395967393
 20
2.040456975818166
 30
0.0
 11
0.9999995395967395
 21
2.040456975818166
 31
0.0
  0
LINE
  5
12037
330
12034
100
AcDbEntity
  8
0
100
AcDbLine
 10
0.8478670952251974
 20
0.3621827433166693
 30
0.0
 11
0.6627309988545634
 21
0.1415461353480936
 31
0.0
  0
LINE
  5
12038
330
12034
100
AcDbEntity
  8
0
100
AcDbLine
 10
0.8899995395967437
 20
0.3268294247839059
 30
0.0
 11
0.8478670952251974
 21
0.3621827433166658
 31
0.0
  0
LINE
  5
12039
330
12034
100
AcDbEntity
  8
0
100
AcDbLine
 10
0.2262781434198011
 20
0.2224495439404386
 30
0.0
 11
0.0549995395967393
 21
0.6071475867100134
 31
0.0
  0
LINE
  5
1203A
330
12034
100
AcDbEntity
  8
0
100
AcDbLine
 10
0.1751036101700158
 20
0.2021667940502745
 30
0.0
 11
-0.0000004604032569
 21
0.5954569758181663
 31
0.0
  0
ARC
  5
1203B
330
12034
100
AcDbEntity
  8
0
100
AcDbCircle
 10
0.4673896658592263
 20
0.3054569758181671
 30
0.0
 40
0.255
100
AcDbArc
 50
198.997042049035
 51
320.0
  0
LINE
  5
1203C
330
12034
100
AcDbEntity
  8
0
100
AcDbLine
 10
0.8899995395967366
 20
0.3268294247839059
 30
0.0
 11
0.7048634432261061
 21
0.1061928168153337
 31
0.0
  0
ARC
  5
1203D
330
12034
100
AcDbEntity
  8
0
100
AcDbCircle
 10
0.4673896658592263
 20
0.3054569758181671
 30
0.0
 40
0.31
100
AcDbArc
 50
199.4627615683172
 51
320.0
  0
LINE
  5
1203E
330
12034
100
AcDbEntity
  8
0
100
AcDbLine
 10
-0.0000004604032604
 20
1.184456975818165
 30
0.0
 11
0.0549995395967429
 21
1.184456975818165
 31
0.0
  0
LINE
  5
1203F
330
12034
100
AcDbEntity
  8
0
100
AcDbLine
 10
-0.0000004604032604
 20
1.456456975818166
 30
0.0
 11
0.0549995395967429
 21
1.456456975818166
 31
0.0
  0
LINE
  5
12040
330
12034
100
AcDbEntity
  8
0
100
AcDbLine
 10
0.0549995395967393
 20
0.6071475867100134
 30
0.0
 11
0.0549995395967393
 21
2.040456975818166
 31
0.0
  0
LINE
  5
12041
330
12034
100
AcDbEntity
  8
0
100
AcDbLine
 10
-0.0000004604032569
 20
0.5954569758181663
 30
0.0
 11
-0.0000004604032604
 21
2.095456975818166
 31
0.0
  0
LINE
  5
12042
330
12034
100
AcDbEntity
  8
0
100
AcDbLine
 10
0.9999995395967395
 20
2.095456975818166
 30
0.0
 11
0.9999995395967395
 21
2.040456975818166
 31
0.0
  0
ENDBLK
  5
12044
330
12034
100
AcDbEntity
  8
0
100
AcDbBlockEnd
  0
BLOCK
  5
1206B
330
1205E
100
AcDbEntity
  8
0
100
AcDbBlockBegin
  2
*D13
 70
     1
 10
0.0
 20
0.0
 30
0.0
  3
*D13
  1

  0
ARC
  5
123B3
330
1205E
100
AcDbEntity
  8
TEXT
 62
     0
370
    -2
100
AcDbCircle
 10
227.9608212298314
 20
213.6152231550802
 30
0.0
 40
5.663360582444536
100
AcDbArc
 50
118.5653662259092
 51
149.2826831129546
  0
ARC
  5
123B4
330
1205E
100
AcDbEntity
  8
TEXT
 62
     0
370
    -2
100
AcDbCircle
 10
227.9608212298314
 20
213.6152231550802
 30
0.0
 40
5.663360582444536
100
AcDbArc
 50
255.7173168870454
 51
286.4346337740908
  0
SOLID
  5
123B5
330
1205E
100
AcDbEntity
  8
TEXT
 62
     0
100
AcDbTrace
 10
223.57418525643
 20
216.3756532434295
 30
0.0
 11
222.6098984921522
 21
216.6405136523975
 31
0.0
 12
222.2974606473869
 22
213.6152231550802
 32
0.0
 13
222.2974606473869
 23
213.6152231550802
 33
0.0
  0
SOLID
  5
123B6
330
1205E
100
AcDbEntity
  8
TEXT
 62
     0
100
AcDbTrace
 10
226.3163509021254
 20
207.6923459759497
 30
0.0
 11
226.8109200209055
 21
208.5614842772281
 31
0.0
 12
223.9562205576802
 22
209.6106224829291
 32
0.0
 13
223.9562205576802
 23
209.6106224829291
 33
0.0
  0
MTEXT
  5
123B7
330
1205E
100
AcDbEntity
  8
TEXT
 62
     0
100
AcDbMText
 10
222.6357616682436
 20
211.6871687594967
 30
0.0
 40
1.75
 41
0.0
 46
0.0
 71
     5
 72
     1
  1
\A1;45°
  7
WEB PAGE
 73
     1
 44
1.0
  0
POINT
  5
123B8
330
1205E
100
AcDbEntity
  8
Defpoints
 62
     0
100
AcDbPoint
 10
223.056207094643
 20
210.7835428638579
 30
0.0
  0
POINT
  5
123B9
330
1205E
100
AcDbEntity
  8
Defpoints
 62
     0
100
AcDbPoint
 10
216.2285881827976
 20
201.8829901080465
 30
0.0
  0
POINT
  5
123BA
330
1205E
100
AcDbEntity
  8
Defpoints
 62
     0
100
AcDbPoint
 10
238.0483059356194
 20
213.6152231550802
 30
0.0
  0
POINT
  5
123BB
330
1205E
100
AcDbEntity
  8
Defpoints
 62
     0
100
AcDbPoint
 10
216.2285881827976
 20
213.6152231550802
 30
0.0
  0
POINT
  5
123BC
330
1205E
100
AcDbEntity
  8
Defpoints
 62
     0
100
AcDbPoint
 10
227.9608212298314
 20
213.6152231550802
 30
0.0
  0
ENDBLK
  5
1206C
330
1205E
100
AcDbEntity
  8
0
100
AcDbBlockEnd
  0
BLOCK
  5
12146
330
1210F
100
AcDbEntity
  8
0
100
AcDbBlockBegin
  2
2RA-129
 70
     0
 10
0.0
 20
0.0
 30
0.0
  3
2RA-129
  1

  0
LINE
  5
12110
330
1210F
100
AcDbEntity
  8
JAMB
 62
     7
100
AcDbLine
 10
-5.217125552899135
 20
88.74279650577301
 30
0.0
 11
-5.217125552899156
 21
-40.25720349422698
 31
0.0
  0
LINE
  5
12111
330
1210F
100
AcDbEntity
  8
REVERSE-ANGLE
 62
     7
100
AcDbLine
 10
-5.217125552899162
 20
-40.25720349422698
 30
0.0
 11
-5.217125552899178
 21
88.74279650577301
 31
0.0
  0
LINE
  5
12112
330
1210F
100
AcDbEntity
  8
REVERSE-ANGLE
 62
     7
100
AcDbLine
 10
-5.117125552899167
 20
-40.25720349422698
 30
0.0
 11
-5.117125552899183
 21
88.74279650577301
 31
0.0
  0
LINE
  5
12113
330
1210F
100
AcDbEntity
  8
REVERSE-ANGLE
 62
     7
100
AcDbLine
 10
-3.592125552899176
 20
-28.75720349422699
 30
0.0
 11
-3.592125552899162
 21
-7.757203494226985
 31
0.0
  0
CIRCLE
  5
12114
330
1210F
100
AcDbEntity
  8
REVERSE-ANGLE
 62
     7
100
AcDbCircle
 10
-4.44212555289917
 20
-31.007203494227
 30
0.0
 40
0.1325
  0
LINE
  5
12115
330
1210F
100
AcDbEntity
  8
REVERSE-ANGLE
 62
     7
100
AcDbLine
 10
-4.012125552899163
 20
-31.75720349422699
 30
0.0
 11
-4.012125552899163
 21
-28.75720349422699
 31
0.0
  0
LINE
  5
12116
330
1210F
100
AcDbEntity
  8
REVERSE-ANGLE
 62
     7
100
AcDbLine
 10
-4.012125552899163
 20
-31.75720349422699
 30
0.0
 11
-3.592125552899162
 21
-31.75720349422699
 31
0.0
  0
LINE
  5
12117
330
1210F
100
AcDbEntity
  8
REVERSE-ANGLE
 62
     7
100
AcDbLine
 10
-5.217125552899162
 20
-30.06470349422699
 30
0.0
 11
-5.117125552899167
 21
-30.06470349422699
 31
0.0
  0
LINE
  5
12118
330
1210F
100
AcDbEntity
  8
REVERSE-ANGLE
 62
     7
100
AcDbLine
 10
-5.217125552899162
 20
-30.44970349422698
 30
0.0
 11
-5.117125552899167
 21
-30.44970349422698
 31
0.0
  0
LINE
  5
12119
330
1210F
100
AcDbEntity
  8
REVERSE-ANGLE
 62
     7
100
AcDbLine
 10
-4.012125552899163
 20
-28.75720349422699
 30
0.0
 11
-3.592125552899162
 21
-28.75720349422699
 31
0.0
  0
CIRCLE
  5
1211A
330
1210F
100
AcDbEntity
  8
REVERSE-ANGLE
 62
     7
100
AcDbCircle
 10
-4.44212555289917
 20
-29.50720349422699
 30
0.0
 40
0.1325
  0
LINE
  5
1211B
330
1210F
100
AcDbEntity
  8
REVERSE-ANGLE
 62
     7
100
AcDbLine
 10
-3.592125552899176
 20
-4.757203494226978
 30
0.0
 11
-3.592125552899167
 21
16.24279650577301
 31
0.0
  0
LINE
  5
1211C
330
1210F
100
AcDbEntity
  8
REVERSE-ANGLE
 62
     7
100
AcDbLine
 10
-5.217125552899162
 20
-6.44970349422698
 30
0.0
 11
-5.117125552899167
 21
-6.44970349422698
 31
0.0
  0
LINE
  5
1211D
330
1210F
100
AcDbEntity
  8
REVERSE-ANGLE
 62
     7
100
AcDbLine
 10
-5.217125552899162
 20
-6.064703494226989
 30
0.0
 11
-5.117125552899167
 21
-6.064703494226989
 31
0.0
  0
LINE
  5
1211E
330
1210F
100
AcDbEntity
  8
REVERSE-ANGLE
 62
     7
100
AcDbLine
 10
-4.012125552899163
 20
-4.757203494226985
 30
0.0
 11
-3.592125552899162
 21
-4.757203494226985
 31
0.0
  0
LINE
  5
1211F
330
1210F
100
AcDbEntity
  8
REVERSE-ANGLE
 62
     7
100
AcDbLine
 10
-4.012125552899163
 20
-7.757203494226985
 30
0.0
 11
-3.592125552899162
 21
-7.757203494226985
 31
0.0
  0
LINE
  5
12120
330
1210F
100
AcDbEntity
  8
REVERSE-ANGLE
 62
     7
100
AcDbLine
 10
-4.012125552899163
 20
-7.757203494226985
 30
0.0
 11
-4.012125552899163
 21
-4.757203494226985
 31
0.0
  0
CIRCLE
  5
12121
330
1210F
100
AcDbEntity
  8
REVERSE-ANGLE
 62
     7
100
AcDbCircle
 10
-4.44212555289917
 20
-7.007203494226985
 30
0.0
 40
0.1325
  0
CIRCLE
  5
12122
330
1210F
100
AcDbEntity
  8
REVERSE-ANGLE
 62
     7
100
AcDbCircle
 10
-4.44212555289917
 20
-5.507203494226985
 30
0.0
 40
0.1325
  0
LINE
  5
12123
330
1210F
100
AcDbEntity
  8
UPPER-ANGLE
100
AcDbLine
 10
-5.217125552899162
 20
-40.25720349422698
 30
0.0
 11
-3.592125552899184
 21
-40.25720349422698
 31
0.0
  0
LINE
  5
12124
330
1210F
100
AcDbEntity
  8
UPPER-ANGLE
100
AcDbLine
 10
-3.592125552899184
 20
-40.25720349422698
 30
0.0
 11
-3.592125552899162
 21
-31.75720349422699
 31
0.0
  0
LINE
  5
12125
330
1210F
100
AcDbEntity
  8
UPPER-ANGLE
100
AcDbLine
 10
-5.217125552899098
 20
88.74279650577301
 30
0.0
 11
-3.59212555289912
 21
88.74279650577301
 31
0.0
  0
CIRCLE
  5
12126
330
1210F
100
AcDbEntity
  8
REVERSE-ANGLE
 62
     7
100
AcDbCircle
 10
-4.44212555289917
 20
18.49279650577301
 30
0.0
 40
0.1325
  0
CIRCLE
  5
12127
330
1210F
100
AcDbEntity
  8
REVERSE-ANGLE
 62
     7
100
AcDbCircle
 10
-4.44212555289917
 20
16.99279650577301
 30
0.0
 40
0.1325
  0
LINE
  5
12128
330
1210F
100
AcDbEntity
  8
REVERSE-ANGLE
 62
     7
100
AcDbLine
 10
-5.217125552899162
 20
17.93529650577301
 30
0.0
 11
-5.117125552899167
 21
17.93529650577301
 31
0.0
  0
LINE
  5
12129
330
1210F
100
AcDbEntity
  8
REVERSE-ANGLE
 62
     7
100
AcDbLine
 10
-5.217125552899162
 20
17.55029650577302
 30
0.0
 11
-5.117125552899167
 21
17.55029650577302
 31
0.0
  0
LINE
  5
1212A
330
1210F
100
AcDbEntity
  8
REVERSE-ANGLE
 62
     7
100
AcDbLine
 10
-4.012125552899163
 20
16.24279650577301
 30
0.0
 11
-3.592125552899161
 21
16.24279650577301
 31
0.0
  0
LINE
  5
1212B
330
1210F
100
AcDbEntity
  8
REVERSE-ANGLE
 62
     7
100
AcDbLine
 10
-4.012125552899163
 20
19.24279650577301
 30
0.0
 11
-3.592125552899161
 21
19.24279650577301
 31
0.0
  0
LINE
  5
1212C
330
1210F
100
AcDbEntity
  8
REVERSE-ANGLE
 62
     7
100
AcDbLine
 10
-4.012125552899163
 20
16.24279650577301
 30
0.0
 11
-4.012125552899163
 21
19.24279650577301
 31
0.0
  0
LINE
  5
1212D
330
1210F
100
AcDbEntity
  8
REVERSE-ANGLE
 62
     7
100
AcDbLine
 10
-4.012125552899163
 20
40.24279650577301
 30
0.0
 11
-4.012125552899163
 21
43.24279650577302
 31
0.0
  0
CIRCLE
  5
1212E
330
1210F
100
AcDbEntity
  8
REVERSE-ANGLE
 62
     7
100
AcDbCircle
 10
-4.44212555289917
 20
40.99279650577301
 30
0.0
 40
0.1325
  0
CIRCLE
  5
1212F
330
1210F
100
AcDbEntity
  8
REVERSE-ANGLE
 62
     7
100
AcDbCircle
 10
-4.44212555289917
 20
42.49279650577301
 30
0.0
 40
0.1325
  0
LINE
  5
12130
330
1210F
100
AcDbEntity
  8
REVERSE-ANGLE
 62
     7
100
AcDbLine
 10
-5.217125552899162
 20
41.55029650577302
 30
0.0
 11
-5.117125552899167
 21
41.55029650577302
 31
0.0
  0
LINE
  5
12131
330
1210F
100
AcDbEntity
  8
REVERSE-ANGLE
 62
     7
100
AcDbLine
 10
-5.217125552899162
 20
41.93529650577301
 30
0.0
 11
-5.117125552899167
 21
41.93529650577301
 31
0.0
  0
LINE
  5
12132
330
1210F
100
AcDbEntity
  8
REVERSE-ANGLE
 62
     7
100
AcDbLine
 10
-4.012125552899163
 20
40.24279650577301
 30
0.0
 11
-3.592125552899161
 21
40.24279650577301
 31
0.0
  0
LINE
  5
12133
330
1210F
100
AcDbEntity
  8
REVERSE-ANGLE
 62
     7
100
AcDbLine
 10
-4.012125552899163
 20
43.24279650577302
 30
0.0
 11
-3.592125552899161
 21
43.24279650577302
 31
0.0
  0
CIRCLE
  5
12134
330
1210F
100
AcDbEntity
  8
REVERSE-ANGLE
 62
     7
100
AcDbCircle
 10
-4.44212555289917
 20
72.49279650577303
 30
0.0
 40
0.1325
  0
CIRCLE
  5
12135
330
1210F
100
AcDbEntity
  8
REVERSE-ANGLE
 62
     7
100
AcDbCircle
 10
-4.44212555289917
 20
70.99279650577303
 30
0.0
 40
0.1325
  0
LINE
  5
12136
330
1210F
100
AcDbEntity
  8
REVERSE-ANGLE
 62
     7
100
AcDbLine
 10
-5.217125552899162
 20
65.93529650577301
 30
0.0
 11
-5.117125552899167
 21
65.93529650577301
 31
0.0
  0
LINE
  5
12137
330
1210F
100
AcDbEntity
  8
REVERSE-ANGLE
 62
     7
100
AcDbLine
 10
-5.217125552899162
 20
65.55029650577302
 30
0.0
 11
-5.117125552899167
 21
65.55029650577302
 31
0.0
  0
LINE
  5
12138
330
1210F
100
AcDbEntity
  8
REVERSE-ANGLE
 62
     7
100
AcDbLine
 10
-4.012125552899163
 20
70.24279650577303
 30
0.0
 11
-4.012125552899163
 21
73.24279650577302
 31
0.0
  0
LINE
  5
12139
330
1210F
100
AcDbEntity
  8
REVERSE-ANGLE
 62
     7
100
AcDbLine
 10
-4.012125552899163
 20
70.24279650577303
 30
0.0
 11
-3.592125552899161
 21
70.24279650577303
 31
0.0
  0
LINE
  5
1213A
330
1210F
100
AcDbEntity
  8
REVERSE-ANGLE
 62
     7
100
AcDbLine
 10
-4.012125552899163
 20
73.24279650577302
 30
0.0
 11
-3.592125552899161
 21
73.24279650577302
 31
0.0
  0
LINE
  5
1213B
330
1210F
100
AcDbEntity
  8
REVERSE-ANGLE
 62
     7
100
AcDbLine
 10
-3.592125552899144
 20
73.24279650577304
 30
0.0
 11
-3.592125552899138
 21
88.74279650577301
 31
0.0
  0
LINE
  5
1213C
330
1210F
100
AcDbEntity
  8
REVERSE-ANGLE
 62
     7
100
AcDbLine
 10
-3.592125552899155
 20
43.24279650577302
 30
0.0
 11
-3.592125552899146
 21
70.24279650577303
 31
0.0
  0
LINE
  5
1213D
330
1210F
100
AcDbEntity
  8
REVERSE-ANGLE
 62
     7
100
AcDbLine
 10
-3.592125552899166
 20
19.24279650577301
 30
0.0
 11
-3.592125552899156
 21
40.24279650577301
 31
0.0
  0
LINE
  5
1213E
330
1210F
100
AcDbEntity
  8
UPPER-ANGLE
100
AcDbLine
 10
-4.364071095616969
 20
83.495296505773
 30
0.0
 11
-4.364071095616969
 21
84.610296505773
 31
0.0
  0
LINE
  5
1213F
330
1210F
100
AcDbEntity
  8
UPPER-ANGLE
100
AcDbLine
 10
-3.979071095616968
 20
83.495296505773
 30
0.0
 11
-3.979071095616968
 21
84.610296505773
 31
0.0
  0
ARC
  5
12140
330
1210F
100
AcDbEntity
  8
UPPER-ANGLE
100
AcDbCircle
 10
-4.171571095616968
 20
88.260296505773
 30
0.0
 40
0.1925000000000002
100
AcDbArc
 50
0.0
 51
180.0
  0
ARC
  5
12141
330
1210F
100
AcDbEntity
  8
UPPER-ANGLE
100
AcDbCircle
 10
-4.171571095616968
 20
87.14529650577302
 30
0.0
 40
0.1925000000000002
100
AcDbArc
 50
180.0
 51
0.0
  0
ARC
  5
12142
330
1210F
100
AcDbEntity
  8
UPPER-ANGLE
100
AcDbCircle
 10
-4.171571095616968
 20
83.495296505773
 30
0.0
 40
0.1925000000000002
100
AcDbArc
 50
180.0
 51
0.0
  0
ARC
  5
12143
330
1210F
100
AcDbEntity
  8
UPPER-ANGLE
100
AcDbCircle
 10
-4.171571095616968
 20
84.610296505773
 30
0.0
 40
0.1925000000000002
100
AcDbArc
 50
0.0
 51
180.0
  0
LINE
  5
12144
330
1210F
100
AcDbEntity
  8
UPPER-ANGLE
100
AcDbLine
 10
-4.364071095616969
 20
87.14529650577302
 30
0.0
 11
-4.364071095616969
 21
88.260296505773
 31
0.0
  0
LINE
  5
12145
330
1210F
100
AcDbEntity
  8
UPPER-ANGLE
100
AcDbLine
 10
-3.979071095616969
 20
87.14529650577302
 30
0.0
 11
-3.979071095616968
 21
88.260296505773
 31
0.0
  0
ENDBLK
  5
12147
330
1210F
100
AcDbEntity
  8
0
100
AcDbBlockEnd
  0
BLOCK
  5
12156
330
12149
100
AcDbEntity
  8
0
100
AcDbBlockBegin
  2
t-4
 70
     0
 10
0.0
 20
0.0
 30
0.0
  3
t-4
  1

  0
LINE
  5
1214A
330
12149
100
AcDbEntity
  8
OUTSIDE
100
AcDbLine
 10
-0.4375
 20
1.9375
 30
0.0
 11
2.4375
 21
1.9375
 31
0.0
  0
ARC
  5
1214B
330
12149
100
AcDbEntity
  8
OUTSIDE
100
AcDbCircle
 10
0.890625
 20
0.71875
 30
0.0
 40
0.140625
100
AcDbArc
 50
90.0
 51
270.0
  0
LINE
  5
1214C
330
12149
100
AcDbEntity
  8
OUTSIDE
100
AcDbLine
 10
2.4375
 20
-0.5
 30
0.0
 11
-0.4375
 21
-0.5
 31
0.0
  0
LINE
  5
1214D
330
12149
100
AcDbEntity
  8
OUTSIDE
100
AcDbLine
 10
-0.4375
 20
-0.5
 30
0.0
 11
-0.4375
 21
1.9375
 31
0.0
  0
LINE
  5
1214E
330
12149
100
AcDbEntity
  8
OUTSIDE
100
AcDbLine
 10
0.4375
 20
-0.5
 30
0.0
 11
0.4375
 21
1.9375
 31
0.0
  0
TEXT
  5
1214F
330
12149
100
AcDbEntity
  8
OUTSIDE
100
AcDbText
 10
0.1023293143974229
 20
0.6536125580388159
 30
0.0
 40
0.2355474917550282
  1
4
 50
90.0
100
AcDbText
  0
CIRCLE
  5
12150
330
12149
100
AcDbEntity
  8
OUTSIDE
100
AcDbCircle
 10
0.0
 20
0.0
 30
0.0
 40
0.15625
  0
CIRCLE
  5
12151
330
12149
100
AcDbEntity
  8
OUTSIDE
100
AcDbCircle
 10
0.0
 20
1.5
 30
0.0
 40
0.15625
  0
LINE
  5
12152
330
12149
100
AcDbEntity
  8
OUTSIDE
100
AcDbLine
 10
2.4375
 20
1.9375
 30
0.0
 11
2.4375
 21
-0.5
 31
0.0
  0
ARC
  5
12153
330
12149
100
AcDbEntity
  8
OUTSIDE
100
AcDbCircle
 10
1.984375
 20
0.71875
 30
0.0
 40
0.140625
100
AcDbArc
 50
270.0
 51
90.0
  0
LINE
  5
12154
330
12149
100
AcDbEntity
  8
OUTSIDE
100
AcDbLine
 10
0.890625
 20
0.578125
 30
0.0
 11
1.984375
 21
0.578125
 31
0.0
  0
LINE
  5
12155
330
12149
100
AcDbEntity
  8
OUTSIDE
100
AcDbLine
 10
0.890625
 20
0.859375
 30
0.0
 11
1.984375
 21
0.859375
 31
0.0
  0
ENDBLK
  5
12157
330
12149
100
AcDbEntity
  8
0
100
AcDbBlockEnd
  0
BLOCK
  5
12166
330
12159
100
AcDbEntity
  8
0
100
AcDbBlockBegin
  2
t-5
 70
     0
 10
0.0
 20
0.0
 30
0.0
  3
t-5
  1

  0
LINE
  5
1215A
330
12159
100
AcDbEntity
  8
OUTSIDE
100
AcDbLine
 10
2.6875
 20
-0.5
 30
0.0
 11
-0.4375
 21
-0.5
 31
0.0
  0
LINE
  5
1215B
330
12159
100
AcDbEntity
  8
OUTSIDE
100
AcDbLine
 10
-0.4375
 20
1.9375
 30
0.0
 11
2.6875
 21
1.9375
 31
0.0
  0
LINE
  5
1215C
330
12159
100
AcDbEntity
  8
OUTSIDE
100
AcDbLine
 10
-0.4375
 20
-0.5
 30
0.0
 11
-0.4375
 21
1.9375
 31
0.0
  0
LINE
  5
1215D
330
12159
100
AcDbEntity
  8
OUTSIDE
100
AcDbLine
 10
0.4375
 20
-0.5
 30
0.0
 11
0.4375
 21
1.9375
 31
0.0
  0
CIRCLE
  5
1215E
330
12159
100
AcDbEntity
  8
OUTSIDE
100
AcDbCircle
 10
0.0
 20
1.5
 30
0.0
 40
0.15625
  0
CIRCLE
  5
1215F
330
12159
100
AcDbEntity
  8
OUTSIDE
100
AcDbCircle
 10
0.0
 20
0.0
 30
0.0
 40
0.15625
  0
TEXT
  5
12160
330
12159
100
AcDbEntity
  8
OUTSIDE
100
AcDbText
 10
0.1023293143974229
 20
0.6536125580388159
 30
0.0
 40
0.2355474917550282
  1
5
 50
90.0
100
AcDbText
  0
ARC
  5
12161
330
12159
100
AcDbEntity
  8
OUTSIDE
100
AcDbCircle
 10
1.140625
 20
0.71875
 30
0.0
 40
0.140625
100
AcDbArc
 50
90.0
 51
270.0
  0
ARC
  5
12162
330
12159
100
AcDbEntity
  8
OUTSIDE
100
AcDbCircle
 10
2.234375
 20
0.71875
 30
0.0
 40
0.140625
100
AcDbArc
 50
270.0
 51
90.0
  0
LINE
  5
12163
330
12159
100
AcDbEntity
  8
OUTSIDE
100
AcDbLine
 10
1.140625
 20
0.578125
 30
0.0
 11
2.234375
 21
0.578125
 31
0.0
  0
LINE
  5
12164
330
12159
100
AcDbEntity
  8
OUTSIDE
100
AcDbLine
 10
1.140625
 20
0.859375
 30
0.0
 11
2.234375
 21
0.859375
 31
0.0
  0
LINE
  5
12165
330
12159
100
AcDbEntity
  8
OUTSIDE
100
AcDbLine
 10
2.6875
 20
1.9375
 30
0.0
 11
2.6875
 21
-0.5
 31
0.0
  0
ENDBLK
  5
12167
330
12159
100
AcDbEntity
  8
0
100
AcDbBlockEnd
  0
BLOCK
  5
12176
330
12169
100
AcDbEntity
  8
0
100
AcDbBlockBegin
  2
t-6
 70
     0
 10
0.0
 20
0.0
 30
0.0
  3
t-6
  1

  0
LINE
  5
1216A
330
12169
100
AcDbEntity
  8
OUTSIDE
100
AcDbLine
 10
2.9375
 20
-0.5
 30
0.0
 11
2.9375
 21
1.9375
 31
0.0
  0
LINE
  5
1216B
330
12169
100
AcDbEntity
  8
OUTSIDE
100
AcDbLine
 10
0.4375
 20
-0.5
 30
0.0
 11
0.4375
 21
1.9375
 31
0.0
  0
LINE
  5
1216C
330
12169
100
AcDbEntity
  8
OUTSIDE
100
AcDbLine
 10
-0.4375
 20
-0.5
 30
0.0
 11
-0.4375
 21
1.9375
 31
0.0
  0
TEXT
  5
1216D
330
12169
100
AcDbEntity
  8
OUTSIDE
100
AcDbText
 10
0.1023293143974229
 20
0.6536125580388159
 30
0.0
 40
0.2355474917550282
  1
6
 50
90.0
100
AcDbText
  0
ARC
  5
1216E
330
12169
100
AcDbEntity
  8
OUTSIDE
100
AcDbCircle
 10
1.390625
 20
0.71875
 30
0.0
 40
0.140625
100
AcDbArc
 50
90.0
 51
270.0
  0
ARC
  5
1216F
330
12169
100
AcDbEntity
  8
OUTSIDE
100
AcDbCircle
 10
2.484375
 20
0.71875
 30
0.0
 40
0.140625
100
AcDbArc
 50
270.0
 51
90.0
  0
LINE
  5
12170
330
12169
100
AcDbEntity
  8
OUTSIDE
100
AcDbLine
 10
2.9375
 20
-0.5
 30
0.0
 11
-0.4375
 21
-0.5
 31
0.0
  0
CIRCLE
  5
12171
330
12169
100
AcDbEntity
  8
OUTSIDE
100
AcDbCircle
 10
0.0
 20
0.0
 30
0.0
 40
0.15625
  0
LINE
  5
12172
330
12169
100
AcDbEntity
  8
OUTSIDE
100
AcDbLine
 10
1.390625
 20
0.578125
 30
0.0
 11
2.484375
 21
0.578125
 31
0.0
  0
LINE
  5
12173
330
12169
100
AcDbEntity
  8
OUTSIDE
100
AcDbLine
 10
-0.4375
 20
1.9375
 30
0.0
 11
2.9375
 21
1.9375
 31
0.0
  0
CIRCLE
  5
12174
330
12169
100
AcDbEntity
  8
OUTSIDE
100
AcDbCircle
 10
0.0
 20
1.5
 30
0.0
 40
0.15625
  0
LINE
  5
12175
330
12169
100
AcDbEntity
  8
OUTSIDE
100
AcDbLine
 10
1.390625
 20
0.859375
 30
0.0
 11
2.484375
 21
0.859375
 31
0.0
  0
ENDBLK
  5
12177
330
12169
100
AcDbEntity
  8
0
100
AcDbBlockEnd
  0
BLOCK
  5
12186
330
12179
100
AcDbEntity
  8
0
100
AcDbBlockBegin
  2
t-7
 70
     0
 10
0.0
 20
0.0
 30
0.0
  3
t-7
  1

  0
LINE
  5
1217A
330
12179
100
AcDbEntity
  8
OUTSIDE
100
AcDbLine
 10
1.640625
 20
0.578125
 30
0.0
 11
2.734375
 21
0.578125
 31
0.0
  0
LINE
  5
1217B
330
12179
100
AcDbEntity
  8
OUTSIDE
100
AcDbLine
 10
1.640625
 20
0.859375
 30
0.0
 11
2.734375
 21
0.859375
 31
0.0
  0
LINE
  5
1217C
330
12179
100
AcDbEntity
  8
OUTSIDE
100
AcDbLine
 10
3.1875
 20
-0.5
 30
0.0
 11
-0.4375
 21
-0.5
 31
0.0
  0
LINE
  5
1217D
330
12179
100
AcDbEntity
  8
OUTSIDE
100
AcDbLine
 10
-0.4375
 20
1.9375
 30
0.0
 11
3.1875
 21
1.9375
 31
0.0
  0
ARC
  5
1217E
330
12179
100
AcDbEntity
  8
OUTSIDE
100
AcDbCircle
 10
1.640625
 20
0.71875
 30
0.0
 40
0.140625
100
AcDbArc
 50
90.0
 51
270.0
  0
TEXT
  5
1217F
330
12179
100
AcDbEntity
  8
OUTSIDE
100
AcDbText
 10
0.1023293143974229
 20
0.6536125580388159
 30
0.0
 40
0.2355474917550282
  1
7
 50
90.0
100
AcDbText
  0
CIRCLE
  5
12180
330
12179
100
AcDbEntity
  8
OUTSIDE
100
AcDbCircle
 10
0.0
 20
0.0
 30
0.0
 40
0.15625
  0
CIRCLE
  5
12181
330
12179
100
AcDbEntity
  8
OUTSIDE
100
AcDbCircle
 10
0.0
 20
1.5
 30
0.0
 40
0.15625
  0
LINE
  5
12182
330
12179
100
AcDbEntity
  8
OUTSIDE
100
AcDbLine
 10
0.4375
 20
-0.5
 30
0.0
 11
0.4375
 21
1.9375
 31
0.0
  0
LINE
  5
12183
330
12179
100
AcDbEntity
  8
OUTSIDE
100
AcDbLine
 10
-0.4375
 20
-0.5
 30
0.0
 11
-0.4375
 21
1.9375
 31
0.0
  0
ARC
  5
12184
330
12179
100
AcDbEntity
  8
OUTSIDE
100
AcDbCircle
 10
2.734375
 20
0.71875
 30
0.0
 40
0.140625
100
AcDbArc
 50
270.0
 51
90.0
  0
LINE
  5
12185
330
12179
100
AcDbEntity
  8
OUTSIDE
100
AcDbLine
 10
3.1875
 20
-0.5
 30
0.0
 11
3.1875
 21
1.9375
 31
0.0
  0
ENDBLK
  5
12187
330
12179
100
AcDbEntity
  8
0
100
AcDbBlockEnd
  0
BLOCK
  5
1219A
330
12189
100
AcDbEntity
  8
0
100
AcDbBlockBegin
  2
A$C5DFD450B
 70
     0
 10
0.0
 20
0.0
 30
0.0
  3
A$C5DFD450B
  1

  0
LINE
  5
1218A
330
12189
100
AcDbEntity
  8
OUTSIDE
100
AcDbLine
 10
4.249999232383288
 20
2.374999854020416
 30
0.0
 11
-0.0000007676167115
 21
2.374999854020416
 31
0.0
  0
LINE
  5
1218B
330
12189
100
AcDbEntity
  8
OUTSIDE
100
AcDbLine
 10
4.249999232383288
 20
-0.000000145979584
 30
0.0
 11
-0.0000007676167115
 21
-0.000000145979584
 31
0.0
  0
LINE
  5
1218C
330
12189
100
AcDbEntity
  8
OUTSIDE
100
AcDbLine
 10
3.869374232383393
 20
1.921624854020478
 30
0.0
 11
1.910624232383213
 21
1.92162485402045
 31
0.0
  0
LINE
  5
1218D
330
12189
100
AcDbEntity
  8
OUTSIDE
100
AcDbLine
 10
3.869374232383393
 20
1.640374854020478
 30
0.0
 11
1.910624232383213
 21
1.64037485402045
 31
0.0
  0
LINE
  5
1218E
330
12189
100
AcDbEntity
  8
OUTSIDE
100
AcDbLine
 10
3.869374232383393
 20
0.4543748540204433
 30
0.0
 11
1.910624232383213
 21
0.4543748540204149
 31
0.0
  0
LINE
  5
1218F
330
12189
100
AcDbEntity
  8
OUTSIDE
100
AcDbLine
 10
3.869374232383393
 20
0.7356248540204433
 30
0.0
 11
1.910624232383213
 21
0.7356248540204149
 31
0.0
  0
TEXT
  5
12190
330
12189
100
AcDbEntity
  8
OUTSIDE
100
AcDbText
 10
1.578058710696495
 20
0.954305879579806
 30
0.0
 40
0.2912332314499508
  1
10
 50
90.0
100
AcDbText
  0
ARC
  5
12191
330
12189
100
AcDbEntity
  8
OUTSIDE
100
AcDbCircle
 10
1.910624232383213
 20
1.780999854020421
 30
0.0
 40
0.1406249999999567
100
AcDbArc
 50
90.0
 51
270.0
  0
ARC
  5
12192
330
12189
100
AcDbEntity
  8
OUTSIDE
100
AcDbCircle
 10
1.910624232383213
 20
0.5949998540203865
 30
0.0
 40
0.1406249999999567
100
AcDbArc
 50
90.0
 51
270.0
  0
LINE
  5
12193
330
12189
100
AcDbEntity
  8
OUTSIDE
100
AcDbLine
 10
0.9999992323832884
 20
2.374999854020416
 30
0.0
 11
0.9999992323832884
 21
-0.000000145979584
 31
0.0
  0
LINE
  5
12194
330
12189
100
AcDbEntity
  8
OUTSIDE
100
AcDbLine
 10
-0.0000007676167115
 20
2.374999854020416
 30
0.0
 11
-0.0000007676167115
 21
-0.000000145979584
 31
0.0
  0
CIRCLE
  5
12195
330
12189
100
AcDbEntity
  8
OUTSIDE
100
AcDbCircle
 10
0.4999992323832885
 20
0.4374998540204161
 30
0.0
 40
0.15625
  0
CIRCLE
  5
12196
330
12189
100
AcDbEntity
  8
OUTSIDE
100
AcDbCircle
 10
0.4999992323832885
 20
1.937499854020416
 30
0.0
 40
0.15625
  0
ARC
  5
12197
330
12189
100
AcDbEntity
  8
OUTSIDE
100
AcDbCircle
 10
3.869374232383393
 20
0.5949998540203865
 30
0.0
 40
0.1406249999999567
100
AcDbArc
 50
270.0
 51
90.0
  0
ARC
  5
12198
330
12189
100
AcDbEntity
  8
OUTSIDE
100
AcDbCircle
 10
3.869374232383393
 20
1.780999854020421
 30
0.0
 40
0.1406249999999567
100
AcDbArc
 50
270.0
 51
90.0
  0
LINE
  5
12199
330
12189
100
AcDbEntity
  8
OUTSIDE
100
AcDbLine
 10
4.249999232383288
 20
2.374999854020416
 30
0.0
 11
4.249999232383288
 21
-0.000000145979584
 31
0.0
  0
ENDBLK
  5
1219B
330
12189
100
AcDbEntity
  8
0
100
AcDbBlockEnd
  0
BLOCK
  5
1219E
330
1219C
100
AcDbEntity
  8
0
100
AcDbBlockBegin
  2
RASPLT-10
 70
     0
 10
0.0
 20
0.0
 30
0.0
  3
RASPLT-10
  1

  0
INSERT
  5
1219D
330
1219C
100
AcDbEntity
  8
BDR
100
AcDbBlockReference
  2
A$C5DFD450B
 10
-0.4999992323832885
 20
-0.4374998540204161
 30
0.0
  0
ENDBLK
  5
1219F
330
1219C
100
AcDbEntity
  8
0
100
AcDbBlockEnd
  0
BLOCK
  5
1221A
330
121E0
100
AcDbEntity
  8
0
100
AcDbBlockBegin
  2
A$C3F6E7505
 70
     0
 10
0.0
 20
0.0
 30
0.0
  3
A$C3F6E7505
  1

  0
LINE
  5
121E1
330
121E0
100
AcDbEntity
  8
5
 62
     7
100
AcDbLine
 10
-0.0000001156382368
 20
0.0258240784121142
 30
0.0
 11
1.36107187041577
 21
112.0175536080912
 31
0.0
  0
LINE
  5
121E2
330
121E0
100
AcDbEntity
  8
5
 62
     7
100
AcDbLine
 10
3.485914953010173
 20
111.9917296976417
 30
0.0
 11
2.124842966956094
 21
0.0000001679626109
 31
0.0
  0
LINE
  5
121E3
330
121E0
100
AcDbEntity
  8
HIDDEN
 62
     7
100
AcDbLine
 10
3.04844725953481
 20
111.9970463850869
 30
0.0
 11
1.687375273480796
 21
0.0053168554079264
 31
0.0
  0
LINE
  5
121E4
330
121E0
100
AcDbEntity
  8
0
100
AcDbLine
 10
2.124842966956094
 20
0.0000001679626109
 30
0.0
 11
-0.0000001156382368
 21
0.0258240784121142
 31
0.0
  0
CIRCLE
  5
121E5
330
121E0
100
AcDbEntity
  8
5
 62
     7
100
AcDbCircle
 10
1.194628307235035
 20
0.6051492213700556
 30
0.0
 40
0.1405
  0
CIRCLE
  5
121E6
330
121E0
100
AcDbEntity
  8
5
 62
     7
100
AcDbCircle
 10
0.4446836898487448
 20
0.6142635427051744
 30
0.0
 40
0.1405
  0
CIRCLE
  5
121E7
330
121E0
100
AcDbEntity
  8
5
 62
     7
100
AcDbCircle
 10
0.827630422088788
 20
1.265857925942754
 30
0.0
 40
0.203
  0
CIRCLE
  5
121E8
330
121E0
100
AcDbEntity
  8
5
 62
     7
100
AcDbCircle
 10
0.8873526187947575
 20
9.265722894129311
 30
0.0
 40
0.1405
  0
CIRCLE
  5
121E9
330
121E0
100
AcDbEntity
  8
5
 62
     7
100
AcDbCircle
 10
0.9055812614651657
 20
10.76561212890178
 30
0.0
 40
0.1405
  0
ARC
  5
121EA
330
121E0
100
AcDbEntity
  8
5
 62
     7
100
AcDbCircle
 10
0.899757210131959
 20
10.28639751839202
 30
0.0
 40
0.1355
100
AcDbArc
 50
359.3036999999985
 51
179.3036999999984
  0
ARC
  5
121EB
330
121E0
100
AcDbEntity
  8
5
 62
     7
100
AcDbCircle
 10
0.8931766701279642
 20
9.744937504639068
 30
0.0
 40
0.1355
100
AcDbArc
 50
179.3036999999984
 51
359.3036999999985
  0
LINE
  5
121EC
330
121E0
100
AcDbEntity
  8
5
 62
     7
100
AcDbLine
 10
1.035247204339789
 20
10.28475086433749
 30
0.0
 11
1.028666664335794
 21
9.743290850584543
 31
0.0
  0
LINE
  5
121ED
330
121E0
100
AcDbEntity
  8
5
 62
     7
100
AcDbLine
 10
0.7576866759202474
 20
9.746584158693707
 30
0.0
 11
0.7642672159241855
 21
10.28804417244654
 31
0.0
  0
CIRCLE
  5
121EE
330
121E0
100
AcDbEntity
  8
5
 62
     7
100
AcDbCircle
 10
1.470669184246531
 20
57.26217840684896
 30
0.0
 40
0.1405
  0
ARC
  5
121EF
330
121E0
100
AcDbEntity
  8
5
 62
     7
100
AcDbCircle
 10
1.576949439686821
 20
32.07152667813622
 30
0.0
 40
0.0625
100
AcDbArc
 50
359.3036999999985
 51
89.30370000000007
  0
ARC
  5
121F0
330
121E0
100
AcDbEntity
  8
5
 62
     7
100
AcDbCircle
 10
1.563277957684029
 20
30.9466097520569
 30
0.0
 40
0.0625
100
AcDbArc
 50
269.3037
 51
359.3036999999985
  0
LINE
  5
121F1
330
121E0
100
AcDbEntity
  8
5
 62
     7
100
AcDbLine
 10
1.639444824468974
 20
32.07076715135836
 30
0.0
 11
1.625773342466239
 21
30.94585022527892
 31
0.0
  0
CIRCLE
  5
121F2
330
121E0
100
AcDbEntity
  8
5
 62
     7
100
AcDbCircle
 10
1.107201250527971
 20
29.42073951603104
 30
0.0
 40
0.1325
  0
LINE
  5
121F3
330
121E0
100
AcDbEntity
  8
5
 62
     7
100
AcDbLine
 10
1.326524489232106
 20
33.74144326188818
 30
0.0
 11
1.333105029236101
 21
34.28290327564102
 31
0.0
  0
LINE
  5
121F4
330
121E0
100
AcDbEntity
  8
5
 62
     7
100
AcDbLine
 10
1.062125040820554
 20
34.28619658375018
 30
0.0
 11
1.055544500816559
 21
33.74473656999735
 31
0.0
  0
ARC
  5
121F5
330
121E0
100
AcDbEntity
  8
5
 62
     7
100
AcDbCircle
 10
0.7020140527361676
 20
32.08216005302731
 30
0.0
 40
0.0625
100
AcDbArc
 50
89.30370000000007
 51
179.3036999999984
  0
ARC
  5
121F6
330
121E0
100
AcDbEntity
  8
5
 62
     7
100
AcDbCircle
 10
1.191034495024275
 20
33.74308991594271
 30
0.0
 40
0.1355
100
AcDbArc
 50
179.3036999999984
 51
359.3036999999985
  0
CIRCLE
  5
121F7
330
121E0
100
AcDbEntity
  8
5
 62
     7
100
AcDbCircle
 10
1.143658535868674
 20
32.42051798557597
 30
0.0
 40
0.1325
  0
CIRCLE
  5
121F8
330
121E0
100
AcDbEntity
  8
5
 62
     7
100
AcDbCircle
 10
1.185210443691069
 20
33.26387530543295
 30
0.0
 40
0.1405
  0
LINE
  5
121F9
330
121E0
100
AcDbEntity
  8
5
 62
     7
100
AcDbLine
 10
1.577708966464747
 20
32.13402206291843
 30
0.0
 11
0.7027735795140373
 21
32.14465543780952
 31
0.0
  0
CIRCLE
  5
121FA
330
121E0
100
AcDbEntity
  8
5
 62
     7
100
AcDbCircle
 10
1.20343908636142
 20
34.76376454020542
 30
0.0
 40
0.1405
  0
ARC
  5
121FB
330
121E0
100
AcDbEntity
  8
5
 62
     7
100
AcDbCircle
 10
1.19761503502827
 20
34.28454992969566
 30
0.0
 40
0.1355
100
AcDbArc
 50
359.3036999999985
 51
179.3036999999984
  0
CIRCLE
  5
121FC
330
121E0
100
AcDbEntity
  8
5
 62
     7
100
AcDbCircle
 10
1.182395616786045
 20
35.60788260208321
 30
0.0
 40
0.1325
  0
ARC
  5
121FD
330
121E0
100
AcDbEntity
  8
5
 62
     7
100
AcDbCircle
 10
0.6883425707333757
 20
30.95724312694799
 30
0.0
 40
0.0625
100
AcDbArc
 50
179.3036999999984
 51
269.3037
  0
CIRCLE
  5
121FE
330
121E0
100
AcDbEntity
  8
5
 62
     7
100
AcDbCircle
 10
1.121633474551465
 20
30.60825181950824
 30
0.0
 40
0.1325
  0
LINE
  5
121FF
330
121E0
100
AcDbEntity
  8
5
 62
     7
100
AcDbLine
 10
1.562518430906045
 20
30.88411436727469
 30
0.0
 11
0.6875830439554492
 21
30.89474774216578
 31
0.0
  0
LINE
  5
12200
330
121E0
100
AcDbEntity
  8
5
 62
     7
100
AcDbLine
 10
0.6395186679539578
 20
32.0829195798053
 30
0.0
 11
0.6258471859511659
 21
30.95800265372586
 31
0.0
  0
ARC
  5
12201
330
121E0
100
AcDbEntity
  8
5
 62
     7
100
AcDbCircle
 10
1.624040099918552
 20
35.94624053463187
 30
0.0
 40
0.0625
100
AcDbArc
 50
269.3037
 51
359.3036999999985
  0
LINE
  5
12202
330
121E0
100
AcDbEntity
  8
5
 62
     7
100
AcDbLine
 10
1.63847110869927
 20
37.1336528454934
 30
0.0
 11
0.7635357217486743
 21
37.14428622038437
 31
0.0
  0
LINE
  5
12203
330
121E0
100
AcDbEntity
  8
5
 62
     7
100
AcDbLine
 10
0.6866093281858028
 20
35.95763343630082
 30
0.0
 11
0.7002808101885947
 21
37.08255036238015
 31
0.0
  0
ARC
  5
12204
330
121E0
100
AcDbEntity
  8
5
 62
     7
100
AcDbCircle
 10
0.7627761949706909
 20
37.08179083560228
 30
0.0
 40
0.0625
100
AcDbArc
 50
89.30370000000007
 51
179.3036999999984
  0
ARC
  5
12205
330
121E0
100
AcDbEntity
  8
5
 62
     7
100
AcDbCircle
 10
0.7491047129679558
 20
35.95687390952296
 30
0.0
 40
0.0625
100
AcDbArc
 50
179.3036999999984
 51
269.3037
  0
CIRCLE
  5
12206
330
121E0
100
AcDbEntity
  8
5
 62
     7
100
AcDbCircle
 10
1.204420678103197
 20
37.42014876815094
 30
0.0
 40
0.1325
  0
CIRCLE
  5
12207
330
121E0
100
AcDbEntity
  8
5
 62
     7
100
AcDbCircle
 10
1.218852902126805
 20
38.60766107162815
 30
0.0
 40
0.1325
  0
LINE
  5
12208
330
121E0
100
AcDbEntity
  8
5
 62
     7
100
AcDbLine
 10
1.623280573140625
 20
35.88374514984966
 30
0.0
 11
0.7483451861899724
 21
35.89437852474075
 31
0.0
  0
LINE
  5
12209
330
121E0
100
AcDbEntity
  8
5
 62
     7
100
AcDbLine
 10
1.686535484700762
 20
35.94548100785388
 30
0.0
 11
1.700206966703554
 21
37.07039793393332
 31
0.0
  0
ARC
  5
1220A
330
121E0
100
AcDbEntity
  8
5
 62
     7
100
AcDbCircle
 10
1.637711581921344
 20
37.07115746071119
 30
0.0
 40
0.0625
100
AcDbArc
 50
359.3036999999985
 51
89.30370000000007
  0
CIRCLE
  5
1220B
330
121E0
100
AcDbEntity
  8
5
 62
     7
100
AcDbCircle
 10
1.488897826916826
 20
58.76206764162154
 30
0.0
 40
0.1405
  0
ARC
  5
1220C
330
121E0
100
AcDbEntity
  8
5
 62
     7
100
AcDbCircle
 10
1.483073775583733
 20
58.28285303111167
 30
0.0
 40
0.1355
100
AcDbArc
 50
359.3036999999985
 51
179.3036999999984
  0
LINE
  5
1220D
330
121E0
100
AcDbEntity
  8
5
 62
     7
100
AcDbLine
 10
1.611983229787512
 20
57.7397463633043
 30
0.0
 11
1.618563769791563
 21
58.28120637705715
 31
0.0
  0
LINE
  5
1220E
330
121E0
100
AcDbEntity
  8
5
 62
     7
100
AcDbLine
 10
1.347583781375959
 20
58.28449968516631
 30
0.0
 11
1.341003241371964
 21
57.74303967141335
 31
0.0
  0
ARC
  5
1220F
330
121E0
100
AcDbEntity
  8
5
 62
     7
100
AcDbCircle
 10
1.476493235579738
 20
57.74139301735883
 30
0.0
 40
0.1355
100
AcDbArc
 50
179.3036999999984
 51
359.3036999999985
  0
CIRCLE
  5
12210
330
121E0
100
AcDbEntity
  8
5
 62
     7
100
AcDbCircle
 10
1.76232746697233
 20
81.26040616320878
 30
0.0
 40
0.1405
  0
CIRCLE
  5
12211
330
121E0
100
AcDbEntity
  8
5
 62
     7
100
AcDbCircle
 10
1.780556109642738
 20
82.76029539798125
 30
0.0
 40
0.1405
  0
ARC
  5
12212
330
121E0
100
AcDbEntity
  8
5
 62
     7
100
AcDbCircle
 10
1.768151518305479
 20
81.73962077371854
 30
0.0
 40
0.1355
100
AcDbArc
 50
179.3036999999984
 51
359.3036999999985
  0
LINE
  5
12213
330
121E0
100
AcDbEntity
  8
5
 62
     7
100
AcDbLine
 10
1.90364151251331
 20
81.73797411966402
 30
0.0
 11
1.910222052517362
 21
82.27943413341696
 31
0.0
  0
LINE
  5
12214
330
121E0
100
AcDbEntity
  8
5
 62
     7
100
AcDbLine
 10
1.639242064101814
 20
82.28272744152603
 30
0.0
 11
1.632661524097819
 21
81.74126742777318
 31
0.0
  0
ARC
  5
12215
330
121E0
100
AcDbEntity
  8
5
 62
     7
100
AcDbCircle
 10
1.774732058309531
 20
82.28108078747149
 30
0.0
 40
0.1355
100
AcDbArc
 50
359.3036999999985
 51
179.3036999999984
  0
CIRCLE
  5
12216
330
121E0
100
AcDbEntity
  8
5
 62
     7
100
AcDbCircle
 10
2.158321337025569
 20
110.7577720643342
 30
0.0
 40
0.203
  0
LINE
  5
12217
330
121E0
100
AcDbEntity
  8
0
100
AcDbLine
 10
3.485914953010173
 20
111.9917296976417
 30
0.0
 11
1.36107187041577
 21
112.0175536080912
 31
0.0
  0
CIRCLE
  5
12218
330
121E0
100
AcDbEntity
  8
5
 62
     7
100
AcDbCircle
 10
1.791323451879321
 20
111.4184807689069
 30
0.0
 40
0.1405
  0
CIRCLE
  5
12219
330
121E0
100
AcDbEntity
  8
5
 62
     7
100
AcDbCircle
 10
2.541268069265555
 20
111.4093664475718
 30
0.0
 40
0.1405
  0
ENDBLK
  5
1221B
330
121E0
100
AcDbEntity
  8
0
100
AcDbBlockEnd
  0
BLOCK
  5
12359
330
1234E
100
AcDbEntity
  8
0
100
AcDbBlockBegin
  2
*D22
 70
     1
 10
0.0
 20
0.0
 30
0.0
  3
*D22
  1

  0
LINE
  5
123BD
330
1234E
100
AcDbEntity
  8
TEXT
 62
     0
370
    -2
100
AcDbLine
 10
136.2169295018096
 20
252.0362941793405
 30
0.0
 11
98.02173389385963
 21
252.0362941793405
 31
0.0
  0
LINE
  5
123BE
330
1234E
100
AcDbEntity
  8
TEXT
 62
     0
370
    -2
100
AcDbLine
 10
132.2169295018095
 20
123.0362941793405
 30
0.0
 11
98.02173389385961
 21
123.0362941793405
 31
0.0
  0
LINE
  5
123BF
330
1234E
100
AcDbEntity
  8
TEXT
 62
     0
370
    -2
100
AcDbLine
 10
99.02173389385964
 20
249.0362941793405
 30
0.0
 11
99.02173389385962
 21
192.6612941793405
 31
0.0
  0
LINE
  5
123C0
330
1234E
100
AcDbEntity
  8
TEXT
 62
     0
370
    -2
100
AcDbLine
 10
99.02173389385961
 20
126.0362941793405
 30
0.0
 11
99.02173389385962
 21
182.4112941793405
 31
0.0
  0
SOLID
  5
123C1
330
1234E
100
AcDbEntity
  8
TEXT
 62
     0
100
AcDbTrace
 10
98.52173389385963
 20
249.0362941793405
 30
0.0
 11
99.52173389385963
 21
249.0362941793405
 31
0.0
 12
99.02173389385964
 22
252.0362941793405
 32
0.0
 13
99.02173389385964
 23
252.0362941793405
 33
0.0
  0
SOLID
  5
123C2
330
1234E
100
AcDbEntity
  8
TEXT
 62
     0
100
AcDbTrace
 10
98.5217338938596
 20
126.0362941793405
 30
0.0
 11
99.52173389385961
 21
126.0362941793405
 31
0.0
 12
99.02173389385961
 22
123.0362941793405
 32
0.0
 13
99.02173389385961
 23
123.0362941793405
 33
0.0
  0
MTEXT
  5
123C3
330
1234E
100
AcDbEntity
  8
TEXT
 62
     0
100
AcDbMText
 10
99.02173389385959
 20
187.5362941793405
 30
0.0
 40
1.75
 41
0.0
 46
0.0
 71
     5
 72
     1
  1
\A1;2" CLIP STYLE\PREVERSE ANGLE\PDOOR HEIGHT+9"
  7
WEB PAGE
 73
     1
 44
1.0
  0
POINT
  5
123C4
330
1234E
100
AcDbEntity
  8
Defpoints
 62
     0
100
AcDbPoint
 10
138.2169295018096
 20
252.0362941793405
 30
0.0
  0
POINT
  5
123C5
330
1234E
100
AcDbEntity
  8
Defpoints
 62
     0
100
AcDbPoint
 10
134.2169295018095
 20
123.0362941793405
 30
0.0
  0
POINT
  5
123C6
330
1234E
100
AcDbEntity
  8
Defpoints
 62
     0
100
AcDbPoint
 10
99.02173389385961
 20
123.0362941793405
 30
0.0
  0
ENDBLK
  5
1235A
330
1234E
100
AcDbEntity
  8
0
100
AcDbBlockEnd
  0
ENDSEC
  0
SECTION
  2
ENTITIES
  0
INSERT
  5
3374
330
17
100
AcDbEntity
  8
AME_FRZ
100
AcDbBlockReference
  2
AME_NIL
 10
0.0
 20
0.0
 30
0.0
 41
24.609375
 42
24.609375
 43
24.609375
  0
INSERT
  5
3375
330
17
100
AcDbEntity
  8
AME_FRZ
100
AcDbBlockReference
  2
AME_SOL
 10
0.0
 20
0.0
 30
0.0
 41
24.609375
 42
24.609375
 43
24.609375
1001
AME_SOL
1000
R2.1
1000
AME2
1000
sq cm
1070
     3
1070
     0
1070
     3
1000
wire
1040
45.0
1000
U
1040
1.0
1000
cm
1000
gm
1000
MILD_STEEL
1070
    25
1000
CSG
1070
     1
1070
     3
1070
     3
1070
     3
1070
     0
1000
cu cm
1070
     1
1070
     0
1005
2D0D
  0
INSERT
  5
3376
330
17
100
AcDbEntity
  8
ASHADE
 62
     1
100
AcDbBlockReference
  2
AVE_RENDER
 10
0.0
 20
0.0
 30
0.0
 41
24.609375
 42
24.609375
 43
24.609375
1001
AVE_RENDER
1002
{
1070
     2
1000
Pref
1070
    30
1070
    20
1070
     0
1070
     0
1000

1070
    10
1070
     0
1070
    30
1040
1.0
1070
     1
1040
0.3
1040
0.7
1040
0.0
1040
10.0
1010
-1.0
1020
-1.0
1030
-1.0
1040
0.3
1070
    49
1002
}
  0
INSERT
  5
3377
330
17
100
AcDbEntity
  8
ASHADE
 62
     3
100
AcDbBlockReference
  2
AVE_RENDER
 10
0.0
 20
0.0
 30
0.0
 41
24.609375
 42
24.609375
 43
24.609375
1001
AVE_RENDER
1002
{
1070
     0
1000
Full Opt
1070
     0
1070
     1
1070
     1
1070
     1
1070
     0
1070
     0
1070
     0
1070
     1
1070
     1
1040
0.0001
1040
0.0001
1002
}
  0
INSERT
  5
3378
330
17
100
AcDbEntity
  8
ASHADE
 62
     4
100
AcDbBlockReference
  2
AVE_RENDER
 10
0.0
 20
0.0
 30
0.0
 41
24.609375
 42
24.609375
 43
24.609375
1001
AVE_RENDER
1002
{
1070
     0
1000
Quick Opt
1070
     0
1070
     1
1070
     1
1070
     1
1070
     0
1070
     0
1070
     1
1002
}
  0
INSERT
  5
3E3C
330
17
100
AcDbEntity
  8
AME_FRZ
100
AcDbBlockReference
  2
AME_NIL
 10
0.0
 20
0.0
 30
0.0
 41
34.993056
 42
34.993056
 43
34.993056
  0
INSERT
  5
3E3D
330
17
100
AcDbEntity
  8
AME_FRZ
100
AcDbBlockReference
  2
AME_SOL
 10
0.0
 20
0.0
 30
0.0
 41
34.993056
 42
34.993056
 43
34.993056
1001
AME_SOL
1000
R2.1
1000
AME2
1000
sq cm
1070
     3
1070
     0
1070
     3
1000
wire
1040
45.0
1000
U
1040
1.0
1000
cm
1000
gm
1000
MILD_STEEL
1070
    25
1000
CSG
1070
     1
1070
     3
1070
     3
1070
     3
1070
     0
1000
cu cm
1070
     1
1070
     0
1005
2D0D
  0
INSERT
  5
3E3E
330
17
100
AcDbEntity
  8
ASHADE
 62
     1
100
AcDbBlockReference
  2
AVE_RENDER
 10
0.0
 20
0.0
 30
0.0
 41
34.993056
 42
34.993056
 43
34.993056
1001
AVE_RENDER
1002
{
1070
     2
1000
Pref
1070
    30
1070
    20
1070
     0
1070
     0
1000

1070
    10
1070
     0
1070
    30
1040
1.0
1070
     1
1040
0.3
1040
0.7
1040
0.0
1040
10.0
1010
-1.0
1020
-1.0
1030
-1.0
1040
0.3
1070
    49
1002
}
  0
INSERT
  5
3E3F
330
17
100
AcDbEntity
  8
ASHADE
 62
     3
100
AcDbBlockReference
  2
AVE_RENDER
 10
0.0
 20
0.0
 30
0.0
 41
34.993056
 42
34.993056
 43
34.993056
1001
AVE_RENDER
1002
{
1070
     0
1000
Full Opt
1070
     0
1070
     1
1070
     1
1070
     1
1070
     0
1070
     0
1070
     0
1070
     1
1070
     1
1040
0.0001
1040
0.0001
1002
}
  0
INSERT
  5
3E40
330
17
100
AcDbEntity
  8
ASHADE
 62
     4
100
AcDbBlockReference
  2
AVE_RENDER
 10
0.0
 20
0.0
 30
0.0
 41
34.993056
 42
34.993056
 43
34.993056
1001
AVE_RENDER
1002
{
1070
     0
1000
Quick Opt
1070
     0
1070
     1
1070
     1
1070
     1
1070
     0
1070
     0
1070
     1
1002
}
  0
MTEXT
  5
405A
330
17
100
AcDbEntity
  8
BDR
100
AcDbMText
 10
353.0635595970848
 20
56.58463448330076
 30
0.0
 40
0.1
 41
37.627
 46
0.0
 71
     1
 72
     5
  1

  7
SIMPLEX
 73
     1
 44
1.0
  0
MTEXT
  5
8913
330
17
100
AcDbEntity
  8
BDR
100
AcDbMText
 10
877.3233813939555
 20
282.200335478095
 30
0.0
 40
3.0
 41
0.0
 46
0.0
 71
     4
 72
     1
  1
\A1;
 73
     1
 44
1.0
  0
MTEXT
  5
BB0D
330
17
100
AcDbEntity
  8
HATCH
 48
0.5
100
AcDbMText
 10
862.711853351133
 20
170.0626199810501
 30
0.0
 40
1.1
 41
0.0
 46
0.0
 71
     4
 72
     1
  1

 73
     1
 44
1.0
  0
MTEXT
  5
BD7C
330
17
100
AcDbEntity
  8
BDR
100
AcDbMText
 10
648.3700742151118
 20
223.690432353357
 30
0.0
 40
2.5
 41
0.0
 46
0.0
 71
     1
 72
     1
  1

 73
     1
 44
1.0
  0
MTEXT
  5
CE5A
330
17
100
AcDbEntity
  8
BDR
100
AcDbMText
 10
645.7641368582438
 20
217.5930814931963
 30
0.0
 40
2.5
 41
0.0
 46
0.0
 71
     1
 72
     1
  1

 73
     1
 44
1.0
  0
MTEXT
  5
D3E4
330
17
100
AcDbEntity
  8
0
100
AcDbMText
 10
393.5054431651311
 20
218.3654697964034
 30
0.0
 40
2.5
 41
0.0
 46
0.0
 71
     1
 72
     1
  1

 73
     1
 44
1.0
  0
MTEXT
  5
D891
330
17
100
AcDbEntity
  8
BDR
100
AcDbMText
 10
278.8170020773584
 20
330.6127380359346
 30
0.0
 40
2.5
 41
0.0
 46
0.0
 71
     1
 72
     1
  1

 73
     1
 44
1.0
  0
MTEXT
  5
D894
330
17
100
AcDbEntity
  8
BDR
100
AcDbMText
 10
282.4572809863948
 20
283.699790306357
 30
0.0
 40
2.5
 41
0.0
 46
0.0
 71
     1
 72
     1
  1

 73
     1
 44
1.0
  0
MTEXT
  5
D8BC
330
17
100
AcDbEntity
  8
BDR
100
AcDbMText
 10
280.6377852630108
 20
262.5297979250931
 30
0.0
 40
2.5
 41
0.0
 46
0.0
 71
     1
 72
     1
  1

 73
     1
 44
1.0
  0
MTEXT
  5
D8BE
330
17
100
AcDbEntity
  8
BDR
100
AcDbMText
 10
280.052229178619
 20
230.2002619872308
 30
0.0
 40
2.5
 41
0.0
 46
0.0
 71
     1
 72
     1
  1

 73
     1
 44
1.0
  0
MTEXT
  5
D8C2
330
17
100
AcDbEntity
  8
BDR
100
AcDbMText
 10
210.2931674542633
 20
331.4813092531851
 30
0.0
 40
2.5
 41
0.0
 46
0.0
 71
     9
 72
     1
  1

 73
     1
 44
1.0
  0
MTEXT
  5
DE82
330
17
100
AcDbEntity
  8
0
100
AcDbMText
 10
230.9601867147205
 20
186.4290317625283
 30
0.0
 40
3.5
 41
0.0
 46
0.0
 71
     1
 72
     1
  1

 73
     1
 44
1.0
  0
DIMENSION
  5
11CDE
330
17
100
AcDbEntity
  8
TEXT
100
AcDbDimension
  2
*D4
 10
83.18114229960354
 20
255.753848011267
 30
0.0
 11
83.18114229960348
 21
202.4451108434142
 31
0.0
 70
   160
  1
FLOOR TO\PSHAFT CENTER
 71
     5
 42
132.7175538319264
 73
     0
 74
     0
 75
     0
  3
STANDARD
100
AcDbAlignedDimension
 13
134.2169295018095
 23
123.0362941793405
 33
0.0
 14
141.5919295018095
 24
255.753848011267
 34
0.0
 50
90.0
100
AcDbRotatedDimension
1001
ACAD
1000
DSTYLE
1002
{
1070
    40
1040
1.0
1002
}
  0
DIMENSION
  5
11CDF
330
17
100
AcDbEntity
  8
TEXT
100
AcDbDimension
  2
*D5
 10
68.17092211315905
 20
258.6288480112671
 30
0.0
 11
68.17092211315901
 21
181.0798351154221
 31
0.0
 70
   160
  1
MINIMUM\PCEILING HEIGHT
 71
     5
 42
135.5925538319265
 73
     0
 74
     0
 75
     0
  3
STANDARD
100
AcDbAlignedDimension
 13
134.2169295018095
 23
123.0362941793405
 33
0.0
 14
138.2169295018095
 24
258.628848011267
 34
0.0
 50
90.0
100
AcDbRotatedDimension
1001
ACAD
1000
DSTYLE
1002
{
1070
    40
1040
1.0
1002
}
  0
DIMENSION
  5
11CE0
330
17
100
AcDbEntity
  8
TEXT
100
AcDbDimension
  2
*D6
 10
175.0501848453942
 20
235.0280241008174
 30
0.0
 11
175.0501848453941
 21
174.879062324093
 31
0.0
 70
   160
  1
VERTICAL TRACK\PDOOR HEIGHT-8"
 71
     5
 42
111.9917299214769
 73
     0
 74
     0
 75
     0
  3
STANDARD
100
AcDbAlignedDimension
 13
209.4861505668555
 23
123.0362941793405
 33
0.0
 14
142.7782259511818
 24
235.0280241008174
 34
0.0
 50
90.0
100
AcDbRotatedDimension
1001
ACAD
1000
DSTYLE
1002
{
1070
    40
1040
1.0
1002
}
  0
DIMENSION
  5
11CE1
330
17
100
AcDbEntity
  8
TEXT
100
AcDbDimension
  2
*D7
 10
118.0575413775432
 20
123.0362941793405
 30
0.0
 11
118.0575413775432
 21
183.0362941793405
 31
0.0
 70
    32
  1
OPENING\PHEIGHT
 71
     5
 42
120.0
 73
     0
 74
     0
 75
     0
  3
STANDARD
100
AcDbAlignedDimension
 13
134.2169295018095
 23
243.0362941793405
 33
0.0
 14
134.2169295018095
 24
123.0362941793405
 34
0.0
 50
90.0
100
AcDbRotatedDimension
1001
ACAD
1000
DSTYLE
1002
{
1070
    40
1040
1.0
1002
}
  0
LINE
  5
11CE2
330
17
100
AcDbEntity
  8
BDR
100
AcDbLine
 10
134.2169295018095
 20
123.0362941793405
 30
0.0
 11
134.2169295018095
 21
264.628848011267
 31
0.0
  0
LINE
  5
11CE3
330
17
100
AcDbEntity
  8
BDR
100
AcDbLine
 10
138.2169295018095
 20
123.0362941793405
 30
0.0
 11
138.2169295018095
 21
258.628848011267
 31
0.0
  0
LINE
  5
11CE5
330
17
100
AcDbEntity
  8
BDR
100
AcDbLine
 10
221.5803211345133
 20
123.0362941793405
 30
0.0
 11
134.2169295018095
 21
123.0362941793405
 31
0.0
  0
LINE
  5
11CE7
330
17
100
AcDbEntity
  8
BDR
100
AcDbLine
 10
143.2690223512286
 20
135.9017747485227
 30
0.0
 11
145.9563921309725
 21
137.8070675453008
 31
0.0
  0
SOLID
  5
11CE8
330
17
100
AcDbEntity
  8
BDR
100
AcDbTrace
 10
143.5582067749237
 20
135.4938870567593
 30
0.0
 11
142.9798379275332
 21
136.3096624402861
 31
0.0
 12
140.8216962006481
 22
134.1666682063514
 32
0.0
 13
140.8216962006481
 23
134.1666682063514
 33
0.0
  0
MTEXT
  5
11CE9
330
17
100
AcDbEntity
  8
TEXT
100
AcDbMText
 10
149.9938929532877
 20
137.040685061373
 30
0.0
 40
1.75
 41
0.0
 46
0.0
 71
     7
 72
     1
  1
TRACK CLIPS
  7
WEB PAGE
 73
     1
 44
1.0
  0
LINE
  5
11CEA
330
17
100
AcDbEntity
  8
TEXT
100
AcDbLine
 10
145.9563921309725
 20
137.8070675453008
 30
0.0
 11
148.9563921309725
 21
137.8070675453008
 31
0.0
  0
MTEXT
  5
11CF6
330
17
100
AcDbEntity
  8
TEXT
100
AcDbMText
 10
156.8995012135224
 20
247.6697764564923
 30
0.0
 40
1.75
 41
0.0
 46
0.0
 71
     1
 72
     1
  1
REVERSE ANGLE
  7
WEB PAGE
 73
     1
 44
1.0
  0
MTEXT
  5
11CF7
330
17
100
AcDbEntity
  8
TEXT
100
AcDbMText
 10
186.5198471084741
 20
271.4175248925766
 30
0.0
 40
1.75
 41
0.0
 46
0.0
 71
     6
 72
     1
  1
HORIZONTAL ANGLE
  7
WEB PAGE
 73
     1
 44
1.0
  0
LINE
  5
11CF8
330
17
100
AcDbEntity
  8
BDR
100
AcDbLine
 10
138.2169295018095
 20
258.628848011267
 30
0.0
 11
282.651584289913
 21
258.628848011267
 31
0.0
  0
LINE
  5
11CF9
330
17
100
AcDbEntity
  8
BDR
100
AcDbLine
 10
134.2169295018095
 20
264.628848011267
 30
0.0
 11
282.651584289913
 21
264.628848011267
 31
0.0
  0
INSERT
  5
11CFB
330
17
100
AcDbEntity
  8
BDR
100
AcDbBlockReference
  2
HA137
 10
138.3071328685875
 20
250.693848011267
 30
0.0
  0
LEADER
  5
11CFD
330
17
100
AcDbEntity
  8
TEXT
100
AcDbLeader
  3
STANDARD
 73
     0
 74
     0
 75
     1
 40
3.5
 76
     3
 10
146.9538936123103
 20
251.4671943696826
 30
0.0
 10
156.7568279188576
 20
271.3504931055552
 30
0.0
 10
159.7568279188576
 20
271.3504931055552
 30
0.0
213
-30.35839136054324
223
2.172941992376536
233
0.0
1001
ACAD
1000
DSTYLE
1002
{
1070
    40
1040
1.0
1070
   147
1040
3.0
1002
}
  0
DIMENSION
  5
11CFE
330
17
100
AcDbEntity
  8
TEXT
100
AcDbDimension
  2
*D8
 10
118.0575413775432
 20
258.6288480112671
 30
0.0
 11
128.9325413775432
 21
272.3008621425022
 31
0.0
 70
   160
  1
MINIMUM\PHEADROOM
 71
     5
 42
15.59255383192649
 73
     0
 74
     0
 75
     0
  3
STANDARD
100
AcDbAlignedDimension
 13
134.2169295018095
 23
243.0362941793405
 33
0.0
 14
138.2169295018095
 24
258.628848011267
 34
0.0
 50
90.0
100
AcDbRotatedDimension
1001
ACAD
1000
DSTYLE
1002
{
1070
    40
1040
1.0
1002
}
  0
LEADER
  5
11D00
330
17
100
AcDbEntity
  8
TEXT
100
AcDbLeader
  3
STANDARD
 73
     0
 40
3.5
 76
     2
 10
139.13166414243
 20
246.3808060174766
 30
0.0
 10
155.9615954346191
 20
246.3788886407526
 30
0.0
213
-28.01915490533588
223
-1.822965986319815
233
0.0
1001
ACAD
1000
DSTYLE
1002
{
1070
    40
1040
1.0
1070
   147
1040
3.0
1002
}
  0
LINE
  5
11D06
330
17
100
AcDbEntity
  8
BDR
100
AcDbLine
 10
138.2169295018095
 20
243.0362941793405
 30
0.0
 11
134.2169295018095
 21
243.0362941793405
 31
0.0
  0
LINE
  5
11D0E
330
17
100
AcDbEntity
  8
0
100
AcDbLine
 10
219.7429017190521
 20
250.4660904555707
 30
0.0
 11
218.2513640181228
 21
250.4660904555707
 31
0.0
  0
LINE
  5
11D0F
330
17
100
AcDbEntity
  8
0
100
AcDbLine
 10
218.2513640181228
 20
250.4660904555707
 30
0.0
 11
218.2513640181228
 21
258.628848011267
 31
0.0
  0
LINE
  5
11D10
330
17
100
AcDbEntity
  8
0
100
AcDbLine
 10
218.375698600878
 20
250.4660904555707
 30
0.0
 11
218.3756986008777
 21
258.628848011267
 31
0.0
  0
LINE
  5
11D12
330
17
100
AcDbEntity
  8
0
100
AcDbLine
 10
219.7429017190518
 20
250.4660904555707
 30
0.0
 11
219.742901719052
 21
258.628848011267
 31
0.0
  0
CIRCLE
  5
11D13
330
17
100
AcDbEntity
  8
0
100
AcDbCircle
 10
218.9971328685874
 20
257.1134331156567
 30
0.0
 40
0.2171678892550922
  0
CIRCLE
  5
11D14
330
17
100
AcDbEntity
  8
0
100
AcDbCircle
 10
218.9971328685874
 20
251.1353500103381
 30
0.0
 40
0.2171678892550922
  0
CIRCLE
  5
11D15
330
17
100
AcDbEntity
  8
0
100
AcDbCircle
 10
218.9971328685874
 20
253.1280443787776
 30
0.0
 40
0.2171678892550922
  0
CIRCLE
  5
11D16
330
17
100
AcDbEntity
  8
0
100
AcDbCircle
 10
218.9971328685874
 20
254.1220051026761
 30
0.0
 40
0.2171678892550922
  0
CIRCLE
  5
11D17
330
17
100
AcDbEntity
  8
0
100
AcDbCircle
 10
218.9971328685874
 20
252.1293107342366
 30
0.0
 40
0.2171678892550922
  0
CIRCLE
  5
11D18
330
17
100
AcDbEntity
  8
0
100
AcDbCircle
 10
218.9971328685874
 20
256.1146994711156
 30
0.0
 40
0.2171678892550922
  0
CIRCLE
  5
11D19
330
17
100
AcDbEntity
  8
0
100
AcDbCircle
 10
218.9971328685874
 20
255.1207387472171
 30
0.0
 40
0.2171678892550922
  0
MTEXT
  5
11D1B
330
17
100
AcDbEntity
  8
TEXT
100
AcDbMText
 10
240.8766648971611
 20
222.871562798987
 30
0.0
 40
1.75
 41
0.0
 46
0.0
 71
     4
 72
     1
  1
BACK AND INTERMEDIATE HANGERS\PSUPPLIED BY OTHERS
  7
WEB PAGE
 73
     1
 44
1.0
  0
LINE
  5
11D1C
330
17
100
AcDbEntity
  8
0
100
AcDbLine
 10
276.6576140181228
 20
250.9013665084892
 30
0.0
 11
276.6576140181228
 21
258.628848011267
 31
0.0
  0
LINE
  5
11D1D
330
17
100
AcDbEntity
  8
0
100
AcDbLine
 10
276.781948600878
 20
250.9013665084892
 30
0.0
 11
276.7819486008775
 21
258.628848011267
 31
0.0
  0
LINE
  5
11D1E
330
17
100
AcDbEntity
  8
0
100
AcDbLine
 10
278.1491517190518
 20
250.9013665084892
 30
0.0
 11
278.1491517190521
 21
258.628848011267
 31
0.0
  0
LEADER
  5
11D1F
330
17
100
AcDbEntity
  8
TEXT
100
AcDbLeader
  3
STANDARD
 73
     0
 74
     0
 75
     1
 40
3.5
 76
     3
 10
233.2616002930509
 20
216.1662960606621
 30
0.0
 10
237.1602568799866
 20
224.1706241143037
 30
0.0
 10
240.1602568799866
 20
224.1706241143037
 30
0.0
213
-30.73869949890218
223
37.29359984281018
233
0.0
1001
ACAD
1000
DSTYLE
1002
{
1070
    40
1040
1.0
1002
}
  0
LINE
  5
11D20
330
17
100
AcDbEntity
  8
0
100
AcDbLine
 10
278.1491517190521
 20
250.9013665084892
 30
0.0
 11
276.6576140181228
 21
250.9013665084892
 31
0.0
  0
CIRCLE
  5
11D21
330
17
100
AcDbEntity
  8
0
100
AcDbCircle
 10
277.4033828685874
 20
251.5706260632567
 30
0.0
 40
0.2075
  0
CIRCLE
  5
11D22
330
17
100
AcDbEntity
  8
0
100
AcDbCircle
 10
277.4033828685874
 20
254.5572811555945
 30
0.0
 40
0.2171678892550922
  0
CIRCLE
  5
11D23
330
17
100
AcDbEntity
  8
0
100
AcDbCircle
 10
277.4033828685874
 20
255.5560148001357
 30
0.0
 40
0.2171678892550922
  0
CIRCLE
  5
11D24
330
17
100
AcDbEntity
  8
0
100
AcDbCircle
 10
277.4033828685874
 20
256.549975524034
 30
0.0
 40
0.2171678892550922
  0
CIRCLE
  5
11D25
330
17
100
AcDbEntity
  8
0
100
AcDbCircle
 10
277.4033828685874
 20
252.564586787155
 30
0.0
 40
0.2171678892550922
  0
CIRCLE
  5
11D26
330
17
100
AcDbEntity
  8
0
100
AcDbCircle
 10
277.4033828685874
 20
253.5633204316962
 30
0.0
 40
0.2171678892550922
  0
CIRCLE
  5
11D27
330
17
100
AcDbEntity
  8
0
100
AcDbCircle
 10
277.4033828685874
 20
257.5487091685752
 30
0.0
 40
0.2171678892550922
  0
CIRCLE
  5
11D28
330
17
100
AcDbEntity
  8
0
100
AcDbCircle
 10
277.4033828685874
 20
258.4208918404842
 30
0.0
 40
0.2171678892550922
  0
LINE
  5
11D29
330
17
100
AcDbEntity
  8
BDR
100
AcDbLine
 10
282.651584289913
 20
264.628848011267
 30
0.0
 11
282.651584289913
 21
258.628848011267
 31
0.0
  0
INSERT
  5
11E48
330
17
100
AcDbEntity
  8
FRAMING
100
AcDbBlockReference
  2
15R-138TRK
 10
164.548201813155
 20
243.3636933166044
 30
0.0
  0
INSERT
  5
11E5B
330
17
100
AcDbEntity
  8
FRAMING
100
AcDbBlockReference
  2
WD-9-3-38
 10
138.2169295018095
 20
253.153848011267
 30
0.0
  0
CIRCLE
  5
11E86
330
17
100
AcDbEntity
  8
FRAMING
100
AcDbCircle
 10
141.5919295018095
 20
255.753848011267
 30
0.0
 40
2.375
  0
DIMENSION
  5
11EA8
330
17
100
AcDbEntity
  8
TEXT
100
AcDbDimension
  2
*D11
 10
278.6533828685875
 20
242.5301141835794
 30
0.0
 11
209.6533828685875
 21
242.5301141835794
 31
0.0
 70
    32
  1
HORIZONTAL TRACK LENGTH\P(BACKROOM: DOOR HEIGHT + 18")
 71
     5
 42
137.9999999999999
 73
     0
 74
     0
 75
     0
  3
STANDARD
100
AcDbAlignedDimension
 13
140.6533828685875
 23
235.0538480112669
 33
0.0
 14
278.6533828685875
 24
250.213848011267
 34
0.0
100
AcDbRotatedDimension
  0
HATCH
  5
11FD9
330
17
100
AcDbEntity
  8
FRAMING
100
AcDbHatch
 10
0.0
 20
0.0
 30
0.0
210
0.0
220
0.0
230
1.0
  2
ANSI31
 70
     0
 71
     0
 91
        1
 92
        7
 72
     1
 73
     1
 93
        9
 10
282.6515842899129
 20
264.628848011267
 42
0.0
 10
134.2169295018095
 20
264.628848011267
 42
0.0
 10
134.2169295018095
 20
243.0362941793405
 42
0.0
 10
138.2169295018095
 20
243.0362941793406
 42
0.0
 10
138.2169295018095
 20
252.1070366800953
 42
0.0
 10
138.2169295018095
 20
258.628848011267
 42
0.0
 10
277.340803933179
 20
258.628848011267
 42
-0.1472015848805906
 10
277.4659618039958
 20
258.628848011267
 42
0.0
 10
282.651584289913
 20
258.628848011267
 42
0.0
 97
        0
 75
     0
 76
     1
 52
0.0
 41
15.0
 77
     0
 78
     1
 53
45.0
 43
0.0
 44
0.0
 45
-1.325825214724776
 46
1.325825214724776
 79
     0
 47
0.1957423773253207
 98
        1
 10
182.2041221641825
 20
261.5723342380384
  0
LWPOLYLINE
  5
12008
330
17
100
AcDbEntity
  8
FRAMING
100
AcDbPolyline
 90
        6
 70
     0
 43
0.0
 10
213.7285881827976
 20
213.6152231550802
 10
210.0483059356194
 20
213.6152231550802
 10
210.0483059356194
 20
216.1152231550802
 10
238.0483059356194
 20
216.1152231550802
 10
238.0483059356194
 20
213.6152231550802
 10
216.2285881827976
 20
213.6152231550802
  0
LWPOLYLINE
  5
1200A
330
17
100
AcDbEntity
  8
FRAMING
100
AcDbPolyline
 90
        2
 70
     0
 43
0.0
 10
216.2285881827976
 20
201.8829901080465
 10
227.9608212298314
 20
213.6152231550802
  0
CIRCLE
  5
1200B
330
17
100
AcDbEntity
  8
FRAMING
100
AcDbCircle
 10
214.9785881827976
 20
192.8652231550802
 30
0.0
 40
0.5
  0
CIRCLE
  5
1200C
330
17
100
AcDbEntity
  8
FRAMING
100
AcDbCircle
 10
214.9785881827976
 20
194.8652231550802
 30
0.0
 40
0.5
  0
CIRCLE
  5
1200D
330
17
100
AcDbEntity
  8
FRAMING
100
AcDbCircle
 10
214.9785881827976
 20
196.8652231550802
 30
0.0
 40
0.5
  0
CIRCLE
  5
1200E
330
17
100
AcDbEntity
  8
FRAMING
100
AcDbCircle
 10
214.9785881827976
 20
198.8652231550802
 30
0.0
 40
0.5
  0
CIRCLE
  5
1200F
330
17
100
AcDbEntity
  8
FRAMING
100
AcDbCircle
 10
214.9785881827976
 20
200.8652231550802
 30
0.0
 40
0.5
  0
CIRCLE
  5
12010
330
17
100
AcDbEntity
  8
FRAMING
100
AcDbCircle
 10
214.9785881827976
 20
202.8652231550802
 30
0.0
 40
0.5
  0
CIRCLE
  5
12011
330
17
100
AcDbEntity
  8
FRAMING
100
AcDbCircle
 10
214.9785881827976
 20
204.8652231550802
 30
0.0
 40
0.5
  0
CIRCLE
  5
12012
330
17
100
AcDbEntity
  8
FRAMING
100
AcDbCircle
 10
214.9785881827976
 20
206.8652231550802
 30
0.0
 40
0.5
  0
CIRCLE
  5
12013
330
17
100
AcDbEntity
  8
FRAMING
100
AcDbCircle
 10
214.9785881827976
 20
208.8652231550802
 30
0.0
 40
0.5
  0
CIRCLE
  5
12014
330
17
100
AcDbEntity
  8
FRAMING
100
AcDbCircle
 10
214.9785881827976
 20
210.8652231550802
 30
0.0
 40
0.5
  0
CIRCLE
  5
12015
330
17
100
AcDbEntity
  8
FRAMING
100
AcDbCircle
 10
214.9785881827976
 20
212.8652231550802
 30
0.0
 40
0.5
  0
CIRCLE
  5
12016
330
17
100
AcDbEntity
  8
FRAMING
100
AcDbCircle
 10
214.9785881827976
 20
214.8652231550802
 30
0.0
 40
0.5
  0
CIRCLE
  5
12017
330
17
100
AcDbEntity
  8
FRAMING
100
AcDbCircle
 10
214.9785881827976
 20
214.8652231550802
 30
0.0
 40
0.5
  0
CIRCLE
  5
12018
330
17
100
AcDbEntity
  8
FRAMING
100
AcDbCircle
 10
216.9785881827976
 20
214.8652231550802
 30
0.0
 40
0.5
  0
CIRCLE
  5
12019
330
17
100
AcDbEntity
  8
FRAMING
100
AcDbCircle
 10
218.9785881827976
 20
214.8652231550802
 30
0.0
 40
0.5
  0
CIRCLE
  5
1201A
330
17
100
AcDbEntity
  8
FRAMING
100
AcDbCircle
 10
220.9785881827976
 20
214.8652231550802
 30
0.0
 40
0.5
  0
CIRCLE
  5
1201B
330
17
100
AcDbEntity
  8
FRAMING
100
AcDbCircle
 10
222.9785881827976
 20
214.8652231550802
 30
0.0
 40
0.5
  0
CIRCLE
  5
1201C
330
17
100
AcDbEntity
  8
FRAMING
100
AcDbCircle
 10
224.9785881827976
 20
214.8652231550802
 30
0.0
 40
0.5
  0
CIRCLE
  5
1201D
330
17
100
AcDbEntity
  8
FRAMING
100
AcDbCircle
 10
226.9785881827976
 20
214.8652231550802
 30
0.0
 40
0.5
  0
CIRCLE
  5
1201E
330
17
100
AcDbEntity
  8
FRAMING
100
AcDbCircle
 10
228.9785881827976
 20
214.8652231550802
 30
0.0
 40
0.5
  0
CIRCLE
  5
1201F
330
17
100
AcDbEntity
  8
FRAMING
100
AcDbCircle
 10
230.9785881827976
 20
214.8652231550802
 30
0.0
 40
0.5
  0
CIRCLE
  5
12020
330
17
100
AcDbEntity
  8
FRAMING
100
AcDbCircle
 10
232.9785881827976
 20
214.8652231550802
 30
0.0
 40
0.5
  0
CIRCLE
  5
12021
330
17
100
AcDbEntity
  8
FRAMING
100
AcDbCircle
 10
234.9785881827976
 20
214.8652231550802
 30
0.0
 40
0.5
  0
CIRCLE
  5
12022
330
17
100
AcDbEntity
  8
FRAMING
100
AcDbCircle
 10
236.9785881827976
 20
214.8652231550802
 30
0.0
 40
0.5
  0
CIRCLE
  5
12023
330
17
100
AcDbEntity
  8
FRAMING
100
AcDbCircle
 10
221.0790932461859
 20
204.9657282184685
 30
0.0
 40
0.5
  0
CIRCLE
  5
12024
330
17
100
AcDbEntity
  8
FRAMING
100
AcDbCircle
 10
219.6648796838128
 20
203.5515146560954
 30
0.0
 40
0.5
  0
CIRCLE
  5
12025
330
17
100
AcDbEntity
  8
FRAMING
100
AcDbCircle
 10
218.2506661214397
 20
202.1373010937224
 30
0.0
 40
0.5
  0
CIRCLE
  5
12026
330
17
100
AcDbEntity
  8
FRAMING
100
AcDbCircle
 10
216.8364525590666
 20
200.7230875313493
 30
0.0
 40
0.5
  0
CIRCLE
  5
12028
330
17
100
AcDbEntity
  8
FRAMING
100
AcDbCircle
 10
228.1501610580515
 20
212.036796030334
 30
0.0
 40
0.5
  0
CIRCLE
  5
12029
330
17
100
AcDbEntity
  8
FRAMING
100
AcDbCircle
 10
226.7359474956784
 20
210.6225824679609
 30
0.0
 40
0.5
  0
CIRCLE
  5
1202A
330
17
100
AcDbEntity
  8
FRAMING
100
AcDbCircle
 10
225.3217339333053
 20
209.2083689055879
 30
0.0
 40
0.5
  0
CIRCLE
  5
1202B
330
17
100
AcDbEntity
  8
FRAMING
100
AcDbCircle
 10
223.9075203709322
 20
207.7941553432148
 30
0.0
 40
0.5
  0
CIRCLE
  5
1202C
330
17
100
AcDbEntity
  8
FRAMING
100
AcDbCircle
 10
222.493306808559
 20
206.3799417808417
 30
0.0
 40
0.5
  0
CIRCLE
  5
1202D
330
17
100
AcDbEntity
  8
FRAMING
100
AcDbCircle
 10
230.9785881827976
 20
214.8652231550802
 30
0.0
 40
0.5
  0
ARC
  5
1202E
330
17
100
AcDbEntity
  8
FRAMING
100
AcDbCircle
 10
229.5643746204245
 20
213.4510095927071
 30
0.0
 40
0.5
100
AcDbArc
 50
160.8266638561468
 51
19.17333614385317
  0
CIRCLE
  5
12030
330
17
100
AcDbEntity
  8
FRAMING
100
AcDbCircle
 10
212.9785881827976
 20
214.8652231550802
 30
0.0
 40
0.5
  0
CIRCLE
  5
12032
330
17
100
AcDbEntity
  8
FRAMING
100
AcDbCircle
 10
210.9785881827976
 20
214.8652231550802
 30
0.0
 40
0.5
  0
ARC
  5
12033
330
17
100
AcDbEntity
  8
FRAMING
100
AcDbCircle
 10
214.0080254343204
 20
197.894660406603
 30
0.0
 40
0.5
100
AcDbArc
 50
123.9779978142455
 51
236.0220021857545
  0
INSERT
  5
12045
330
17
100
AcDbEntity
  8
FRAMING
100
AcDbBlockReference
  2
A$C2D8E259A
 10
213.728587261991
 20
192.1381299463221
 30
0.0
 41
-2.0
 42
2.0
 43
2.0
  0
LWPOLYLINE
  5
12046
330
17
100
AcDbEntity
  8
FRAMING
100
AcDbPolyline
 90
        3
 70
     0
 43
0.0
 10
213.7285881827976
 20
196.8619358662408
 10
212.4680610618948
 20
198.1224629871436
 10
213.7285881827976
 20
199.3829901080464
  0
LINE
  5
12047
330
17
100
AcDbEntity
  8
FRAMING
100
AcDbLine
 10
213.7285881827976
 20
215.8035189089617
 30
0.0
 11
216.2285881827976
 21
215.8035189089617
 31
0.0
  0
LINE
  5
12048
330
17
100
AcDbEntity
  8
FRAMING
100
AcDbLine
 10
216.2285881827976
 20
215.8035189089617
 30
0.0
 11
216.2285881827976
 21
191.8035189089616
 31
0.0
  0
LINE
  5
12049
330
17
100
AcDbEntity
  8
FRAMING
100
AcDbLine
 10
216.2285881827976
 20
191.8035189089616
 30
0.0
 11
213.7285881827976
 21
191.8035189089616
 31
0.0
  0
LINE
  5
1204A
330
17
100
AcDbEntity
  8
FRAMING
100
AcDbLine
 10
213.7285881827976
 20
191.8035189089616
 30
0.0
 11
213.7285881827976
 21
215.8035189089617
 31
0.0
  0
LINE
  5
1204B
330
17
100
AcDbEntity
  8
FRAMING
100
AcDbLine
 10
214.0215678131282
 20
191.8035189089616
 30
0.0
 11
214.0215678131282
 21
215.8035189089617
 31
0.0
  0
LWPOLYLINE
  5
1204C
330
17
100
AcDbEntity
  8
FRAMING
100
AcDbPolyline
 90
        2
 70
     0
 43
0.0
 10
231.496355135764
 20
213.6152231550802
 10
216.2285881827976
 20
198.3474562021138
  0
DIMENSION
  5
1205D
330
17
100
AcDbEntity
  8
TEXT
100
AcDbDimension
  2
*D13
 10
227.9608212298314
 20
213.6152231550802
 30
0.0
 11
222.6357616682436
 21
211.6871687594967
 31
0.0
 70
   162
 71
     5
 42
0.7853981633974483
 73
     0
 74
     0
 75
     0
  3
STANDARD
100
AcDb2LineAngularDimension
 13
238.0483059356194
 23
213.6152231550802
 33
0.0
 14
216.2285881827976
 24
213.6152231550802
 34
0.0
 15
216.2285881827976
 25
201.8829901080465
 35
0.0
 16
223.056207094643
 26
210.7835428638579
 36
0.0
  0
TEXT
  5
12085
330
17
100
AcDbEntity
  8
SECTION JOINTS
100
AcDbText
 10
273.9308633903065
 20
237.766852528955
 30
0.0
 40
2.0
  1
A
  7
WEB PAGE
100
AcDbText
  0
TEXT
  5
12088
330
17
100
AcDbEntity
  8
SECTION JOINTS
100
AcDbText
 10
273.9308633903065
 20
266.9816107066522
 30
0.0
 40
2.0
  1
A
  7
WEB PAGE
100
AcDbText
  0
TEXT
  5
1208F
330
17
100
AcDbEntity
  8
TEXT
100
AcDbText
 10
106.5284338100042
 20
112.3280010655619
 30
0.0
 40
3.0
  1
%%USTANDARD LIFT ANGLE MOUNT TRACK SET DETAIL
  7
WEB PAGE
100
AcDbText
  0
SOLID
  5
12091
330
17
100
AcDbEntity
  8
SECTION JOINTS
100
AcDbTrace
 10
280.305166675194
 20
239.2146729202676
 30
0.0
 11
277.305166675194
 21
238.7146729202676
 31
0.0
 12
280.305166675194
 22
238.2146729202676
 32
0.0
 13
280.305166675194
 23
238.2146729202676
 33
0.0
1001
ACAD
1000
DSTYLE
1002
{
1070
   147
1040
1.0
1070
    77
1070
     0
1002
}
  0
LINE
  5
12092
330
17
100
AcDbEntity
  8
SECTION JOINTS
100
AcDbLine
 10
287.3555256903735
 20
267.9294310979648
 30
0.0
 11
287.3555256903735
 21
238.7146729202676
 31
0.0
1001
ACAD
1000
DSTYLE
1002
{
1070
   147
1040
1.0
1070
    77
1070
     0
1002
}
  0
LINE
  5
12093
330
17
100
AcDbEntity
  8
SECTION JOINTS
100
AcDbLine
 10
280.305166675194
 20
238.7146729202676
 30
0.0
 11
287.3555256903735
 21
238.7146729202676
 31
0.0
1001
ACAD
1000
DSTYLE
1002
{
1070
   147
1040
1.0
1070
    77
1070
     0
1002
}
  0
LINE
  5
12094
330
17
100
AcDbEntity
  8
SECTION JOINTS
100
AcDbLine
 10
280.305166675194
 20
267.9294310979648
 30
0.0
 11
287.3555256903735
 21
267.9294310979648
 31
0.0
1001
ACAD
1000
DSTYLE
1002
{
1070
   147
1040
1.0
1070
    77
1070
     0
1002
}
  0
SOLID
  5
12095
330
17
100
AcDbEntity
  8
SECTION JOINTS
100
AcDbTrace
 10
280.305166675194
 20
268.4294310979648
 30
0.0
 11
277.305166675194
 21
267.9294310979648
 31
0.0
 12
280.305166675194
 22
267.4294310979647
 32
0.0
 13
280.305166675194
 23
267.4294310979647
 33
0.0
1001
ACAD
1000
DSTYLE
1002
{
1070
   147
1040
1.0
1070
    77
1070
     0
1002
}
  0
TEXT
  5
12096
330
17
100
AcDbEntity
  8
TEXT
100
AcDbText
 10
221.2272707055551
 20
181.5595812266233
 30
0.0
 40
3.0
  1
%%USECTION A-A
  7
WEB PAGE
100
AcDbText
  0
TEXT
  5
12097
330
17
100
AcDbEntity
  8
TEXT
100
AcDbText
 10
211.1908517736666
 20
175.6530810391027
 30
0.0
 40
3.0
  1
%%USUPPORT HANGER DETAIL
  7
WEB PAGE
100
AcDbText
  0
INSERT
  5
12148
330
17
100
AcDbEntity
  8
FRAMING
100
AcDbBlockReference
  2
2RA-129
 10
143.4340550547087
 20
163.2934976735675
 30
0.0
  0
INSERT
  5
12158
330
17
100
AcDbEntity
  8
FRAMING
100
AcDbBlockReference
  2
t-4
 10
138.9919295018095
 20
132.2862941793405
 30
0.0
  0
INSERT
  5
12168
330
17
100
AcDbEntity
  8
FRAMING
100
AcDbBlockReference
  2
t-5
 10
138.9919295018095
 20
156.2862941793405
 30
0.0
  0
INSERT
  5
12178
330
17
100
AcDbEntity
  8
FRAMING
100
AcDbBlockReference
  2
t-6
 10
138.9919295018095
 20
180.2862941793405
 30
0.0
  0
INSERT
  5
12188
330
17
100
AcDbEntity
  8
FRAMING
100
AcDbBlockReference
  2
t-7
 10
138.9919295018095
 20
204.2862941793405
 30
0.0
  0
INSERT
  5
121A0
330
17
100
AcDbEntity
  8
FRAMING
100
AcDbBlockReference
  2
RASPLT-10
 10
138.9919295018095
 20
234.2862941793405
 30
0.0
  0
INSERT
  5
1221C
330
17
100
AcDbEntity
  8
FRAMING
100
AcDbBlockReference
  2
A$C3F6E7505
 10
139.2923109981717
 20
123.0362944031758
 30
0.0
  0
DIMENSION
  5
1234D
330
17
100
AcDbEntity
  8
TEXT
100
AcDbDimension
  2
*D22
 10
99.02173389385961
 20
123.0362941793405
 30
0.0
 11
99.02173389385959
 21
187.5362941793405
 31
0.0
 70
    32
  1
2" CLIP STYLE\PREVERSE ANGLE\PDOOR HEIGHT+9"
 71
     5
 42
129.0
 73
     0
 74
     0
 75
     0
  3
STANDARD
100
AcDbAlignedDimension
 13
138.2169295018096
 23
252.0362941793405
 33
0.0
 14
134.2169295018095
 24
123.0362941793405
 34
0.0
 50
90.0
100
AcDbRotatedDimension
  0
MTEXT
  5
12D2F
330
17
100
AcDbEntity
  8
TEXT
100
AcDbMText
 10
204.8055525383307
 20
162.4682261744793
 30
0.0
 40
2.6
 41
37.3125
 46
0.0
 71
     2
 72
     5
  1
HEADROOM\PREQUIREMENTS
  7
WEB PAGE
 73
     1
 44
1.0
  0
LINE
  5
12D30
330
17
100
AcDbEntity
  8
TEXT
100
AcDbLine
 10
185.2488330147151
 20
146.5755909171045
 30
0.0
 11
223.9544888086568
 21
146.5755909171045
 31
0.0
  0
LINE
  5
12D31
330
17
100
AcDbEntity
  8
TEXT
100
AcDbLine
 10
185.2488330147151
 20
153.4592007180728
 30
0.0
 11
223.9544888086568
 21
153.4592007180728
 31
0.0
  0
TEXT
  5
12D32
330
17
100
AcDbEntity
  8
TEXT
100
AcDbText
 10
189.5997799843447
 20
136.5963752287601
 30
0.0
 40
1.75
  1
16'3" - 18'
  7
WEB PAGE
 72
     1
 11
194.8989869057578
 21
136.5963752287601
 31
0.0
100
AcDbText
  0
TEXT
  5
12D33
330
17
100
AcDbEntity
  8
TEXT
100
AcDbText
 10
189.4129215628819
 20
140.1022084069914
 30
0.0
 40
1.75
  1
12'3" - 16'
  7
WEB PAGE
 72
     1
 11
194.712128484295
 21
140.1022084069914
 31
0.0
100
AcDbText
  0
TEXT
  5
12D34
330
17
100
AcDbEntity
  8
TEXT
100
AcDbText
 10
191.7255947707351
 20
143.885950764422
 30
0.0
 40
1.75
  1
7' - 12'
  7
WEB PAGE
 72
     1
 11
195.2054073157963
 21
143.885950764422
 31
0.0
100
AcDbText
  0
TEXT
  5
12D35
330
17
100
AcDbEntity
  8
TEXT
100
AcDbText
 10
190.2835279950113
 20
147.7285057336141
 30
0.0
 40
1.75
  1
HEIGHT
  7
WEB PAGE
 72
     1
 11
195.09129656026
 21
147.7285057336141
 31
0.0
100
AcDbText
  0
TEXT
  5
12D36
330
17
100
AcDbEntity
  8
TEXT
100
AcDbText
 10
191.4190723353141
 20
150.774344695986
 30
0.0
 40
1.75
  1
DOOR
  7
WEB PAGE
 72
     1
 11
195.09129656026
 21
150.774344695986
 31
0.0
100
AcDbText
  0
LINE
  5
12D37
330
17
100
AcDbEntity
  8
TEXT
100
AcDbLine
 10
185.2488330147151
 20
153.4592007180728
 30
0.0
 11
185.2488330147151
 21
132.041151713232
 31
0.0
  0
LINE
  5
12D38
330
17
100
AcDbEntity
  8
TEXT
100
AcDbLine
 10
204.6956169931883
 20
153.4592007180728
 30
0.0
 11
204.6956169931883
 21
132.041151713232
 31
0.0
  0
LINE
  5
12D39
330
17
100
AcDbEntity
  8
TEXT
100
AcDbLine
 10
223.9544888086568
 20
153.4592007180728
 30
0.0
 11
223.9544888086568
 21
132.041151713232
 31
0.0
  0
TEXT
  5
12D3A
330
17
100
AcDbEntity
  8
TEXT
100
AcDbText
 10
211.3419730622287
 20
143.885950764422
 30
0.0
 40
1.75
  1
15-1/4"
  7
WEB PAGE
 72
     1
 11
215.2425678711688
 21
143.885950764422
 31
0.0
100
AcDbText
  0
TEXT
  5
12D3B
330
17
100
AcDbEntity
  8
TEXT
100
AcDbText
 10
211.3419730622287
 20
136.6900507331281
 30
0.0
 40
1.75
  1
16-1/4"
  7
WEB PAGE
 72
     1
 11
215.2425678711688
 21
136.6900507331281
 31
0.0
100
AcDbText
  0
TEXT
  5
12D3C
330
17
100
AcDbEntity
  8
TEXT
100
AcDbText
 10
211.3419730622287
 20
140.3597124016216
 30
0.0
 40
1.75
  1
15-3/4"
  7
WEB PAGE
 72
     1
 11
215.2425678711688
 21
140.3597124016216
 31
0.0
100
AcDbText
  0
TEXT
  5
12D3D
330
17
100
AcDbEntity
  8
TEXT
100
AcDbText
 10
208.0753207097767
 20
150.774344695986
 30
0.0
 40
1.75
  1
MINIMUM
  7
WEB PAGE
 72
     1
 11
214.2482659152562
 21
150.774344695986
 31
0.0
100
AcDbText
  0
TEXT
  5
12D3E
330
17
100
AcDbEntity
  8
TEXT
100
AcDbText
 10
206.7833235936989
 20
147.7285057336141
 30
0.0
 40
1.75
  1
HEADROOM
  7
WEB PAGE
 72
     1
 11
214.2482659152562
 21
147.7285057336141
 31
0.0
100
AcDbText
  0
LINE
  5
12D3F
330
17
100
AcDbEntity
  8
TEXT
100
AcDbLine
 10
223.9544888086568
 20
142.9419811161364
 30
0.0
 11
185.2488330147151
 21
142.9419811161364
 31
0.0
  0
LINE
  5
12D40
330
17
100
AcDbEntity
  8
TEXT
100
AcDbLine
 10
223.9544888086568
 20
139.3083713151683
 30
0.0
 11
185.2488330147151
 21
139.3083713151682
 31
0.0
  0
LINE
  5
12D41
330
17
100
AcDbEntity
  8
TEXT
100
AcDbLine
 10
223.9544888086568
 20
135.6747615142002
 30
0.0
 11
185.2488330147151
 21
135.6747615142001
 31
0.0
  0
LINE
  5
12D42
330
17
100
AcDbEntity
  8
TEXT
100
AcDbLine
 10
185.2488330147151
 20
163.6977251817573
 30
0.0
 11
223.9544888086568
 21
163.6977251817572
 31
0.0
  0
LINE
  5
12D43
330
17
100
AcDbEntity
  8
TEXT
100
AcDbLine
 10
185.2488330147151
 20
153.4592007180728
 30
0.0
 11
185.2488330147151
 21
163.6977251817573
 31
0.0
  0
LINE
  5
12D44
330
17
100
AcDbEntity
  8
TEXT
100
AcDbLine
 10
223.9544888086568
 20
153.4592007180728
 30
0.0
 11
223.9544888086568
 21
163.6977251817572
 31
0.0
  0
LINE
  5
12D45
330
17
100
AcDbEntity
  8
TEXT
100
AcDbLine
 10
228.8517254028465
 20
153.4592007180728
 30
0.0
 11
276.2054773991949
 21
153.4592007180728
 31
0.0
  0
LINE
  5
12D46
330
17
100
AcDbEntity
  8
TEXT
100
AcDbLine
 10
276.2054773991949
 20
139.3083713151684
 30
0.0
 11
228.8517254028465
 21
139.3083713151683
 31
0.0
  0
LINE
  5
12D47
330
17
100
AcDbEntity
  8
TEXT
100
AcDbLine
 10
276.2054773991949
 20
142.9419811161365
 30
0.0
 11
228.8517254028465
 21
142.9419811161365
 31
0.0
  0
LINE
  5
12D48
330
17
100
AcDbEntity
  8
TEXT
100
AcDbLine
 10
276.2054773991949
 20
146.5755909171047
 30
0.0
 11
228.8517254028465
 21
146.5755909171046
 31
0.0
  0
LINE
  5
12D49
330
17
100
AcDbEntity
  8
TEXT
100
AcDbLine
 10
228.8517254028465
 20
163.6977251817573
 30
0.0
 11
276.2054773991949
 21
163.6977251817572
 31
0.0
  0
LINE
  5
12D4A
330
17
100
AcDbEntity
  8
TEXT
100
AcDbLine
 10
228.8517254028465
 20
150.2092007180728
 30
0.0
 11
276.2054773991949
 21
150.2092007180728
 31
0.0
  0
LINE
  5
12D4B
330
17
100
AcDbEntity
  8
TEXT
100
AcDbLine
 10
276.2054773991949
 20
135.6747615142003
 30
0.0
 11
228.8517254028465
 21
135.6747615142002
 31
0.0
  0
LINE
  5
12D4C
330
17
100
AcDbEntity
  8
TEXT
100
AcDbLine
 10
228.8517254028465
 20
135.6747615142002
 30
0.0
 11
228.8517254028465
 21
153.4592007180728
 31
0.0
  0
TEXT
  5
12D4D
330
17
100
AcDbEntity
  8
TEXT
100
AcDbText
 10
189.0157668421515
 20
128.5456130379044
 30
0.0
 40
1.75
  1
* ADD 4" FOR OPERATOR.
  7
WEB PAGE
 72
     1
 11
204.5821871738026
 21
128.5456130379044
 31
0.0
100
AcDbText
  0
LINE
  5
12D4E
330
17
100
AcDbEntity
  8
TEXT
100
AcDbLine
 10
228.8517254028465
 20
153.4592007180728
 30
0.0
 11
228.8517254028465
 21
163.6977251817573
 31
0.0
  0
TEXT
  5
12D4F
330
17
100
AcDbEntity
  8
TEXT
100
AcDbText
 10
233.0947499900041
 20
150.8836327308535
 30
0.0
 40
1.75
  1
DRUM
  7
WEB PAGE
 72
     1
 11
236.9713721962045
 21
150.8836327308535
 31
0.0
100
AcDbText
  0
TEXT
  5
12D50
330
17
100
AcDbEntity
  8
TEXT
100
AcDbText
 10
254.568147219158
 20
150.8836327308535
 30
0.0
 40
1.75
  1
FORMULA
  7
WEB PAGE
 72
     1
 11
260.8855588990426
 21
150.8836327308535
 31
0.0
100
AcDbText
  0
LINE
  5
12D51
330
17
100
AcDbEntity
  8
TEXT
100
AcDbLine
 10
245.5656403988903
 20
153.4592007180728
 30
0.0
 11
245.5656403988903
 21
135.6747615142002
 31
0.0
  0
TEXT
  5
12D52
330
17
100
AcDbEntity
  8
TEXT
100
AcDbText
 10
231.9694074863047
 20
140.2654520044397
 30
0.0
 40
1.75
  1
D525-216
  7
WEB PAGE
 72
     1
 11
237.2086829008684
 21
140.2654520044397
 31
0.0
100
AcDbText
  0
TEXT
  5
12D53
330
17
100
AcDbEntity
  8
TEXT
100
AcDbText
 10
231.9694074863047
 20
136.4629734167841
 30
0.0
 40
1.75
  1
D800-384
  7
WEB PAGE
 72
     1
 11
237.2086829008684
 21
136.4629734167841
 31
0.0
100
AcDbText
  0
TEXT
  5
12D54
330
17
100
AcDbEntity
  8
TEXT
100
AcDbText
 10
232.6154060443435
 20
147.396856281956
 30
0.0
 40
1.75
  1
D400-96
  7
WEB PAGE
 72
     1
 11
237.2086829008684
 21
147.396856281956
 31
0.0
100
AcDbText
  0
TEXT
  5
12D55
330
17
100
AcDbEntity
  8
TEXT
100
AcDbText
 10
231.9694074863047
 20
143.9100798330587
 30
0.0
 40
1.75
  1
D400-144
  7
WEB PAGE
 72
     1
 11
237.2086829008684
 21
143.9100798330587
 31
0.0
100
AcDbText
  0
TEXT
  5
12D56
330
17
100
AcDbEntity
  8
TEXT
100
AcDbText
 10
251.9740592595329
 20
140.2654520044397
 30
0.0
 40
1.75
  1
F= DH + 12-1/4"
  7
WEB PAGE
 72
     1
 11
260.8855588990426
 21
140.2654520044397
 31
0.0
100
AcDbText
  0
TEXT
  5
12D57
330
17
100
AcDbEntity
  8
TEXT
100
AcDbText
 10
254.0552596921212
 20
136.4629734167841
 30
0.0
 40
1.75
  1
F= DH + 14"
  7
WEB PAGE
 72
     1
 11
260.8855588990426
 21
136.4629734167841
 31
0.0
100
AcDbText
  0
TEXT
  5
12D58
330
17
100
AcDbEntity
  8
TEXT
100
AcDbText
 10
251.9740592595329
 20
147.396856281956
 30
0.0
 40
1.75
  1
F= DH + 12-1/4"
  7
WEB PAGE
 72
     1
 11
260.8855588990426
 21
147.396856281956
 31
0.0
100
AcDbText
  0
TEXT
  5
12D59
330
17
100
AcDbEntity
  8
TEXT
100
AcDbText
 10
251.9740592595329
 20
143.9100798330587
 30
0.0
 40
1.75
  1
F= DH + 12-1/4"
  7
WEB PAGE
 72
     1
 11
260.8855588990426
 21
143.9100798330587
 31
0.0
100
AcDbText
  0
MTEXT
  5
12D5A
330
17
100
AcDbEntity
  8
TEXT
100
AcDbMText
 10
252.5286014010206
 20
162.4842478095876
 30
0.0
 40
2.6
 41
37.3125
 46
0.0
 71
     2
 72
     5
  1
FLOOR TO SHAFT\PCENTER DISTANCE
  7
WEB PAGE
 73
     1
 44
1.0
  0
LINE
  5
12D5B
330
17
100
AcDbEntity
  8
TEXT
100
AcDbLine
 10
276.2054773991949
 20
153.4592007180728
 30
0.0
 11
276.2054773991949
 21
135.6747615142003
 31
0.0
  0
LINE
  5
12D5C
330
17
100
AcDbEntity
  8
TEXT
100
AcDbLine
 10
276.2054773991949
 20
153.4592007180728
 30
0.0
 11
276.2054773991949
 21
163.6977251817572
 31
0.0
  0
TEXT
  5
12D5D
330
17
100
AcDbEntity
  8
TEXT
100
AcDbText
 10
230.7841389133872
 20
131.7531564491725
 30
0.0
 40
1.75
  1
DH = DOOR HEIGHT
  7
WEB PAGE
 72
     1
 11
242.8164929148292
 21
131.7531564491725
 31
0.0
100
AcDbText
  0
LINE
  5
12D5E
330
17
100
AcDbEntity
  8
TEXT
100
AcDbLine
 10
223.9544888086568
 20
132.041151713232
 30
0.0
 11
185.2488330147151
 21
132.041151713232
 31
0.0
  0
TEXT
  5
12D5F
330
17
100
AcDbEntity
  8
TEXT
100
AcDbText
 10
189.5997799843447
 20
132.9627654277919
 30
0.0
 40
1.75
  1
18'3" - 20'
  7
WEB PAGE
 72
     1
 11
194.8989869057578
 21
132.9627654277919
 31
0.0
100
AcDbText
  0
TEXT
  5
12D60
330
17
100
AcDbEntity
  8
TEXT
100
AcDbText
 10
213.423173494817
 20
133.0564409321599
 30
0.0
 40
1.75
  1
19"
  7
WEB PAGE
 72
     1
 11
215.2425678711688
 21
133.0564409321599
 31
0.0
100
AcDbText
  0
VIEWPORT
  5
C943
330
14
100
AcDbEntity
 67
     1
  8
0
100
AcDbViewport
 10
4.080081464447681
 20
4.889916548937877
 30
0.0
 40
14.22987388085416
 41
9.22504772894138
 68
     1
 69
     1
 12
4.080081464447681
 22
4.889916548937877
 13
0.0
 23
0.0
 14
0.5
 24
0.5
 15
0.5
 25
0.5
 16
0.0
 26
0.0
 36
1.0
 17
0.0
 27
0.0
 37
0.0
 42
50.0
 43
0.0
 44
0.0
 45
9.22504772894138
 50
0.0
 51
0.0
 72
   100
 90
    32800
  1

281
     0
 71
     1
 74
     0
110
0.0
120
0.0
130
0.0
111
1.0
121
0.0
131
0.0
112
0.0
122
1.0
132
0.0
 79
     0
146
0.0
170
     0
 61
     5
348
12CE7
292
     1
282
     1
141
0.0
142
0.0
 63
   250
421
  3355443
  0
VIEWPORT
  5
12C6E
330
14
100
AcDbEntity
 67
     1
  8
Defpoints
100
AcDbViewport
 10
4.079851608255295
 20
4.890190567687667
 30
0.0
 40
7.601638999290879
 41
9.153716166442118
 68
     2
 69
     2
 12
172.6073756917933
 22
193.2861247705749
 13
0.0
 23
0.0
 14
1.0
 24
1.0
 15
0.25
 25
0.25
 16
0.0
 26
0.0
 36
1.0
 17
0.0
 27
0.0
 37
0.0
 42
50.0
 43
0.0
 44
0.0
 45
279.8105253681782
 50
0.0
 51
0.0
 72
   100
 90
    32768
  1

281
     0
 71
     1
 74
     0
110
0.0
120
0.0
130
0.0
111
1.0
121
0.0
131
0.0
112
0.0
122
1.0
132
0.0
 79
     0
146
0.0
170
     0
 61
     5
348
12CE7
292
     1
282
     1
141
0.0
142
0.0
 63
   250
421
  3355443
  0
ENDSEC
  0
SECTION
  2
OBJECTS
  0
DICTIONARY
  5
C
330
0
100
AcDbDictionary
281
     1
  3
ACAD_COLOR
350
12CF2
  3
ACAD_GROUP
350
D
  3
ACAD_LAYOUT
350
B57A
  3
ACAD_MATERIAL
350
12CDD
  3
ACAD_MLINESTYLE
350
1A
  3
ACAD_PLOTSETTINGS
350
B57B
  3
ACAD_PLOTSTYLENAME
350
B578
  3
ACAD_TABLESTYLE
350
12CF3
  3
ACAD_VISUALSTYLE
350
12CE1
  3
AcadDim
350
119E2
  3
ACDBVARIABLEDICTIONARY
350
59
  0
DICTIONARY
  5
12E10
330
8
100
AcDbDictionary
280
     1
281
     1
  0
DICTIONARY
  5
12DF9
330
2
100
AcDbDictionary
280
     1
281
     1
  3
ACAD_LAYERSTATES
360
12DFA
  0
DICTIONARY
  5
12CF2
102
{ACAD_REACTORS
330
C
102
}
330
C
100
AcDbDictionary
281
     1
  0
DICTIONARY
  5
D
102
{ACAD_REACTORS
330
C
102
}
330
C
100
AcDbDictionary
281
     1
  0
DICTIONARY
  5
B57A
102
{ACAD_REACTORS
330
C
102
}
330
C
100
AcDbDictionary
281
     1
  3
Layout1
350
B57D
  3
Model
350
B57C
  0
DICTIONARY
  5
12CDD
102
{ACAD_REACTORS
330
C
102
}
330
C
100
AcDbDictionary
281
     1
  3
ByBlock
350
12CDF
  3
ByLayer
350
12CDE
  3
Global
350
12CE0
  0
DICTIONARY
  5
1A
102
{ACAD_REACTORS
330
C
102
}
330
C
100
AcDbDictionary
281
     1
  3
STANDARD
350
1B
  0
DICTIONARY
  5
B57B
102
{ACAD_REACTORS
330
C
102
}
330
C
100
AcDbDictionary
281
     1
  0
ACDBDICTIONARYWDFLT
  5
B578
102
{ACAD_REACTORS
330
C
102
}
330
C
100
AcDbDictionary
281
     1
  3
Normal
350
B579
100
AcDbDictionaryWithDefault
340
B579
  0
DICTIONARY
  5
12CF3
102
{ACAD_REACTORS
330
C
102
}
330
C
100
AcDbDictionary
281
     1
  3
Standard
350
12CF4
  0
DICTIONARY
  5
12CE1
102
{ACAD_REACTORS
330
C
102
}
330
C
100
AcDbDictionary
281
     1
  3
2dWireframe
350
12CE7
  3
3D Hidden
350
12CE9
  3
3dWireframe
350
12CE8
  3
Basic
350
12CE6
  3
Brighten
350
12CED
  3
ColorChange
350
12CF1
  3
Conceptual
350
12CEA
  3
Dim
350
12CEC
  3
Facepattern
350
12CF0
  3
Flat
350
12CE2
  3
FlatWithEdges
350
12CE3
  3
Gouraud
350
12CE4
  3
GouraudWithEdges
350
12CE5
  3
Linepattern
350
12CEF
  3
Realistic
350
12CEB
  3
Thicken
350
12CEE
  0
XRECORD
  5
119E2
102
{ACAD_REACTORS
330
C
102
}
330
C
100
AcDbXrecord
280
     1
 90
   990106
  3

 60
     0
 61
     0
 62
     1
 63
     3
 64
     0
 65
     0
 66
     0
 67
     3
 68
     1
 69
     0
 70
     0
 71
     0
 72
     0
 40
0.0
170
     0
340
0
  0
DICTIONARY
  5
59
102
{ACAD_REACTORS
330
C
102
}
330
C
100
AcDbDictionary
281
     1
  3
CTABLESTYLE
350
12D61
  3
DIMADEC
350
5A
  3
SORTENTS
350
769A
  0
DICTIONARY
  5
12DFA
102
{ACAD_REACTORS
330
12DF9
102
}
330
12DF9
100
AcDbDictionary
281
     1
  0
LAYOUT
  5
B57D
102
{ACAD_XDICTIONARY
360
12E0D
102
}
102
{ACAD_REACTORS
330
B57A
102
}
330
B57A
100
AcDbPlotSettings
  1

  2
Acrobat PDFWriter
  4
Letter
  6

 40
7.143749713897705
 41
7.143756389617919
 42
7.14373779296875
 43
7.14373779296875
 44
215.8999938964844
 45
279.3999938964844
 46
0.254
 47
0.508
 48
0.0
 49
0.0
140
0.0
141
0.0
142
1.0
143
1.0
 70
   692
 72
     0
 73
     0
 74
     1
  7

 75
    16
147
1.0
 76
     0
 77
     2
 78
   300
148
-3.419494638048143
149
-4.284743497285657
100
AcDbLayout
  1
Layout1
 70
     1
 71
     1
 10
-0.1566242155846284
 20
-0.1325595626902465
 11
8.34337554411948
 21
10.86744019701386
 12
0.0
 22
0.0
 32
0.0
 14
0.2789074086114169
 24
0.3127376949229017
 34
-0.0000000000000053
 15
7.881255520283946
 25
9.467095402952853
 35
0.0000000000000099
146
0.0
 13
0.0
 23
0.0
 33
0.0
 16
1.0
 26
0.0
 36
0.0
 17
0.0
 27
1.0
 37
0.0
 76
     0
330
14
331
C943
  0
LAYOUT
  5
B57C
102
{ACAD_REACTORS
330
B57A
102
}
330
B57A
100
AcDbPlotSettings
  1

  2
\\AMARR\PMKT1 Marketing HP-8100DN LaserJet.Corp.Amarr
  4
Letter
  6

 40
4.233333110809326
 41
4.233341693878173
 42
4.233322143554687
 43
4.23333740234375
 44
215.8999938964844
 45
279.3999938964844
 46
22.606
 47
0.0
 48
139.3684830884462
 49
213.5442578355003
140
281.5818113799604
141
346.2220205485337
142
1.0
143
27.09706494155922
 70
 11956
 72
     0
 73
     1
 74
     1
  7

 75
     0
147
0.036904365921428
 76
     0
 77
     2
 78
   300
148
-1239.687903291097
149
-2585.84688360324
100
AcDbLayout
  1
Model
 70
     1
 71
     0
 10
0.0
 20
0.0
 11
12.0
 21
9.0
 12
0.0
 22
0.0
 32
0.0
 14
0.0
 24
0.0
 34
0.0
 15
0.0
 25
0.0
 35
0.0
146
0.0
 13
0.0
 23
0.0
 33
0.0
 16
1.0
 26
0.0
 36
0.0
 17
0.0
 27
1.0
 37
0.0
 76
     0
330
17
331
12CDB
  0
MATERIAL
  5
12CDF
102
{ACAD_REACTORS
330
12CDD
102
}
330
12CDD
100
AcDbMaterial
  1
ByBlock
  0
MATERIAL
  5
12CDE
102
{ACAD_REACTORS
330
12CDD
102
}
330
12CDD
100
AcDbMaterial
  1
ByLayer
  0
MATERIAL
  5
12CE0
102
{ACAD_REACTORS
330
12CDD
102
}
330
12CDD
100
AcDbMaterial
  1
Global
  0
MLINESTYLE
  5
1B
102
{ACAD_REACTORS
330
1A
102
}
330
1A
100
AcDbMlineStyle
  2
STANDARD
 70
     0
  3

 62
   256
 51
90.0
 52
90.0
 71
     2
 49
0.5
 62
   256
  6
BYLAYER
 49
-0.5
 62
   256
  6
BYLAYER
  0
ACDBPLACEHOLDER
  5
B579
102
{ACAD_REACTORS
330
B578
102
}
330
B578
  0
TABLESTYLE
  5
12CF4
102
{ACAD_REACTORS
330
12CF3
102
}
330
12CF3
100
AcDbTableStyle
  3
Standard
 70
     0
 71
     0
 40
0.06
 41
0.06
280
     0
281
     0
  7
STANDARD
140
0.18
170
     2
 62
     0
 63
     7
283
     0
 90
      512
 91
        0
  1

274
    -2
284
     1
 64
     0
275
    -2
285
     1
 65
     0
276
    -2
286
     1
 66
     0
277
    -2
287
     1
 67
     0
278
    -2
288
     1
 68
     0
279
    -2
289
     1
 69
     0
  7
STANDARD
140
0.25
170
     5
 62
     0
 63
     7
283
     0
 90
      512
 91
        0
  1

274
    -2
284
     1
 64
     0
275
    -2
285
     1
 65
     0
276
    -2
286
     1
 66
     0
277
    -2
287
     1
 67
     0
278
    -2
288
     1
 68
     0
279
    -2
289
     1
 69
     0
  7
STANDARD
140
0.18
170
     5
 62
     0
 63
     7
283
     0
 90
      512
 91
        0
  1

274
    -2
284
     1
 64
     0
275
    -2
285
     1
 65
     0
276
    -2
286
     1
 66
     0
277
    -2
287
     1
 67
     0
278
    -2
288
     1
 68
     0
279
    -2
289
     1
 69
     0
  0
VISUALSTYLE
  5
12CE7
102
{ACAD_REACTORS
330
12CE1
102
}
330
12CE1
100
AcDbVisualStyle
  2
2dWireframe
 70
     4
 71
     0
 72
     2
 73
     0
 90
        0
 40
-0.6
 41
-30.0
 62
     5
 63
     7
421
 16777215
 74
     1
 91
        4
 64
     7
 65
   257
 75
     1
175
     1
 42
1.0
 92
        0
 66
   257
 43
1.0
 76
     1
 77
     6
 78
     2
 67
     7
 79
     5
170
     0
171
     0
290
     0
174
     0
 93
        1
 44
0.0
173
     0
291
     0
 45
0.0
  0
VISUALSTYLE
  5
12CE9
102
{ACAD_REACTORS
330
12CE1
102
}
330
12CE1
100
AcDbVisualStyle
  2
3D Hidden
 70
     6
 71
     1
 72
     2
 73
     2
 90
        0
 40
-0.6
 41
-30.0
 62
     5
 63
     7
421
 16777215
 74
     2
 91
        2
 64
     7
 65
   257
 75
     2
175
     1
 42
40.0
 92
        0
 66
   257
 43
1.0
 76
     1
 77
     6
 78
     2
 67
     7
 79
     3
170
     0
171
     0
290
     0
174
     0
 93
        1
 44
0.0
173
     0
291
     0
 45
0.0
  0
VISUALSTYLE
  5
12CE8
102
{ACAD_REACTORS
330
12CE1
102
}
330
12CE1
100
AcDbVisualStyle
  2
3dWireframe
 70
     5
 71
     0
 72
     2
 73
     0
 90
        0
 40
-0.6
 41
-30.0
 62
     5
 63
     7
421
 16777215
 74
     1
 91
        4
 64
     7
 65
   257
 75
     1
175
     1
 42
1.0
 92
        0
 66
   257
 43
1.0
 76
     1
 77
     6
 78
     2
 67
     7
 79
     5
170
     0
171
     0
290
     0
174
     0
 93
        1
 44
0.0
173
     0
291
     0
 45
0.0
  0
VISUALSTYLE
  5
12CE6
102
{ACAD_REACTORS
330
12CE1
102
}
330
12CE1
100
AcDbVisualStyle
  2
Basic
 70
     7
 71
     1
 72
     0
 73
     1
 90
        0
 40
-0.6
 41
-30.0
 62
     5
 63
     7
421
 16777215
 74
     0
 91
        4
 64
     7
 65
   257
 75
     1
175
     1
 42
1.0
 92
        8
 66
     7
 43
1.0
 76
     1
 77
     6
 78
     2
 67
     7
 79
     5
170
     0
171
     0
290
     0
174
     0
 93
        1
 44
0.0
173
     0
291
     1
 45
0.0
  0
VISUALSTYLE
  5
12CED
102
{ACAD_REACTORS
330
12CE1
102
}
330
12CE1
100
AcDbVisualStyle
  2
Brighten
 70
    12
 71
     2
 72
     2
 73
     0
 90
        0
 40
-0.6
 41
-30.0
 62
     5
 63
     7
421
 16777215
 74
     1
 91
        4
 64
     7
 65
   257
 75
     1
175
     1
 42
1.0
 92
        8
 66
     7
 43
1.0
 76
     1
 77
     6
 78
     2
 67
     7
 79
     5
170
     0
171
     0
290
     0
174
     0
 93
        1
 44
50.0
173
     0
291
     1
 45
0.0
  0
VISUALSTYLE
  5
12CF1
102
{ACAD_REACTORS
330
12CE1
102
}
330
12CE1
100
AcDbVisualStyle
  2
ColorChange
 70
    16
 71
     2
 72
     2
 73
     3
 90
        0
 40
-0.6
 41
-30.0
 62
     5
 63
     8
421
  8421504
 74
     1
 91
        4
 64
     7
 65
   257
 75
     1
175
     1
 42
1.0
 92
        8
 66
     8
424
  8421504
 43
1.0
 76
     1
 77
     6
 78
     2
 67
     7
 79
     5
170
     0
171
     0
290
     0
174
     0
 93
        1
 44
0.0
173
     0
291
     1
 45
0.0
  0
VISUALSTYLE
  5
12CEA
102
{ACAD_REACTORS
330
12CE1
102
}
330
12CE1
100
AcDbVisualStyle
  2
Conceptual
 70
     9
 71
     3
 72
     2
 73
     0
 90
        0
 40
-0.6
 41
-30.0
 62
     5
 63
     7
421
 16777215
 74
     2
 91
        2
 64
     7
 65
   257
 75
     1
175
     1
 42
40.0
 92
        8
 66
     7
 43
1.0
 76
     1
 77
     6
 78
     2
 67
     7
 79
     3
170
     0
171
     0
290
     0
174
     0
 93
        1
 44
0.0
173
     0
291
     0
 45
0.0
  0
VISUALSTYLE
  5
12CEC
102
{ACAD_REACTORS
330
12CE1
102
}
330
12CE1
100
AcDbVisualStyle
  2
Dim
 70
    11
 71
     2
 72
     2
 73
     0
 90
        0
 40
-0.6
 41
-30.0
 62
     5
 63
     7
421
 16777215
 74
     1
 91
        4
 64
     7
 65
   257
 75
     1
175
     1
 42
1.0
 92
        8
 66
     7
 43
1.0
 76
     1
 77
     6
 78
     2
 67
     7
 79
     5
170
     0
171
     0
290
     0
174
     0
 93
        1
 44
-50.0
173
     0
291
     1
 45
0.0
  0
VISUALSTYLE
  5
12CF0
102
{ACAD_REACTORS
330
12CE1
102
}
330
12CE1
100
AcDbVisualStyle
  2
Facepattern
 70
    15
 71
     2
 72
     2
 73
     0
 90
        0
 40
-0.6
 41
-30.0
 62
     5
 63
     7
421
 16777215
 74
     1
 91
        4
 64
     7
 65
   257
 75
     1
175
     1
 42
1.0
 92
        8
 66
     7
 43
1.0
 76
     1
 77
     6
 78
     2
 67
     7
 79
     5
170
     0
171
     0
290
     0
174
     0
 93
        1
 44
0.0
173
     0
291
     1
 45
0.0
  0
VISUALSTYLE
  5
12CE2
102
{ACAD_REACTORS
330
12CE1
102
}
330
12CE1
100
AcDbVisualStyle
  2
Flat
 70
     0
 71
     2
 72
     1
 73
     1
 90
        2
 40
-0.6
 41
30.0
 62
     5
 63
     7
421
 16777215
 74
     0
 91
        4
 64
     7
 65
   257
 75
     1
175
     1
 42
1.0
 92
        8
 66
     7
 43
1.0
 76
     1
 77
     6
 78
     2
 67
     7
 79
     5
170
     0
171
     0
290
     0
174
     0
 93
       13
 44
0.0
173
     0
291
     1
 45
0.0
  0
VISUALSTYLE
  5
12CE3
102
{ACAD_REACTORS
330
12CE1
102
}
330
12CE1
100
AcDbVisualStyle
  2
FlatWithEdges
 70
     1
 71
     2
 72
     1
 73
     1
 90
        2
 40
-0.6
 41
30.0
 62
     5
 63
     7
421
 16777215
 74
     1
 91
        4
 64
     7
 65
   257
 75
     1
175
     1
 42
1.0
 92
        0
 66
   257
 43
1.0
 76
     1
 77
     6
 78
     2
 67
     7
 79
     5
170
     0
171
     0
290
     0
174
     0
 93
       13
 44
0.0
173
     0
291
     1
 45
0.0
  0
VISUALSTYLE
  5
12CE4
102
{ACAD_REACTORS
330
12CE1
102
}
330
12CE1
100
AcDbVisualStyle
  2
Gouraud
 70
     2
 71
     2
 72
     2
 73
     1
 90
        2
 40
-0.6
 41
30.0
 62
     5
 63
     7
421
 16777215
 74
     0
 91
        4
 64
     7
 65
   257
 75
     1
175
     1
 42
1.0
 92
        0
 66
     7
 43
1.0
 76
     1
 77
     6
 78
     2
 67
     7
 79
     5
170
     0
171
     0
290
     0
174
     0
 93
       13
 44
0.0
173
     0
291
     1
 45
0.0
  0
VISUALSTYLE
  5
12CE5
102
{ACAD_REACTORS
330
12CE1
102
}
330
12CE1
100
AcDbVisualStyle
  2
GouraudWithEdges
 70
     3
 71
     2
 72
     2
 73
     1
 90
        2
 40
-0.6
 41
30.0
 62
     5
 63
     7
421
 16777215
 74
     1
 91
        4
 64
     7
 65
   257
 75
     1
175
     1
 42
1.0
 92
        0
 66
   257
 43
1.0
 76
     1
 77
     6
 78
     2
 67
     7
 79
     5
170
     0
171
     0
290
     0
174
     0
 93
       13
 44
0.0
173
     0
291
     1
 45
0.0
  0
VISUALSTYLE
  5
12CEF
102
{ACAD_REACTORS
330
12CE1
102
}
330
12CE1
100
AcDbVisualStyle
  2
Linepattern
 70
    14
 71
     2
 72
     2
 73
     0
 90
        0
 40
-0.6
 41
-30.0
 62
     5
 63
     7
421
 16777215
 74
     1
 91
        4
 64
     7
 65
   257
 75
     7
175
     7
 42
1.0
 92
        8
 66
     7
 43
1.0
 76
     1
 77
     6
 78
     2
 67
     7
 79
     5
170
     0
171
     0
290
     0
174
     0
 93
        1
 44
0.0
173
     0
291
     1
 45
0.0
  0
VISUALSTYLE
  5
12CEB
102
{ACAD_REACTORS
330
12CE1
102
}
330
12CE1
100
AcDbVisualStyle
  2
Realistic
 70
     8
 71
     2
 72
     2
 73
     0
 90
        0
 40
-0.6
 41
-30.0
 62
     5
 63
     7
421
 16777215
 74
     1
 91
        0
 64
     7
 65
   257
 75
     1
175
     1
 42
1.0
 92
        8
 66
     8
424
  7895160
 43
1.0
 76
     1
 77
     6
 78
     2
 67
     7
 79
     5
170
     0
171
     0
290
     0
174
     0
 93
       13
 44
0.0
173
     0
291
     0
 45
0.0
  0
VISUALSTYLE
  5
12CEE
102
{ACAD_REACTORS
330
12CE1
102
}
330
12CE1
100
AcDbVisualStyle
  2
Thicken
 70
    13
 71
     2
 72
     2
 73
     0
 90
        0
 40
-0.6
 41
-30.0
 62
     5
 63
     7
421
 16777215
 74
     1
 91
        4
 64
     7
 65
   257
 75
     1
175
     1
 42
1.0
 92
       12
 66
     7
 43
1.0
 76
     1
 77
     6
 78
     2
 67
     7
 79
     5
170
     0
171
     0
290
     0
174
     0
 93
        1
 44
0.0
173
     0
291
     1
 45
0.0
  0
DICTIONARYVAR
  5
12D61
102
{ACAD_REACTORS
330
59
102
}
330
59
100
DictionaryVariables
280
     0
  1
STANDARD
  0
DICTIONARYVAR
  5
5A
102
{ACAD_REACTORS
330
59
102
}
330
59
100
DictionaryVariables
280
     0
  1
0
  0
DICTIONARYVAR
  5
769A
102
{ACAD_REACTORS
330
59
102
}
330
59
100
DictionaryVariables
280
     0
  1
96
  0
DICTIONARY
  5
12E0D
330
B57D
100
AcDbDictionary
280
     1
281
     1
  3
ADSK_XREC_LAYOUTTHUMBNAIL
360
12E0E
  0
XRECORD
  5
12E0E
102
{ACAD_REACTORS
330
12E0D
102
}
330
12E0D
100
AcDbXrecord
280
     1
310
280000006C0000008C0000000100080000000000103B0000000000000000000000010000000000000000000000000000FFFFFF000000000000000000000000000000000000000000000000000000000000000000330000006600000099000000CC000000FF00000000330000333300006633000099330000CC330000FF3300
310
0000660000336600006666000099660000CC660000FF66000000990000339900006699000099990000CC990000FF99000000CC000033CC000066CC000099CC0000CCCC0000FFCC000000FF000033FF000066FF000099FF0000CCFF0000FFFF000000003300330033006600330099003300CC003300FF003300003333003333
310
33006633330099333300CC333300FF33330000663300336633006666330099663300CC663300FF66330000993300339933006699330099993300CC993300FF99330000CC330033CC330066CC330099CC3300CCCC3300FFCC330000FF330033FF330066FF330099FF3300CCFF3300FFFF330000006600330066006600660099
310
006600CC006600FF00660000336600333366006633660099336600CC336600FF33660000666600336666006666660099666600CC666600FF66660000996600339966006699660099996600CC996600FF99660000CC660033CC660066CC660099CC6600CCCC6600FFCC660000FF660033FF660066FF660099FF6600CCFF6600
310
FFFF660000009900330099006600990099009900CC009900FF00990000339900333399006633990099339900CC339900FF33990000669900336699006666990099669900CC669900FF66990000999900339999006699990099999900CC999900FF99990000CC990033CC990066CC990099CC9900CCCC9900FFCC990000FF99
310
0033FF990066FF990099FF9900CCFF9900FFFF99000000CC003300CC006600CC009900CC00CC00CC00FF00CC000033CC003333CC006633CC009933CC00CC33CC00FF33CC000066CC003366CC006666CC009966CC00CC66CC00FF66CC000099CC003399CC006699CC009999CC00CC99CC00FF99CC0000CCCC0033CCCC0066CC
310
CC0099CCCC00CCCCCC00FFCCCC0000FFCC0033FFCC0066FFCC0099FFCC00CCFFCC00FFFFCC000000FF003300FF006600FF009900FF00CC00FF00FF00FF000033FF003333FF006633FF009933FF00CC33FF00FF33FF000066FF003366FF006666FF009966FF00CC66FF00FF66FF000099FF003399FF006699FF009999FF00CC
310
99FF00FF99FF0000CCFF0033CCFF0066CCFF0099CCFF00CCCCFF00FFCCFF0000FFFF0033FFFF0066FFFF0099FFFF00CCFFFF00FFFFFF00000000000D0D0D001A1A1A00282828003535350043434300505050005D5D5D006B6B6B00787878008686860093939300A1A1A100AEAEAE00BBBBBB00C9C9C900D6D6D600E4E4E400
310
F1F1F100FFFFFF0000000000000000000000000000000000000000000000000000000000000000000000000000000000F5F5F5F5F5F5F5F5F5F5F5F5F5F5F5F5F5F5F5F5F5F5F5F5F5F5F5F5F5F5F5F5F5F5F5F5F5F5F5F5F5F5F5F5F5F5F5F5F5F5F5F5F5F5F5F5F5F5F5F5F5F5F5F5F5F5F5F5F5F5F5F5F5F5F5F5F5F5F5
310
F5F5F5F5F5F5F5F5F5F5F5F5F5F5F5F5F5F5F5F5F5F5F5F5F5F5F5F5F5F5E2E2E2E2E2E2E2E2E2E2E2E2E2E2E2E2E2E2E2E2E2E2E2E2E2E2E2E2E2E2E2E2E2E2E2E2E2E2E2E2E2E2E2E2E2E2E2E2E2E2E2E2E2E2E2E2E2E2E2E2E2E2E2E2E2E2E2E2E2E2E2E2E2E2E2E2E2E2E2E2E2E2E2E2E2E2E2E2E2E2E2E2E2E2E2E2E2
310
E2E2E2E2E2E2E2E2E2F5F5E2E2E2E2E2E2E2E2E2E2E2E2E2E2E2E2E2E2E2E2E2E2E2E2E2E2E2E2E2E2E2E2E2E2E2E2E2E2E2E2E2E2E2E2E2E2E2E2E2E2E2E2E2E2E2E2E2E2E2E2E2E2E2E2E2E2E2E2E2E2E2E2E2E2E2E2E2E2E2E2E2E2E2E2E2E2E2E2E2E2E2E2E2E2E2E2E2E2E2E2E2E2E2E2E2E2F5F5E2E2E2E2E2E2E2E2
310
E2E2E2E2E2E2E2E2E2E2E2E2E2E2E2E2E2E2E2E2E2E2E2E2E2E2E2E2E2E2E2E2E2E2E2E2E2E2E2E2E2E2E2E2E2E2E2E2E2E2E2E2E2E2E2E2E2E2E2E2E2E2E2E2E2E2E2E2E2E2E2E2E2E2E2E2E2E2E2E2E2E2E2E2E2E2E2E2E2E2E2E2E2E2E2E2E2E2F5F5E2E2F5F5F5F5F5F5F5F5F5E2E2E2E2E2E2E2E2E2F5F5F5F5F5F5F5
310
F5F5F5F5F5F5F5F5F5E2E2E2E2E2E2E2E2E2F5F5F5F5F5F5F5F5F5F5F5F5F5F5F5F5E2E2E2E2E2E2E2E2E2F5F5F5F5F5F5F5F5F5F5F5F5F5F5F5F5E2E2E2E2E2E2E2E2E2F5F5F5F5F5F5F5F5F5E2E2F5F5E2E2F5E2E2E2E2E2E2E2E2E2E2E2E2E2E2E2E2E2E2E2E2E2E2E2E2E2E2E2E2E2E2E2E2E2E2E2E2E2E2E2E2E2E2E2
310
E2E2E2E2E2E2E2E2E2E2E2E2E2E2E2E2E2E2E2E2E2E2E2E2E2E2E2E2E2E2E2E2E2E2E2E2E2E2E2E2E2E2E2E2E2E2E2E2E2E2E2E2E2E2E2E2E2F5E2E2F5F5E2E2F5E2F5F5F5F5F5F5F5F5F5F5F5F5F5F5F5F5F5F5F5F5F5F5F5F5F5F5F5F5F5F5F5F5F5F5F5F5F5F5F5F5F5F5F5F5F5F5F5F5F5F5F5F5F5F5F5F5F5F5F5F5F5
310
F5F5F5F5F5F5F5F5F5F5F5F5F5F5F5F5F5F5F5F5F5F5F5F5F5F5F5F5F5F5F5F5F5F5F5F5E2E2F5E2E2F5F5E2E2F5E2F5E2E2E2E2E2E2E2E2E2E2E2E2E2E2E2E2E2E2E2E2E2E2E2E2E2E2E2E2E2E2E2E2E2E2E2E2E2E2E2E2E2E2E2E2E2E2E2E2E2E2E2E2E2E2E2E2E2E2E2E2E2E2E2E2E2E2E2E2E2E2E2E2E2E2E2E2E2E2E2
310
E2E2E2E2E2E2E2E2E2E2E2E2E2E2E2E2F5E2E2F5E2E2F5F5E2E2F5E2F5E2E2E2E2E2E2E2E2E2E2E2E2E2E2E2E2E2E2E2E2E2E2E2E2E2E2E2E2E2E2E2E2E2E2E2E2E2E2E2E2E2E2E2E2E2E2E2E2E2E2E2E2E2E2E2E2E2E2E2E2E2E2E2E2E2E2E2E2E2E2E2E2E2E2E2E2E2E2E2E2E2E2E2E2E2E2E2E2E2E2E2E2E2E2E2F5E2E2
310
F5E2E2F5F5E2E2F5E2F5E2E2E2E2E2E2E2E2E2E2E2E2E2E2E2E2E2E2E2E2E2E2E2E2E2E2E2E2E2E2E2E2E2E2E2E2E2E2E2E2E2E2E2E2E2E2E2E2E2E2E2E2E2E2E2E2E2E2E2E2E2E2E2E2E2E2E2E2E2E2E2E2E2E2E2E2E2E2E2E2E2E2E2E2E2E2E2E2E2E2E2E2E2E2E2F5E2E2F5E2E2F5F5E2E2F5E2F5E2E2E2E2E2E2E2E2E2
310
E2E2E2E2E2E2E2E2E2E2E2E2E2E2E2E2E2E2E2E2E2E2E2E2E2E2E2E2E2E2E2E2E2E2E2E2E2E2E2E2E2E2E2E2E2E2E2E2E2E2E2E2E2E2E2E2E2E2E2E2E2E2E2E2E2E2E2E2E2E2E2E2E2E2E2E2E2E2E2E2E2E2E2E2E2E2F5E2E2F5E2E2F5F5E2E2F5E2F5E2E2E2E2E2E2E2E2E2E2E2E2E2E2E2E2E2E2E2E2E2E2E2E2E2E2E2E2
310
E2E2E2E2E2E2E2E2E2E2E2E2E2E2E2E2E2E2E2E2E2E2E2E2E2E2E2E2E2E2E2E2E2E2E2E2E2E2E2E2E2E2E2E2E2E2E2E2E2E2E2E2E2E2E2E2E2E2E2E2E2E2E2E2E2E2E2F5E2E2F5E2E2F5F5E2E2F5E2F5E2E2E2E2E2E2E2E2E2E2E2E2E2E2E2E2E2E2E2E2E2E2E2E2E2E2E2E2E2E2E2E2E2E2E2E2E2E2E2E2E2E2E2E2E2E2E2
310
E2E2E2E2E2E2E2E2E2E2E2E2E2E2E2E2E2E2E2E2E2E2E2E2E2E2E2E2E2E2E2E2E2E2E2E2E2E2E2E2E2E2E2E2E2E2E2E2F5E2E2F5E2E2F5F5E2E2E2E2F5E2E2E2E2E2E2E2E2E2E2E2E2E2E2E2E2E2E2E2E2E2E2E2E2E2E2E2E2E2E2E2E2E2E2E2E2E2E2E2E2E2E2E2E2E2E2E2E2E2E2E2E2E2E2E2E2E2E2E2E2E2E2E2E2E2E2
310
E2E2E2E2E2E2E2E2E2E2E2E2E2E2E2E2E2E2E2E2E2E2E2E2E2E2E2E2E2F5E2E2E2E2E2F5F5E2E2E2E2F5E2E2E2E2E2E2E2E2E2E2E2E2E2E2E2E2E2E2E2E2E2E2E2E2E2E2E2E2E2E2E2E2E2E2E2E2E2E2E2E2E2E2E2E2E2E2E2E2E2E2E2E2E2E2E2E2E2E2E2E2E2E2E2E2E2E2E2E2E2E2E2E2E2E2E2E2E2E2E2E2E2E2E2E2E2
310
E2E2E2E2E2E2E2E2E2E2F5E2E2E2E2E2F5F5E2E2E2E2F5E2E2E2E2E2E2E2E2E2E2E2E2E2E2E2E2E2E2E2E2E2E2E2E2E2E2E2E2E2E2E2E2E2E2E2E2E2E2E2E2E2E2E2E2E2E2E2E2E2E2E2E2E2E2E2E2E2E2E2E2E2E2E2E2E2E2E2E2E2E2E2E2E2E2E2E2E2E2E2E2E2E2E2E2E2E2E2E2E2E2E2E2E2E2E2F5E2E2E2E2E2F5F5E2
310
E2E2E2F5E2E2E2E2E2E2E2E2E2E2E2E2E2E2E2E2E2E2E2E2E2E2E2E2E2E2E2E2E2E2E2E2E2E2E2E2E2E2E2E2E2E2E2E2E2E2E2E2E2E2E2E2E2E2E2E2E2E2E2E2E2E2E2E2E2E2E2E2E2E2E2E2E2E2E2E2E2E2E2E2E2E2E2E2E2E2E2E2E2E2E2E2E2E2E2F5E2E2E2E2E2F5F5E2E2E2E2F5E2E2E2E2E2E2E2E2E2E2E2E2E2E2E2
310
E2E2E2E2E2E2E2E2E2E2E2E2E2E2E2E2E2E2E2E2E2E2E2E2E2E2E2E2E2E2E2E2E2E2E2E2E2E2E2E2E2E2E2E2E2E2E2E2E2E2E2E2E2E2E2E2E2E2E2E2E2E2E2E2E2E2E2E2E2E2E2E2E2E2E2E2E2E2E2E2F5E2E2E2E2E2F5F5E2E2E2E2F5E2E2E2E2E2E2E2E2E2E2E2E2E2E2E2E2E2E2E2E2E2E2E2E2E2E2E2E2E2E2E2E2E2E2
310
E2E2E2E2E2E2E2E2E2E2E2E2E2E2E2E2E2E2E2E2E2E2E2E2E2E2E2E2E2E2E2E2E2E2E2E2E2E2E2E2E2E2E2E2E2E2E2E2E2E2E2E2E2E2E2E2E2E2E2E2E2F5E2E2E2E2E2F5F5E2E2E2E2F5E2E2E2E2E2E2E2E2E2E2E2E2E2E2E2E2E2E2E2E2E2E2E2E2E2E2E2E2E2E2E2E2E2E2E2E2E2E2E2E2E2E2E2E2E2E2E2E2E2E2E2E2E2
310
E2E2E2E2E2E2E2E2E2E2E2E2E2E2E2E2E2E2E2E2E2E2E2E2E2E2E2E2E2E2E2E2E2E2E2E2E2E2E2E2E2E2F5E2E2E2E2E2F5F5E2E2E2E2F5E2E2E2E2E2E2E2E2E2E2E2E2E2E2E2E2E2E2E2E2E2E2E2E2E2E2E2E2E2E2E2E2E2E2E2E2E2E2E2E2E2E2E2E2E2E2E2E2E2E2E2E2E2E2E2E2E2E2E2E2E2E2E2E2E2E2E2E2E2E2E2E2
310
E2E2E2E2E2E2E2E2E2E2E2E2E2E2E2E2E2E2E2E2E2E2E2F5E2E2E2E2E2F5F5E2E2E2E2F5E2E2E2E2E2E2E2E2E2E2E2E2E2E2E2E2E2E2E2E2E2E2E2E2E2E2E2E2E2E2E2E2E2E2E2E2E2E2E2E2E2E2E2E2E2E2E2E2E2E2E2E2E2E2E2E2E2E2E2E2E2E2E2E2E2E2E2E2E2E2E2E2E2E2E2E2E2E2E2E2E2E2E2E2E2E2E2E2E2E2E2
310
E2E2E2E2F5E2E2E2E2E2F5F5E2E2F5E2F5E2E2E2E2E2E2E2E2E2E2E2E2E2E2E2E2E2E2E2E2E2E2E2E2E2E2E2E2E2E2E2E2E2E2E2E2E2E2E2E2E2E2E2E2E2E2E2E2E2E2E2E2E2E2E2E2E2E2E2E2E2E2E2E2E2E2E2E2E2E2E2E2E2E2E2E2E2E2E2E2E2E2E2E2E2E2E2E2E2E2E2E2E2E2E2F5E2E2F5E2E2F5F5E2E2F5E2F5E2E2
310
E2E2E2E2E2E2E2E2E2E2E2E2E2E2E2E2E2E2E2E2E2E2E2E2E2E2E2E2E2E2E2E2E2E2E2E2E2E2E2E2E2E2E2E2E2E2E2E2E2E2E2E2E2E2E2E2E2E2E2E2E2E2E2E2E2E2E2E2E2E2E2E2E2E2E2E2E2E2E2E2E2E2E2E2E2E2E2E2E2E2E2E2E2F5E2E2F5E2E2F5F5E2E2F5E2F5E2E2E2E2E2E2E2E2E2E2E2E2E2E2E2E2E2E2E2E2E2
310
E2E2E2E2E2E2E2E2E2E2E2E2E2E2E2E2E2E2E2E2E2E2E2E2E2E2E2E2E2E2E2E2E2E2E2E2E2E2E2E2E2E2E2E2E2E2E2E2E2E2E2E2E2E2E2E2E2E2E2E2E2E2E2E2E2E2E2E2E2E2E2E2E2E2F5E2E2F5E2E2F5F5E2E2F5E2F5E2E2E2E2E2E2E2E2E2E2E2E2E2E2E2E2E2E2E2E2E2E2E2E2E2E2E2E2E2E2E2E2E2E2E2E2E2E2E2E2
310
E2E2E2E2E2E2E2E2E2E2E2E2E2E2E2E2E2E2E2E2E2E2E2E2E2E2E2E2E2E2E2E2E2E2E2E2E2E2E2E2E2E2E2E2E2E2E2E2E2E2E2E2E2E2E2F5E2E2F5E2E2F5F5E2E2F5E2F5E2E2E2E2E2E2E2E2E2E2E2E2E2E2E2E2E2E2E2E2E2E2E2E2E2E2E2E2E2E2E2E2E2E2E2E2E2E2E2E2E2E2E2E2E2E2E2E2E2E2E2E2E2E2E2E2E2E2E2
310
E2E2E2E2E2E2E2E2E2E2E2E2E2E2E2E2E2E2E2E2E2E2E2E2E2E2E2E2E2E2E2E2E2E2E2E2F5E2E2F5E2E2F5F5E2E2F5E2F5E2E2E2E2E2E2E2E2E2E2E2E2E2E2E2E2E2E2E2E2E2E2E2E2E2E2E2E2E2E2E2E2E2E2E2E2E2E2E2E2E2E2E2E2E2E2E2E2E2E2E2E2E2E2E2E2E2E2E2E2E2E2E2E2E2E2E2E2E2E2E2E2E2E2E2E2E2E2
310
E2E2E2E2E2E2E2E2E2E2E2E2E2E2E2E2E2F5E2E2F5E2E2F5F5E2E2F5E2F5E2E2E2E2E2E2E2E2E2E2E2E2E2E2E2E2E2E2E2E2E2E2E2E2E2E2E2E2E2E2E2E2E2E2E2E2E2E2E2E2E2E2E2E2E2E2E2E2E2E2E2E2E2E2E2E2E2E2E2E2E2E2E2E2E2E2E2E2E2E2E2E2E2E2E2E2E2E2E2E2E2E2E2E2E2E2E2E2E2E2E2E2E2E2E2F5E2
310
E2F5E2E2F5F5E2E2F5E2F5E2E2E2E2E2E2E2E2E2E2E2E2E2E2E2E2E2E2E2E2E2E2E2E2E2E2E2E2E2E2E2E2E2E2E2E2E2E2E2E2E2E2E2E2E2E2E2E2E2E2E2E2E2E2E2E2E2E2E2E2E2E2E2E2E2E2E2E2E2E2E2E2E2E2E2E2E2E2E2E2E2E2E2E2E2E2E2E2E2E2E2E2E2E2E2F5E2E2F5E2E2F5F5E2E2F5E2F5E2E2E2E2E2E2E2E2
310
E2E2E2E2E2E2E2E2E2E2E2E2F5F5F5F5F5F5F5F5F5F5F5F5F5F5F5F5F5F5F5F5F5F5F5F5F5F5F5F5F5F5F5F5F5F5F5F5F5F5F5F5F5F5F5F5F5F5E2E2E2E2E2E2E2E2E2E2E2E2E2E2E2E2E2E2E2E2E2E2E2E2E2E2E2E2E2F5E2E2F5E2E2F5F5E2E2F5E2F5E2E2E2E2E2E2E2E2E2E2E2E2E2E2E2E2E2E2E2E2F5F5F5F5F5F5F5
310
F5F5F5F5F5F5F5F5F5F5F5F5F5F5F5F5F5F5F5F5F5F5F5F5F5F5F5F5F5F5F5F5F5F5F5F5F5F5E2E2E2E2E2E2E2E2E2E2E2E2E2E2E2E2E2E2E2E2E2E2E2E2E2E2E2E2E2E2F5E2E2F5E2E2F5F5E2E2F5E2F5E2E2E2E2E2E2E2E2E2E2E2E2E2E2E2E2E2E2E2E2E2E2E2E2E2E2E2E2E2E2E2E2E2E2E2E2E2E2E2E2E2E2E2E2E2E2
310
E2E2E2E2E2E2E2E2E2E2E2E2E2E2E2E2E2E2E2E2E2E2E2E2E2E2E2E2E2E2E2E2E2E2E2E2E2E2E2E2E2E2E2E2E2E2E2E2E2F5E2E2F5E2E2F5F5E2E2F5E2F5E2E2E2E2E2E2E2E2E2E2E2E2E2E2E2E2E2E2E2E2E2E2E2E2E2E2E2E2E2E2E2E2E2E2E2E2E2E2E2E2E2E2E2E2E2E2E2E2E2E2E2E2E2E2E2E2E2E2E2E2E2E2E2E2E2
310
E2E2E2E2E2E2E2E2E2E2E2E2E2E2E2E2E2E2E2E2E2E2E2E2E2E2E2E2E2E2F5E2E2F5E2E2F5F5E2E2F5E2F5E2E2E2E2E2E2E2E2E2E2E2E2E2E2E2E2E2E2E2E2E2E2E2E2E2E2E2E2E2E2E2E2E2E2E2E2E2E2E2E2E2E2E2E2E2E2E2E2E2E2E2E2E2E2E2E2E2E2E2E2E2E2E2E2E2E2E2E2E2E2E2E2E2E2E2E2E2E2E2E2E2E2E2E2
310
E2E2E2E2E2E2E2E2E2E2E2F5E2E2F5E2E2F5F5E2E2F5E2F5E2E2E2F5F5F5F5F5F5F5F5F5F5F5F5F5F5F5F5F5F5F5F5F5F5F5F5F5F5F5F5F5F5F5F5F5F5F5F5F5F5F5F5F5F5F5F5F5F5F5F5F5F5F5F5F5F5F5F5F5F5F5F5F5F5F5F5F5E2E2E2E2E2E2E2E2E2E2E2E2E2E2E2E2E2E2E2E2E2E2E2E2E2E2E2F5E2E2F5E2E2F5F5
310
E2E2F5E2F5E2E2E2F5F5E2E2E2E2E2F5E2E2E2E2E2F5F5E2E2E2E2E2E2F5F5E2E2E2E2E2F5E2F5F5E2E2E2E2E2E2E2E2E2E2E2E2E2F5E2E2E2E2E2E2E2E2E2E2E2E2E2E2E2E2E2E2E2E2E2E2E2E2E2E2E2E2E2E2E2E2E2E2E2E2E2E2E2E2E2E2E2E2E2E2F5E2E2F5E2E2F5F5E2E2F5E2F5E2E2E2E2F5E2E2E2E2E2F5E2E2E2
310
E2E2F5E2E2E2E2E2E2E2F5E2E2E2E2E2E2F5E2F5F5E2E2E2E2E2E2E2E2E2E2E2E2E2F5E2E2E2E2E2F5F5F5F5F5F5F5F5F5F5F5F5F5E2E2E2E2E2E2E2E2E2E2E2E2E2E2E2E2E2E2E2E2E2E2E2E2E2E2E2E2F5E2E2F5E2E2F5F5E2E2F5E2F5E2E2E2E2F5E2E2E2E2E2F5E2E2E2E2E2F5E2E2E2E2E2E2E2F5E2E2E2E2E2E2F5E2
310
F5F5E2E2E2E2E2E2E2E2E2E2E2E2E2F5E2E2E2F5F5F5F5F5F5F5F5F5F5F5F5F5F5F5F5F5E2E2F5F5F5F5F5F5F5F5F5F5E2E2E2E2E2E2E2E2E2E2E2E2E2E2F5E2E2F5E2E2F5F5E2E2E2E2F5E2E2E2E2F5E2E2E2E2E2F5E2E2E2E2E2F5E2E2E2E2E2E2E2F5E2E2E2E2E2E2F5E2F5F5E2E2E2E2E2E2E2E2E2E2E2E2E2F5E2E2E2
310
F5E2F5F5F5F5E2E2F5E2E2E2F5E2E2E2F5E2E2E2E2E2E2E2E2E2E2E2E2E2E2E2E2E2E2E2E2E2E2E2E2E2E2F5E2E2E2E2E2F5F5E2E2E2E2F5E2E2E2E2F5E2E2E2E2E2F5E2E2E2E2E2F5E2E2E2E2E2E2E2F5E2E2E2E2E2E2F5E2F5F5F5E2E2F5F5F5F5F5F5E2E2E2E2F5E2E2E2F5F5F5F5F5F5F5F5F5F5F5F5F5F5F5F5F5E2F5
310
F5F5F5F5F5F5F5F5F5F5F5F5F5F5F5F5F5F5F5F5E2E2E2E2F5E2E2E2E2E2F5F5E2E2E2E2F5E2E2E2E2F5E2E2E2E2E2F5E2E2E2E2E2F5E2E2E2E2E2E2E2F5E2E2E2E2E2E2F5E2F5F5E2F5F5E2E2E2E2E2E2E2E2E2E2F5E2E2E2F5F5F5F5F5F5F5F5F5F5F5F5F5F5F5F5F5E2F5F5F5F5F5F5F5F5F5F5F5F5F5F5F5F5F5F5F5F5
310
F5E2E2E2E2F5E2E2E2E2E2F5F5E2E2E2E2F5E2E2E2E2F5E2E2E2E2E2F5E2E2E2E2E2F5E2E2E2E2E2E2E2F5E2E2E2E2E2E2F5E2F5F5E2E2E2E2E2E2E2E2E2E2E2E2E2F5E2E2E2F5E2F5F5F5F5E2E2F5E2E2F5F5F5E2E2F5E2F5E2F5F5F5F5E2F5E2E2F5F5F5F5F5F5F5E2E2E2F5E2E2E2E2F5E2E2E2E2E2F5F5E2E2E2E2F5E2
310
E2E2E2F5E2E2E2E2E2F5E2E2E2E2E2F5E2E2E2E2E2E2E2F5E2E2E2E2E2E2F5E2F5F5E2E2E2E2E2E2E2E2E2E2E2E2E2F5E2E2E2F5F5F5F5F5F5F5F5F5F5F5F5F5F5F5F5F5E2F5F5F5F5F5F5F5F5F5F5F5F5F5F5F5F5F5F5F5F5F5E2E2E2E2F5E2E2E2E2E2F5F5E2E2E2E2F5E2E2E2E2F5E2E2E2E2E2F5E2E2E2E2E2F5E2E2E2
310
E2E2E2E2F5E2E2E2E2E2E2F5E2F5F5E2E2E2E2E2E2E2E2E2E2E2E2E2F5E2E2E2F5F5F5F5F5F5F5F5F5F5F5F5F5F5F5F5F5E2F5F5F5F5F5F5F5F5F5F5F5F5F5F5F5F5F5F5F5F5F5E2E2E2E2F5E2E2E2E2E2F5F5E2E2E2E2F5E2E2E2E2F5E2E2E2E2E2F5E2E2E2E2E2F5E2E2E2E2E2E2E2F5E2E2E2E2E2E2F5E2F5F5E2E2E2E2
310
E2E2E2E2E2E2E2E2E2F5E2E2E2F5E2F5F5F5F5E2E2F5F5F5F5F5F5F5E2F5E2F5E2F5F5F5F5E2F5E2E2F5F5F5F5F5F5F5E2E2E2F5E2E2E2E2F5E2E2E2E2E2F5F5E2E2E2E2F5E2E2E2E2F5E2E2E2E2E2F5E2E2E2E2E2F5E2E2E2E2E2E2E2F5E2E2E2E2E2E2F5E2F5F5E2E2E2E2E2E2E2E2E2E2E2E2E2F5E2E2E2F5E2E2F5F5F5
310
E2E2F5E2F5F5F5F5F5E2F5E2F5F5F5F5F5F5F5F5F5F5F5F5F5F5F5F5F5F5F5F5F5E2E2E2E2F5E2E2E2E2E2F5F5E2E2E2E2F5E2E2E2E2F5E2E2E2E2E2F5E2E2E2E2E2F5E2E2E2E2E2E2E2F5E2E2E2E2E2E2F5E2F5F5E2E2E2E2E2E2E2E2E2E2E2E2E2F5E2E2E2F5F5F5F5F5F5F5F5F5F5F5F5F5F5F5F5F5E2F5F5F5F5F5F5F5
310
F5F5F5F5F5F5F5F5F5F5F5F5F5F5E2E2E2E2F5E2E2E2E2E2F5F5E2E2E2E2F5E2E2E2E2F5E2E2E2E2E2F5E2E2E2E2E2F5E2E2E2E2E2E2E2F5E2E2E2E2E2E2F5E2F5F5E2E2E2E2E2E2E2E2E2E2E2E2E2F5E2E2E2F5E2F5F5F5F5F5F5F5F5F5F5F5F5F5E2F5E2F5E2E2F5F5F5F5F5F5F5F5F5F5F5F5F5F5E2E2E2F5E2E2E2E2F5
310
E2E2E2E2E2F5F5E2E2F5E2F5E2E2E2E2F5E2E2E2E2E2F5E2E2E2E2E2F5E2E2E2E2E2E2E2F5E2E2E2E2E2E2F5E2F5F5E2E2E2E2E2E2E2E2E2E2E2E2E2F5E2E2E2F5E2E2E2F5F5F5F5F5F5F5F5F5E2E2E2F5E2F5E2E2E2F5F5F5F5F5F5F5F5F5F5F5F5F5E2E2E2F5E2E2E2E2F5E2E2F5E2E2F5F5E2E2F5E2F5E2E2E2E2F5E2E2
310
E2E2E2F5E2E2E2E2E2F5E2E2E2E2E2E2E2F5E2E2E2E2E2E2F5E2F5F5E2E2E2E2E2E2E2E2E2E2E2E2E2F5E2E2E2F5E2E2E2F5F5F5F5F5F5F5F5F5E2E2E2F5E2F5E2E2E2F5F5F5F5F5F5F5F5F5F5F5F5F5E2E2E2F5E2E2E2E2F5E2E2F5E2E2F5F5E2E2F5E2F5E2E2E2E2F5E2E2E2E2E2F5E2E2E2E2E2F5E2E2E2E2E2E2E2F5E2
310
E2E2E2E2E2F5E2F5F5E2E2E2E2E2E2E2E2E2E2E2E2E2F5E2E2E2F5F5F5F5F5F5F5F5F5F5F5F5F5F5F5F5F5E2F5F5F5F5F5F5F5F5F5F5F5F5F5F5F5F5F5F5F5F5F5E2E2E2E2F5E2E2F5E2E2F5F5E2E2F5E2F5E2E2E2E2F5E2E2E2E2E2F5E2E2E2E2E2F5E2E2E2E2E2E2E2F5E2E2E2E2E2E2F5E2F5F5E2E2E2E2E2E2E2E2E2E2
310
E2E2E2F5E2E2E2E2E2E2E2E2E2E2E2E2E2E2E2E2E2E2E2E2E2E2E2E2E2E2E2E2E2E2E2E2E2E2E2E2E2E2E2E2E2E2E2E2E2E2F5E2E2F5E2E2F5F5E2E2F5E2F5E2E2E2E2F5E2E2E2E2E2F5E2E2E2E2E2F5E2E2E2E2E2E2E2F5E2E2E2E2E2E2F5E2F5F5E2E2E2E2E2E2E2E2E2E2E2E2E2F5E2E2E2E2E2E2E2E2E2E2E2E2E2E2E2
310
E2E2E2E2E2E2E2E2E2E2E2E2E2E2E2E2E2E2E2E2E2E2E2E2E2E2E2E2E2E2E2F5E2E2F5E2E2F5F5E2E2F5E2F5E2E2E2E2F5E2E2E2E2E2F5E2E2E2E2E2F5E2E2E2E2E2E2E2F5E2E2E2E2E2E2F5E2F5F5E2E2E2E2E2E2E2E2E2E2E2E2E2F5E2E2E2E2E2E2E2E2E2E2E2E2E2E2E2E2E2E2E2E2E2E2E2E2E2E2E2E2E2E2E2E2E2E2
310
E2E2E2E2E2E2E2E2E2E2E2E2F5E2E2F5E2E2F5F5E2E2F5E2F5E2E2E2E2F5E2E2E2E2E2F5E2E2E2E2E2F5E2E2E2E2E2E2E2F5E2E2E2E2E2E2F5E2F5F5E2E2E2E2E2E2E2E2E2F5F5F5F5F5F5F5F5E2E2E2E2E2E2E2E2E2E2E2E2E2E2E2E2E2E2E2E2E2E2E2E2E2E2E2E2E2E2E2E2E2E2E2E2E2E2E2E2E2E2E2F5E2E2F5E2E2F5
310
F5E2E2F5E2F5E2E2E2E2F5E2E2E2E2E2F5E2E2E2E2E2F5E2E2E2E2E2E2E2F5E2E2E2E2E2E2F5E2F5F5E2E2E2E2E2E2E2E2F5F5F5F5F5F5F5F5F5F5E2E2E2E2E2E2E2E2E2E2F5F5F5F5F5F5F5F5F5F5F5F5F5F5F5F5F5F5F5F5F5F5F5F5E2E2E2E2E2E2E2E2F5E2E2F5E2E2F5F5E2E2F5E2F5F5F5F5F5F5F5F5F5E2E2F5E2E2
310
E2E2E2F5E2E2E2E2E2E2E2F5E2E2E2E2E2E2F5E2F5F5E2E2E2E2E2E2E2E2E2E2E2E2E2F5E2E2E2E2E2E2E2E2E2E2E2E2E2E2F5F5F5F5F5F5F5F5F5F5F5F5F5F5F5F5F5F5F5F5F5F5F5E2E2E2E2E2E2E2E2E2F5E2E2F5E2E2F5F5E2E2F5E2F5E2F5F5F5F5F5E2E2E2E2F5E2E2E2E2E2F5E2E2E2E2E2F5F5F5F5E2E2E2E2E2F5
310
E2F5F5E2E2E2E2E2E2E2E2E2E2E2E2E2F5E2E2E2E2E2E2E2E2E2E2E2E2E2E2E2E2E2E2F5F5F5F5F5F5F5F5F5F5F5F5F5E2E2E2E2E2E2E2E2E2E2E2E2E2E2E2F5E2E2F5E2E2F5F5E2E2F5E2F5E2F5F5F5F5F5E2E2E2E2F5E2F5F5F5F5F5F5F5F5F5E2F5F5F5F5F5E2E2E2E2F5E2F5F5F5E2E2E2E2E2E2E2E2E2E2E2E2F5E2E2
310
E2E2E2E2E2E2E2E2E2E2E2E2E2E2E2E2F5F5F5F5F5F5F5F5F5F5F5F5E2E2E2E2E2E2E2E2E2E2E2E2E2E2E2E2F5E2E2F5E2E2F5F5E2E2F5E2F5E2E2E2E2F5E2E2E2E2E2F5E2F5F5F5F5F5F5F5F5F5E2E2E2E2E2E2E2E2E2E2F5E2F5F5F5E2E2E2E2E2E2E2E2E2E2E2E2F5E2E2E2E2E2E2E2E2E2E2E2E2E2E2E2E2E2E2E2E2E2
310
E2E2E2E2E2E2E2E2E2E2E2E2E2E2E2E2E2E2E2E2E2E2E2E2E2F5E2E2F5E2E2F5F5E2E2F5E2F5E2E2E2E2F5E2E2E2E2E2F5E2F5F5F5F5F5F5F5F5F5E2E2E2F5E2E2E2E2E2E2F5E2F5F5F5E2E2E2E2E2E2E2E2E2E2E2E2F5E2E2E2E2E2E2E2E2E2E2E2E2E2E2E2E2E2E2E2E2E2E2E2E2E2E2E2E2E2E2E2E2E2E2E2E2E2E2E2E2
310
E2E2E2E2E2E2F5E2E2F5E2E2F5F5E2E2F5E2F5E2E2E2E2F5E2E2E2E2E2F5E2E2F5F5F5F5F5F5F5E2E2E2E2F5E2E2E2E2E2E2F5E2F5F5F5E2E2E2E2E2E2E2E2E2E2E2E2F5E2E2E2E2E2E2E2E2E2E2E2E2E2E2E2E2E2E2E2E2E2E2E2E2E2E2E2E2E2E2E2E2E2E2E2E2E2E2E2E2E2E2E2E2E2E2F5E2E2F5E2E2F5F5E2E2F5E2F5
310
E2E2E2E2F5E2E2E2E2E2F5E2E2E2E2E2F5E2E2E2E2E2E2E2F5E2E2E2E2E2E2F5E2F5F5F5E2E2E2E2E2E2E2E2E2E2E2E2F5E2E2E2E2E2E2E2E2E2E2E2E2E2E2F5F5F5E2E2E2E2E2E2E2E2E2E2E2E2E2E2E2E2E2E2E2E2E2E2E2E2E2E2E2E2E2F5E2E2F5E2E2F5F5E2E2F5E2F5E2E2E2E2F5E2E2E2E2E2F5E2E2E2E2E2F5E2E2
310
E2E2E2E2E2F5E2E2E2E2E2E2F5E2F5F5F5E2E2E2E2E2E2E2E2E2E2E2E2F5E2E2E2E2E2E2E2E2E2E2E2E2E2E2E2F5F5E2E2E2E2E2E2E2E2E2E2E2E2E2E2E2E2E2E2E2E2E2E2E2E2E2E2E2E2E2F5E2E2F5E2E2F5F5E2E2E2E2F5E2E2E2E2F5E2E2E2E2E2F5E2E2E2E2E2F5E2E2E2E2E2E2E2F5E2E2E2E2E2E2F5E2F5F5F5E2E2
310
E2E2E2E2E2E2E2E2E2E2F5E2E2E2E2E2E2E2E2E2E2E2E2E2E2F5F5F5E2E2E2E2E2E2E2E2E2E2E2E2E2E2E2E2E2E2E2E2E2E2E2E2E2E2E2E2E2F5E2E2E2E2E2F5F5E2E2E2E2F5E2E2E2E2F5E2F5F5F5F5F5F5F5F5E2E2F5E2E2E2E2E2E2E2F5E2E2E2E2E2E2F5E2F5F5F5E2E2E2E2E2E2E2E2E2E2E2E2F5E2E2E2E2E2E2E2E2
310
E2E2E2E2E2E2E2F5F5E2E2E2E2E2E2E2E2E2E2E2E2E2E2E2E2E2E2E2E2E2E2E2E2E2E2E2E2E2F5E2E2E2E2E2F5F5E2E2E2E2F5E2E2E2E2F5E2E2F5F5F5F5F5F5E2E2E2F5E2E2E2E2E2E2E2F5E2E2E2E2E2E2F5E2F5F5F5E2E2E2E2E2E2E2E2E2E2E2E2F5E2E2E2E2E2E2E2E2E2E2E2E2E2E2E2F5F5F5E2E2E2E2E2E2E2E2E2
310
E2E2E2E2E2E2E2E2E2E2E2E2E2E2E2E2E2E2E2F5E2E2E2E2E2F5F5E2E2E2E2F5E2E2E2E2F5E2E2E2E2E2E2E2E2E2E2E2F5E2E2E2E2E2E2E2F5E2E2E2E2E2E2F5E2F5F5F5E2E2E2E2E2E2E2E2E2E2E2E2F5E2E2E2E2E2E2E2E2E2E2E2E2E2E2E2F5F5F5F5E2E2E2E2E2E2E2E2E2E2E2E2E2E2E2E2E2E2E2E2E2E2E2E2E2E2E2
310
F5E2E2E2E2E2F5F5E2E2E2E2F5E2E2E2E2F5E2E2E2E2E2F5E2E2E2E2E2F5E2E2E2E2E2E2E2F5E2E2E2E2E2E2F5E2F5F5F5E2E2E2E2E2E2E2E2E2E2E2E2F5E2E2E2E2E2E2E2E2E2E2E2E2E2E2E2F5F5E2F5F5F5E2E2E2E2E2E2E2E2E2E2E2E2E2E2E2E2E2E2E2E2E2E2E2E2E2F5E2E2E2E2E2F5F5E2E2E2E2F5E2E2E2E2F5E2
310
E2E2E2E2F5E2E2E2E2E2F5E2E2E2E2E2E2E2F5E2E2E2E2E2E2F5E2F5F5F5E2E2E2E2E2E2E2E2E2E2E2E2F5E2E2E2E2E2E2E2E2E2E2E2E2E2E2E2F5F5E2E2F5F5F5F5E2E2E2E2E2E2E2E2E2E2E2E2E2E2E2E2E2E2E2E2E2E2E2F5E2E2E2E2E2F5F5E2E2E2E2F5E2E2E2E2F5E2E2E2E2E2F5E2E2E2E2E2F5E2E2E2E2E2E2E2F5
310
E2E2E2E2E2E2F5E2F5F5F5E2E2E2E2E2E2E2E2E2E2E2E2F5E2E2E2E2E2E2E2E2E2E2E2E2E2E2E2F5F5E2F5F5F5F5E2E2E2E2E2E2E2E2E2E2E2E2E2E2E2E2E2E2E2E2E2E2E2E2F5E2E2E2E2E2F5F5E2E2E2E2F5E2E2E2E2F5E2E2E2E2E2F5E2E2E2E2E2F5E2E2E2E2E2E2E2F5E2E2E2E2E2E2F5E2F5F5F5E2E2E2E2E2E2E2E2
310
E2E2E2E2F5E2E2E2E2E2E2E2E2E2E2E2E2E2E2F5F5F5F5F5F5F5F5F5F5F5F5E2E2E2E2E2E2E2E2E2E2E2E2E2E2E2E2E2E2E2E2F5E2E2E2E2E2F5F5E2E2E2E2F5E2E2E2E2F5E2E2E2E2E2F5E2E2E2E2E2F5E2E2E2E2E2E2E2F5E2E2E2E2E2E2F5E2F5F5F5E2E2E2E2E2E2E2E2E2E2E2E2F5E2E2E2E2E2E2E2E2E2E2E2E2E2E2
310
F5F5F5F5F5F5F5F5F5F5F5F5E2E2E2E2E2E2E2E2E2E2E2E2E2E2E2E2E2E2E2E2F5E2E2E2E2E2F5F5E2E2E2E2F5E2E2E2E2F5E2E2E2E2E2F5E2E2E2E2E2F5E2E2E2E2E2E2E2F5E2E2E2E2E2E2F5E2F5F5F5E2E2E2E2E2E2E2E2E2E2E2E2F5E2E2E2E2E2E2E2E2E2E2E2E2E2E2E2E2E2E2E2E2F5E2E2E2F5E2E2E2E2E2E2E2E2
310
E2E2E2E2E2E2E2E2E2E2E2E2E2F5E2E2E2E2E2F5F5E2E2F5E2F5E2E2E2E2F5E2E2E2E2E2F5E2E2E2E2E2F5E2E2E2E2E2E2E2F5E2E2E2E2E2E2F5E2F5F5F5E2E2E2E2E2E2E2E2E2E2E2E2F5E2E2E2E2E2E2E2E2E2E2E2E2E2E2E2E2E2E2E2E2E2E2E2E2E2F5F5F5F5F5F5F5F5F5F5F5F5E2E2E2E2E2E2E2E2E2F5E2E2F5E2E2
310
F5F5E2E2F5E2F5E2E2E2E2F5E2E2E2E2E2F5E2E2E2E2E2F5E2E2E2E2E2E2E2F5E2E2E2E2E2E2F5E2F5F5F5E2E2E2E2E2E2E2E2E2E2E2E2F5E2E2E2E2E2E2E2E2E2E2E2E2E2E2E2E2E2E2E2E2E2E2E2E2E2F5F5F5F5F5F5F5F5F5F5F5F5F5F5F5F5F5F5F5F5E2F5E2E2F5E2E2F5F5E2E2F5E2F5E2E2E2E2F5E2E2E2E2E2F5E2
310
E2E2E2E2F5E2E2E2E2E2E2E2F5E2E2E2E2E2E2F5E2F5F5F5E2E2E2E2E2E2E2E2E2E2E2E2F5E2E2E2E2E2E2E2E2E2E2E2E2E2E2E2E2E2E2E2E2E2E2E2E2E2E2E2E2E2E2E2E2E2E2E2E2E2E2E2E2E2E2E2E2E2E2F5E2E2F5E2E2F5F5E2E2F5E2F5E2E2E2E2F5E2E2E2E2E2F5E2E2E2E2E2F5E2E2E2E2E2E2E2F5E2E2E2E2E2E2
310
F5E2F5F5F5E2E2E2E2E2E2E2E2E2E2E2E2F5E2E2E2E2E2E2E2E2E2E2E2E2E2E2E2E2E2E2E2E2E2E2E2E2E2E2E2E2E2E2E2E2E2E2E2E2E2E2E2E2E2E2E2E2E2E2F5E2E2F5E2E2F5F5E2E2F5E2F5E2E2E2E2F5E2E2E2E2E2F5E2E2E2E2E2F5E2E2E2E2E2E2E2F5E2E2E2E2E2E2F5E2F5F5F5E2E2E2E2E2E2E2E2E2E2E2E2F5E2
310
E2E2E2E2E2E2E2E2E2E2E2E2E2E2E2E2E2E2E2E2E2E2E2E2E2E2E2E2E2E2E2E2E2E2E2E2E2E2E2E2E2E2E2E2E2F5E2E2F5E2E2F5F5E2E2F5E2F5E2E2E2E2F5E2E2E2E2E2F5E2E2E2E2E2F5E2E2E2E2E2E2E2F5E2E2E2E2E2E2F5E2F5F5F5E2E2E2E2E2E2E2E2E2E2E2E2F5E2E2E2E2E2E2E2E2E2E2E2E2E2E2E2E2E2E2E2E2
310
E2E2E2E2E2E2E2E2E2E2E2E2E2E2E2E2E2E2E2E2E2E2E2E2E2E2F5E2E2F5E2E2F5F5E2E2F5E2F5E2E2E2E2F5E2E2E2E2E2F5E2E2E2E2E2F5E2E2E2E2E2E2E2F5E2E2E2E2E2E2F5E2F5F5F5F5F5F5F5F5F5F5F5F5F5F5F5F5E2E2E2E2E2E2E2E2E2E2E2E2E2E2E2E2E2E2E2E2E2E2E2E2E2E2E2E2E2E2E2E2E2E2E2E2E2E2E2
310
E2F5F5E2E2E2E2F5E2E2F5E2E2F5F5E2E2F5E2F5E2E2E2E2F5E2E2E2E2E2F5E2E2E2E2E2F5E2E2E2E2E2E2E2F5E2E2E2E2E2E2F5E2F5F5F5E2E2E2E2E2E2E2E2E2E2E2E2E2E2E2E2E2E2E2E2E2E2E2E2E2E2E2E2E2E2E2E2E2E2E2E2E2E2E2E2E2E2E2E2E2E2E2E2E2E2E2E2E2F5F5F5F5F5F5F5E2E2F5E2E2F5F5E2E2F5E2
310
F5E2E2E2E2F5E2E2E2E2E2F5E2E2E2E2E2F5E2E2E2E2E2E2E2F5F5E2E2E2E2E2F5E2F5F5F5E2E2E2E2E2E2E2E2E2E2E2E2E2E2E2E2E2E2F5F5F5F5F5F5F5F5F5F5F5F5F5F5F5F5F5E2E2E2E2E2E2E2E2E2E2E2E2E2E2E2E2E2E2E2E2F5E2E2E2F5E2E2F5E2E2F5F5E2E2F5E2F5E2E2E2E2F5E2E2E2E2E2F5E2E2E2E2E2F5E2
310
E2E2E2E2E2E2F5F5F5F5F5F5F5F5F5F5F5F5F5F5F5F5F5F5F5F5F5F5F5F5F5F5F5F5F5E2E2F5F5F5F5F5F5F5F5F5F5F5F5F5F5F5E2E2F5F5F5F5F5F5F5F5F5F5F5F5F5F5F5F5F5F5F5F5E2E2E2F5E2E2F5E2E2F5F5E2E2F5E2F5E2E2E2E2F5E2E2E2E2E2F5E2E2E2E2E2F5E2E2E2E2E2E2E2F5F5E2E2E2E2E2F5F5F5F5F5F5
310
F5F5F5F5F5F5F5F5F5F5F5F5E2E2E2E2E2E2E2E2E2E2E2E2E2E2E2E2E2E2E2E2E2E2E2E2E2E2E2E2E2E2E2E2E2E2E2E2E2E2E2E2E2E2F5E2E2E2F5E2E2F5E2E2F5F5E2E2F5E2F5E2E2E2E2F5E2E2E2E2E2F5E2E2E2E2E2F5F5E2E2E2E2E2E2F5E2E2E2E2E2E2F5F5F5F5E2F5F5E2E2E2E2E2E2E2E2E2E2E2E2E2E2E2E2E2E2
310
E2E2E2E2E2E2E2E2E2E2E2E2E2E2E2E2E2E2E2E2E2E2E2E2E2E2E2E2E2E2E2E2E2E2E2F5E2E2E2F5E2E2F5E2E2F5F5E2E2F5E2F5E2E2E2E2F5E2E2E2E2E2F5E2E2E2E2E2F5F5E2E2E2E2E2E2F5E2E2E2E2E2E2F5F5F5F5F5F5F5F5F5F5F5F5F5F5F5F5F5F5F5F5F5F5F5F5F5F5F5F5F5F5F5F5F5F5F5F5F5F5F5F5F5F5F5F5
310
F5F5F5F5F5F5F5F5F5F5F5F5F5F5F5F5F5E2E2E2F5E2E2F5E2E2F5F5E2E2F5E2F5E2E2E2E2F5E2E2E2E2E2F5E2E2E2E2E2F5F5F5F5F5F5F5F5F5F5F5F5F5F5F5F5F5F5F5F5F5F5F5F5F5F5F5F5F5F5F5F5F5F5F5F5F5F5F5F5F5F5F5F5F5F5F5F5F5F5F5F5F5F5F5F5F5F5F5F5F5F5F5F5F5F5F5F5F5F5F5F5F5F5F5F5E2E2
310
E2F5E2E2F5E2E2F5F5E2E2F5E2F5E2E2E2F5F5E2E2E2E2F5F5F5F5F5F5F5F5F5F5F5F5F5F5F5F5F5F5F5F5F5F5F5F5F5F5F5E2F5E2E2E2E2E2E2E2E2E2E2E2E2E2E2E2E2E2E2E2E2E2E2E2E2E2E2E2E2F5F5E2E2E2E2E2E2E2E2E2E2E2E2E2E2E2E2E2E2E2E2E2E2F5F5E2E2E2F5E2E2F5E2E2F5F5E2E2F5E2F5E2E2E2F5F5
310
F5F5F5F5F5F5F5F5F5F5F5F5F5F5F5F5F5F5F5F5F5F5F5F5F5F5F5F5F5F5F5F5F5F5F5F5F5F5F5F5F5F5F5F5F5F5F5F5F5F5F5F5F5F5F5F5F5F5F5F5F5F5F5F5F5F5F5F5F5F5F5F5F5F5F5F5F5F5F5F5F5F5F5F5F5F5F5F5F5E2F5E2E2F5E2E2F5F5E2E2E2E2F5E2E2E2E2E2E2E2E2E2E2E2E2E2E2E2E2E2E2E2E2E2E2E2E2
310
F5E2E2E2E2E2E2F5E2F5F5F5F5F5F5F5F5F5F5F5F5F5F5F5F5E2F5F5F5F5F5F5F5F5F5F5E2F5F5F5F5F5F5F5F5F5F5E2F5F5F5F5F5F5F5F5F5F5E2F5F5F5F5F5F5F5F5F5F5F5E2F5E2E2E2E2E2F5F5E2E2E2E2F5E2E2E2E2E2E2E2E2E2E2E2E2E2E2E2E2E2E2E2E2E2E2E2E2F5E2E2E2E2E2E2F5F5E2F5F5F5F5F5F5F5F5F5
310
F5E2F5F5F5F5F5F5F5F5F5F5E2F5F5F5F5F5F5F5F5F5F5E2F5F5F5F5F5F5F5F5F5F5E2F5F5F5F5F5F5F5F5F5F5E2F5F5F5F5F5E2F5E2E2E2E2E2F5F5E2E2E2E2F5E2E2E2E2E2E2E2E2E2E2E2E2E2E2E2E2E2E2E2E2E2E2E2E2F5E2E2E2E2E2E2F5F5F5F5F5F5F5F5F5F5F5F5F5F5F5F5F5F5F5F5F5F5F5F5F5F5F5F5F5F5F5
310
F5F5F5F5F5F5F5F5F5F5F5F5F5F5F5F5F5F5F5F5F5F5F5F5F5F5F5F5F5F5F5F5E2F5E2E2E2E2E2F5F5E2E2E2E2F5E2E2E2E2E2E2E2E2E2E2E2E2E2E2E2E2E2E2E2E2E2E2E2E2F5E2E2E2E2E2E2E2E2E2E2E2E2E2E2F5E2E2E2E2E2E2E2E2E2E2E2E2E2E2E2E2E2E2E2E2E2E2E2E2E2E2E2E2E2E2E2E2E2E2E2E2E2E2E2E2E2
310
E2E2E2E2E2E2E2E2F5F5F5F5F5F5F5E2E2E2E2E2F5F5E2E2E2E2F5E2E2E2E2E2E2E2E2E2E2E2E2E2E2E2E2E2E2E2E2E2E2E2E2F5E2F5F5F5F5F5F5E2E2E2E2E2E2E2E2F5E2F5F5F5F5F5F5F5F5F5F5F5E2E2E2E2E2E2E2E2E2E2E2E2E2E2E2E2E2E2E2E2E2E2E2E2E2E2E2E2E2E2E2E2E2E2E2E2E2E2E2E2E2E2F5E2E2E2E2
310
E2F5F5E2E2E2E2F5E2E2E2E2E2E2E2E2E2E2E2E2E2E2E2E2E2E2E2E2E2E2E2E2F5F5F5F5F5F5F5E2E2E2E2E2E2E2E2E2F5F5F5E2E2E2E2E2E2E2E2E2E2E2E2E2E2E2E2E2E2E2E2E2E2E2E2E2E2E2E2E2E2E2E2E2E2E2E2E2E2E2E2E2E2E2E2E2E2E2E2E2E2E2E2F5E2E2E2E2E2F5F5E2E2E2E2F5E2E2E2E2E2E2E2E2E2E2E2
310
E2E2E2E2E2E2E2E2E2E2E2E2E2E2E2E2E2E2E2E2E2E2E2E2E2E2E2E2E2E2E2E2E2E2E2E2E2E2E2E2E2E2E2E2E2E2E2E2E2E2E2E2E2E2E2E2E2E2E2E2E2E2E2E2E2E2E2E2E2E2E2E2E2E2E2E2E2E2E2E2E2E2E2E2F5E2E2E2E2E2F5F5E2E2E2E2F5E2E2E2E2E2E2E2E2E2E2E2E2E2E2E2E2E2E2E2E2E2E2E2E2E2E2E2E2E2E2
310
E2E2E2E2E2E2E2E2E2E2E2E2E2E2E2E2E2E2E2E2E2E2E2E2E2E2E2E2E2E2E2E2E2E2E2E2E2E2E2E2E2E2E2E2E2E2E2E2E2E2E2E2E2E2E2E2E2E2E2E2E2E2E2E2E2F5E2E2E2E2E2F5F5E2E2E2E2F5E2E2E2E2E2E2E2E2E2E2E2E2E2E2E2E2E2E2E2E2E2E2E2E2E2E2E2E2E2E2E2E2E2E2E2E2E2E2E2E2E2E2E2E2E2E2E2E2E2
310
E2E2E2E2E2E2E2E2E2E2E2E2E2E2E2E2E2E2E2E2E2E2E2E2E2E2E2E2E2E2E2E2E2E2E2E2E2E2E2E2E2E2E2E2E2E2F5E2E2E2E2E2F5F5E2E2E2E2F5E2E2E2E2E2E2E2E2E2E2E2E2E2E2E2E2E2E2E2E2E2E2E2E2E2E2E2E2E2E2E2E2E2E2E2E2E2E2E2E2E2E2E2E2E2E2E2E2E2E2E2E2E2E2E2E2E2E2E2E2E2E2E2E2E2E2E2E2
310
E2E2E2E2E2E2E2E2E2E2E2E2E2E2E2E2E2E2E2E2E2E2E2E2E2E2E2F5E2E2E2E2E2F5F5E2E2F5E2F5E2E2E2E2E2E2E2E2E2E2E2E2E2E2E2E2E2E2E2E2E2E2E2E2E2E2E2E2E2E2E2E2E2E2E2E2E2E2E2E2E2E2E2E2E2E2E2E2E2E2E2E2E2E2E2E2E2E2E2E2E2E2E2E2E2E2E2E2E2E2E2E2E2E2E2E2E2E2E2E2E2E2E2E2E2E2E2
310
E2E2E2E2E2E2E2E2F5E2E2F5E2E2F5F5E2E2F5E2F5E2E2E2E2E2E2E2E2E2E2E2E2E2E2E2E2E2E2E2E2E2E2E2E2E2E2E2E2E2E2E2E2E2E2E2E2E2E2E2E2E2E2E2E2E2E2E2E2E2E2E2E2E2E2E2E2E2E2E2E2E2E2E2E2E2E2E2E2E2E2E2E2E2E2E2E2E2E2E2E2E2E2E2E2E2E2E2E2E2E2E2E2E2E2E2F5E2E2F5E2E2F5F5E2E2F5
310
E2F5E2E2E2E2E2E2E2E2E2E2E2E2E2E2E2E2E2E2E2E2E2E2E2E2E2E2E2E2E2E2E2E2E2E2E2E2E2E2E2E2E2E2E2E2E2E2E2E2E2E2E2E2E2E2E2E2E2E2E2E2E2E2E2E2E2E2E2E2E2E2E2E2E2E2E2E2E2E2E2E2E2E2E2E2E2E2E2E2E2E2E2E2E2E2E2F5E2E2F5E2E2F5F5E2E2F5E2F5E2E2E2E2E2E2E2E2E2E2E2E2E2E2E2E2E2
310
E2E2E2E2E2E2E2E2E2E2E2E2E2E2E2E2E2E2E2E2E2E2E2E2E2E2E2E2E2E2E2E2E2E2E2E2E2E2E2E2E2E2E2E2E2E2E2E2E2E2E2E2E2E2E2E2E2E2E2E2E2E2E2E2E2E2E2E2E2E2E2E2E2E2E2E2E2E2F5E2E2F5E2E2F5F5E2E2F5E2F5E2E2E2E2E2E2E2E2E2E2E2E2E2E2E2E2E2E2E2E2E2E2E2E2E2E2E2E2E2E2E2E2E2E2E2E2
310
E2E2E2E2E2E2E2E2E2E2E2E2E2E2E2E2E2E2E2E2E2E2E2E2E2E2E2E2E2E2E2E2E2E2E2E2E2E2E2E2E2E2E2E2E2E2E2E2E2E2E2E2E2E2E2E2E2E2E2F5E2E2F5E2E2F5F5E2E2F5E2F5E2E2E2E2E2E2E2E2E2E2E2E2E2E2E2E2E2E2E2E2E2E2E2E2E2E2E2E2E2E2E2E2E2E2E2E2E2E2E2E2E2E2E2E2E2E2E2E2E2E2E2E2E2E2E2
310
E2E2E2E2E2E2E2E2E2E2E2E2E2E2E2E2E2E2E2E2E2E2E2E2E2E2E2E2E2E2E2E2E2E2E2E2E2E2E2E2F5E2E2F5E2E2F5F5E2E2F5E2F5E2E2E2E2E2E2E2E2E2E2E2E2E2E2E2E2E2E2E2E2E2E2E2E2E2E2E2E2E2E2E2E2E2E2E2E2E2E2E2E2E2E2E2E2E2E2E2E2E2E2E2E2E2E2E2E2E2E2E2E2E2E2E2E2E2E2E2E2E2E2E2E2E2E2
310
E2E2E2E2E2E2E2E2E2E2E2E2E2E2E2E2E2E2E2E2E2F5E2E2F5E2E2F5F5E2E2F5E2F5E2E2E2E2E2E2E2E2E2E2E2E2E2E2E2E2E2E2E2E2E2E2E2E2E2E2E2E2E2E2E2E2E2E2E2E2E2E2E2E2E2E2E2E2E2E2E2E2E2E2E2E2E2E2E2E2E2E2E2E2E2E2E2E2E2E2E2E2E2E2E2E2E2E2E2E2E2E2E2E2E2E2E2E2E2E2E2E2E2E2E2E2E2
310
E2E2F5E2E2F5E2E2F5F5E2E2F5E2F5E2E2E2E2E2E2E2E2E2E2E2E2E2E2E2E2E2E2E2E2E2E2E2E2E2E2E2E2E2E2E2E2E2E2E2E2E2E2E2E2E2E2E2E2E2E2E2E2E2E2E2E2E2E2E2E2E2E2E2E2E2E2E2E2E2E2E2E2E2E2E2E2E2E2E2E2E2E2E2E2E2E2E2E2E2E2E2E2E2E2E2E2E2E2E2F5E2E2F5E2E2F5F5E2E2F5E2F5E2E2E2E2
310
E2E2E2E2E2E2E2E2E2E2E2E2E2E2E2E2E2E2E2E2E2E2E2E2E2E2E2E2E2E2E2E2E2E2E2E2E2E2E2E2E2E2E2E2E2E2E2E2E2E2E2E2E2E2E2E2E2E2E2E2E2E2E2E2E2E2E2E2E2E2E2E2E2E2E2E2E2E2E2E2E2E2E2E2E2E2E2E2E2E2E2F5E2E2F5E2E2F5F5E2E2F5E2F5E2E2E2E2E2E2E2E2E2E2E2E2E2E2E2E2E2E2E2E2E2E2E2
310
E2E2E2E2E2E2E2E2E2E2E2E2E2E2E2E2E2E2E2E2E2E2E2E2E2E2E2E2E2E2E2E2E2E2E2E2E2E2E2E2E2E2E2E2E2E2E2E2E2E2E2E2E2E2E2E2E2E2E2E2E2E2E2E2E2E2E2E2E2E2E2E2F5E2E2F5E2E2F5F5E2E2F5E2F5E2E2E2E2E2E2E2E2E2E2E2E2E2E2E2E2E2E2E2E2E2E2E2E2E2E2E2E2E2E2E2E2E2E2E2E2E2E2E2E2E2E2
310
E2E2E2E2E2E2E2E2E2E2E2E2E2E2E2E2E2E2E2E2E2E2E2E2E2E2E2E2E2E2E2E2E2E2E2E2E2E2E2E2E2E2E2E2E2E2E2E2E2E2E2E2E2F5E2E2F5E2E2F5F5E2E2F5E2F5E2E2E2E2E2E2E2E2E2E2E2E2E2E2E2E2E2E2E2E2E2E2E2E2E2E2E2E2E2E2E2E2E2E2E2E2E2E2E2E2E2E2E2E2E2E2E2E2E2E2E2E2E2E2E2E2E2E2E2E2E2
310
E2E2E2E2E2E2E2E2E2E2E2E2E2E2E2E2E2E2E2E2E2E2E2E2E2E2E2E2E2E2E2E2E2E2F5E2E2F5E2E2F5F5E2E2F5E2F5E2E2E2E2E2E2E2E2E2E2E2E2E2E2E2E2E2E2E2E2E2E2E2E2E2E2E2E2E2E2E2E2E2E2E2E2E2E2E2E2E2E2E2E2E2E2E2E2E2E2E2E2E2E2E2E2E2E2E2E2E2E2E2E2E2E2E2E2E2E2E2E2E2E2E2E2E2E2E2E2
310
E2E2E2E2E2E2E2E2E2E2E2E2E2E2E2F5E2E2F5E2E2F5F5E2E2F5E2F5E2E2E2E2E2E2E2E2E2E2E2E2E2E2E2E2E2E2E2E2E2E2E2E2E2E2E2E2E2E2E2E2E2E2E2E2E2E2E2E2E2E2E2E2E2E2E2E2E2E2E2E2E2E2E2E2E2E2E2E2E2E2E2E2E2E2E2E2E2E2E2E2E2E2E2E2E2E2E2E2E2E2E2E2E2E2E2E2E2E2E2E2E2E2E2F5E2E2F5
310
E2E2F5F5E2E2F5E2F5E2E2E2E2E2E2E2E2E2E2E2E2E2E2E2E2E2E2E2E2E2E2E2E2E2E2E2E2E2E2E2E2E2E2E2E2E2E2E2E2E2E2E2E2E2E2E2E2E2E2E2E2E2E2E2E2E2E2E2E2E2E2E2E2E2E2E2E2E2E2E2E2E2E2E2E2E2E2E2E2E2E2E2E2E2E2E2E2E2E2E2E2E2E2E2F5E2E2F5E2E2F5F5E2E2F5E2F5E2E2E2E2E2E2E2E2E2E2
310
E2E2E2E2E2E2E2E2E2E2E2E2E2E2E2E2E2E2E2E2E2E2E2E2E2E2E2E2E2E2E2E2E2E2E2E2E2E2E2E2E2E2E2E2E2E2E2E2E2E2E2E2E2E2E2E2E2E2E2E2E2E2E2E2E2E2E2E2E2E2E2E2E2E2E2E2E2E2E2E2E2E2E2E2E2F5E2E2F5E2E2F5F5E2E2E2E2F5E2E2E2E2E2E2E2E2E2E2E2E2E2E2E2E2E2E2E2E2E2E2E2E2E2E2E2E2E2
310
E2E2E2E2E2E2E2E2E2E2E2E2E2E2E2E2E2E2E2E2E2E2E2E2E2E2E2E2E2E2E2E2E2E2E2E2E2E2E2E2E2E2E2E2E2E2E2E2E2E2E2E2E2E2E2E2E2E2E2E2E2E2E2E2E2E2F5E2E2E2E2E2F5F5E2E2E2E2F5E2E2E2E2E2E2E2E2E2E2E2E2E2E2E2E2E2E2E2E2E2E2E2E2E2E2E2E2E2E2E2E2E2E2E2E2E2E2E2E2E2E2E2E2E2E2E2E2
310
E2E2E2E2E2E2E2E2E2E2E2E2E2E2E2E2E2E2E2E2E2E2E2E2E2E2E2E2E2E2E2E2E2E2E2E2E2E2E2E2E2E2E2E2E2E2E2F5E2E2E2E2E2F5F5E2E2E2E2F5E2E2E2E2E2E2E2E2E2E2E2E2E2E2E2E2E2E2E2E2E2E2E2E2E2E2E2E2E2E2E2E2E2E2E2E2E2E2E2E2E2E2E2E2E2E2E2E2E2E2E2E2E2E2E2E2E2E2E2E2E2E2E2E2E2E2E2
310
E2E2E2E2E2E2E2E2E2E2E2E2E2E2E2E2E2E2E2E2E2E2E2E2E2E2E2E2F5E2E2E2E2E2F5F5E2E2E2E2F5F5F5F5F5F5F5F5F5F5F5F5F5F5F5F5F5F5F5F5F5F5F5F5F5F5F5F5F5F5F5F5F5F5F5F5F5F5F5F5F5F5F5F5F5F5F5F5F5F5F5F5F5F5F5F5F5F5F5F5F5F5F5F5F5F5F5F5F5F5F5F5F5F5F5F5F5F5F5F5F5F5F5F5F5F5F5
310
F5F5F5F5F5F5F5F5F5F5E2E2E2E2E2F5F5E2E2E2E2E2E2E2E2E2E2E2E2E2E2E2E2E2E2E2E2E2E2E2E2E2E2E2E2E2E2E2E2E2E2E2E2E2E2E2E2E2E2E2E2E2E2E2E2E2E2E2E2E2E2E2E2E2E2E2E2E2E2E2E2E2E2E2E2E2E2E2E2E2E2E2E2E2E2E2E2E2E2E2E2E2E2E2E2E2E2E2E2E2E2E2E2E2E2E2E2E2E2E2E2E2E2F5F5E2E2
310
E2E2E2E2E2E2E2E2E2E2E2E2E2E2E2E2E2E2E2E2E2E2E2E2E2E2E2E2E2E2E2E2E2E2E2E2E2E2E2E2E2E2E2E2E2E2E2E2E2E2E2E2E2E2E2E2E2E2E2E2E2E2E2E2E2E2E2E2E2E2E2E2E2E2E2E2E2E2E2E2E2E2E2E2E2E2E2E2E2E2E2E2E2E2E2E2E2E2E2E2E2E2E2E2F5F5E2E2E2E2E2E2E2E2E2E2E2E2E2E2E2E2E2E2E2E2E2
310
E2E2E2E2E2E2E2E2E2E2E2E2E2E2E2E2E2E2E2E2E2E2E2E2E2E2E2E2E2E2E2E2E2E2E2E2E2E2E2E2E2E2E2E2E2E2E2E2E2E2E2E2E2E2E2E2E2E2E2E2E2E2E2E2E2E2E2E2E2E2E2E2E2E2E2E2E2E2E2E2E2E2E2E2E2F5F5E2E2E2E2E2E2E2E2E2E2E2E2E2E2E2E2E2E2E2E2E2E2E2E2E2E2E2E2E2E2E2E2E2E2E2E2E2E2E2E2
310
E2E2E2E2E2E2E2E2E2E2E2E2E2E2E2E2E2E2E2E2E2E2E2E2E2E2E2E2E2E2E2E2E2E2E2E2E2E2E2E2E2E2E2E2E2E2E2E2E2E2E2E2E2E2E2E2E2E2E2E2E2E2E2E2E2E2F5F5E2E2E2E2E2E2E2E2E2E2E2E2E2E2E2E2E2E2E2E2E2E2E2E2E2E2E2E2E2E2E2E2E2E2E2E2E2E2E2E2E2E2E2E2E2E2E2E2E2E2E2E2E2E2E2E2E2E2E2
310
E2E2E2E2E2E2E2E2E2E2E2E2E2E2E2E2E2E2E2E2E2E2E2E2E2E2E2E2E2E2E2E2E2E2E2E2E2E2E2E2E2E2E2E2E2E2E2F5F5E2E2F5E2E2E2E2E2E2E2E2E2E2E2E2E2E2E2E2E2E2E2E2E2E2E2E2E2E2E2E2E2E2E2E2E2E2E2E2E2E2E2E2E2E2E2E2E2E2E2E2E2E2E2E2E2E2E2E2E2E2E2E2E2E2E2E2E2E2E2E2E2E2E2E2E2E2E2
310
E2E2E2E2E2E2E2E2E2E2E2E2E2E2E2E2E2E2E2E2E2E2E2E2E2F5E2E2F5F5E2E2F5E2E2E2E2E2E2E2E2E2E2E2E2E2E2E2E2E2E2E2E2E2E2E2E2E2E2E2E2E2E2E2E2E2E2E2E2E2E2E2E2E2E2E2E2E2E2E2E2E2E2E2E2E2E2E2E2E2E2E2E2E2E2E2E2E2E2E2E2E2E2E2E2E2E2E2E2E2E2E2E2E2E2E2E2E2E2E2E2E2E2E2E2E2E2
310
E2E2E2E2E2E2F5E2E2F5F5E2E2F5E2E2E2E2E2E2E2E2E2E2E2E2E2E2E2E2E2E2E2E2E2E2E2E2E2E2E2E2E2E2E2E2E2E2E2E2E2E2E2E2E2E2E2E2E2E2E2E2E2E2E2E2E2E2E2E2E2E2E2E2E2E2E2E2E2E2E2E2E2E2E2E2E2E2E2E2E2E2E2E2E2E2E2E2E2E2E2E2E2E2E2E2E2E2E2E2E2E2E2E2F5E2E2F5F5E2E2F5E2E2E2E2E2
310
E2E2E2E2E2E2E2E2E2E2E2E2E2E2E2E2E2E2E2E2E2E2E2E2E2E2E2E2E2E2E2E2E2E2E2E2E2E2E2E2E2E2E2E2E2E2E2E2E2E2E2E2E2E2E2E2E2E2E2E2E2E2E2E2E2E2E2E2E2E2E2E2E2E2E2E2E2E2E2E2E2E2E2E2E2E2E2E2E2E2E2E2E2E2E2F5E2E2F5F5E2E2F5E2E2E2E2E2E2E2E2E2E2E2E2E2E2E2E2E2E2E2E2E2E2E2E2
310
E2E2E2E2E2E2E2E2E2E2E2E2E2E2E2E2E2E2E2E2E2E2E2E2E2E2E2E2E2E2E2E2E2E2E2E2E2E2E2E2E2E2E2E2E2E2E2E2E2E2E2E2E2E2E2E2E2E2E2E2E2E2E2E2E2E2E2E2E2E2E2E2E2E2E2E2F5E2E2F5F5E2E2F5E2E2E2E2E2E2E2E2E2E2E2E2E2E2E2E2E2E2E2E2E2E2E2E2E2E2E2E2E2E2E2E2E2E2E2E2E2E2E2E2E2E2E2
310
E2E2E2E2E2E2E2E2E2E2E2E2E2E2E2E2E2E2E2E2E2E2E2E2E2E2E2E2E2E2E2E2E2E2E2E2E2E2E2E2E2E2E2E2E2E2E2E2E2E2E2E2E2E2E2E2E2F5E2E2F5F5E2E2F5E2E2E2E2E2E2E2E2E2E2E2E2E2E2E2E2E2E2E2E2E2E2E2E2E2E2E2E2E2E2E2E2E2E2E2E2E2E2E2E2E2E2E2E2E2E2E2E2E2E2E2E2E2E2E2E2E2E2E2E2E2E2
310
E2E2E2E2E2E2E2E2E2E2E2E2E2E2E2E2E2E2E2E2E2E2E2E2E2E2E2E2E2E2E2E2E2E2E2E2E2E2F5E2E2F5F5E2E2F5E2E2E2E2E2E2E2E2E2E2E2E2E2E2E2E2E2E2E2E2E2E2E2E2E2E2E2E2E2E2E2E2E2E2E2E2E2E2E2E2E2E2E2E2E2E2E2E2E2E2E2E2E2E2E2E2E2E2E2E2E2E2E2E2E2E2E2E2E2E2E2E2E2E2E2E2E2E2E2E2E2
310
E2E2E2E2E2E2E2E2E2E2E2E2E2E2E2E2E2E2E2F5E2E2F5F5E2E2F5F5F5F5F5F5F5F5F5E2E2E2E2E2E2E2E2E2F5F5F5F5F5F5F5F5F5F5F5F5F5F5F5F5E2E2E2E2E2E2E2E2E2F5F5F5F5F5F5F5F5F5F5F5F5F5F5F5F5E2E2E2E2E2E2E2E2E2F5F5F5F5F5F5F5F5F5F5F5F5F5F5F5F5E2E2E2E2E2E2E2E2E2F5F5F5F5F5F5F5F5
310
F5E2E2F5F5E2E2E2E2E2E2E2E2E2E2E2E2E2E2E2E2E2E2E2E2E2E2E2E2E2E2E2E2E2E2E2E2E2E2E2E2E2E2E2E2E2E2E2E2E2E2E2E2E2E2E2E2E2E2E2E2E2E2E2E2E2E2E2E2E2E2E2E2E2E2E2E2E2E2E2E2E2E2E2E2E2E2E2E2E2E2E2E2E2E2E2E2E2E2E2E2E2E2E2E2E2E2E2E2E2E2F5F5E2E2E2E2E2E2E2E2E2E2E2E2E2E2
310
E2E2E2E2E2E2E2E2E2E2E2E2E2E2E2E2E2E2E2E2E2E2E2E2E2E2E2E2E2E2E2E2E2E2E2E2E2E2E2E2E2E2E2E2E2E2E2E2E2E2E2E2E2E2E2E2E2E2E2E2E2E2E2E2E2E2E2E2E2E2E2E2E2E2E2E2E2E2E2E2E2E2E2E2E2E2E2E2E2E2E2E2F5F5E2E2E2E2E2E2E2E2E2E2E2E2E2E2E2E2E2E2E2E2E2E2E2E2E2E2E2E2E2E2E2E2E2
310
E2E2E2E2E2E2E2E2E2E2E2E2E2E2E2E2E2E2E2E2E2E2E2E2E2E2E2E2E2E2E2E2E2E2E2E2E2E2E2E2E2E2E2E2E2E2E2E2E2E2E2E2E2E2E2E2E2E2E2E2E2E2E2E2E2E2E2E2E2E2E2E2E2F5F5F5F5F5F5F5F5F5F5F5F5F5F5F5F5F5F5F5F5F5F5F5F5F5F5F5F5F5F5F5F5F5F5F5F5F5F5F5F5F5F5F5F5F5F5F5F5F5F5F5F5F5F5
310
F5F5F5F5F5F5F5F5F5F5F5F5F5F5F5F5F5F5F5F5F5F5F5F5F5F5F5F5F5F5F5F5F5F5F5F5F5F5F5F5F5F5F5F5F5F5F5F5F5F5F5F5F5F5F5
  0
ENDSEC
  0
EOF
