  0
SECTION
  2
HEADER
  9
$ACADVER
  1
AC1021
  9
$ACADMAINTVER
 70
     1
  9
$DWGCODEPAGE
  3
ANSI_1252
  9
$LASTSAVEDBY
  1
RSutcliffe
  9
$INSBASE
 10
0.0
 20
0.0
 30
0.0
  9
$EXTMIN
 10
98.94664514390187
 20
141.2749505741111
 30
0.0
  9
$EXTMAX
 10
327.3860936264769
 20
332.3247976968395
 30
0.0
  9
$LIMMIN
 10
0.0
 20
0.0
  9
$LIMMAX
 10
17.0
 20
11.0
  9
$ORTHOMODE
 70
     1
  9
$REGENMODE
 70
     1
  9
$FILLMODE
 70
     1
  9
$QTEXTMODE
 70
     0
  9
$MIRRTEXT
 70
     1
  9
$LTSCALE
 40
0.5
  9
$ATTMODE
 70
     1
  9
$TEXTSIZE
 40
2.0
  9
$TRACEWID
 40
0.05
  9
$TEXTSTYLE
  7
WEB PAGE
  9
$CLAYER
  8
0
  9
$CELTYPE
  6
BYLAYER
  9
$CECOLOR
 62
   256
  9
$CELTSCALE
 40
1.0
  9
$DISPSILH
 70
     0
  9
$DIMSCALE
 40
1.0
  9
$DIMASZ
 40
3.0
  9
$DIMEXO
 40
2.0
  9
$DIMDLI
 40
1.0
  9
$DIMRND
 40
0.0
  9
$DIMDLE
 40
0.0
  9
$DIMEXE
 40
1.0
  9
$DIMTP
 40
0.0
  9
$DIMTM
 40
0.0
  9
$DIMTXT
 40
1.75
  9
$DIMCEN
 40
1.0
  9
$DIMTSZ
 40
0.0
  9
$DIMTOL
 70
     0
  9
$DIMLIM
 70
     0
  9
$DIMTIH
 70
     1
  9
$DIMTOH
 70
     1
  9
$DIMSE1
 70
     0
  9
$DIMSE2
 70
     0
  9
$DIMTAD
 70
     0
  9
$DIMZIN
 70
     0
  9
$DIMBLK
  1

  9
$DIMASO
 70
     1
  9
$DIMSHO
 70
     1
  9
$DIMPOST
  1

  9
$DIMAPOST
  1

  9
$DIMALT
 70
     0
  9
$DIMALTD
 70
     2
  9
$DIMALTF
 40
25.4
  9
$DIMLFAC
 40
1.0
  9
$DIMTOFL
 70
     0
  9
$DIMTVP
 40
0.0
  9
$DIMTIX
 70
     0
  9
$DIMSOXD
 70
     0
  9
$DIMSAH
 70
     0
  9
$DIMBLK1
  1

  9
$DIMBLK2
  1

  9
$DIMSTYLE
  2
STANDARD
  9
$DIMCLRD
 70
     0
  9
$DIMCLRE
 70
     0
  9
$DIMCLRT
 70
     0
  9
$DIMTFAC
 40
1.0
  9
$DIMGAP
 40
1.0
  9
$DIMJUST
 70
     0
  9
$DIMSD1
 70
     0
  9
$DIMSD2
 70
     0
  9
$DIMTOLJ
 70
     1
  9
$DIMTZIN
 70
     0
  9
$DIMALTZ
 70
     0
  9
$DIMALTTZ
 70
     0
  9
$DIMUPT
 70
     0
  9
$DIMDEC
 70
     4
  9
$DIMTDEC
 70
     4
  9
$DIMALTU
 70
     2
  9
$DIMALTTD
 70
     2
  9
$DIMTXSTY
  7
STANDARD
  9
$DIMAUNIT
 70
     0
  9
$DIMADEC
 70
     0
  9
$DIMALTRND
 40
0.0
  9
$DIMAZIN
 70
     0
  9
$DIMDSEP
 70
    46
  9
$DIMATFIT
 70
     3
  9
$DIMFRAC
 70
     2
  9
$DIMLDRBLK
  1

  9
$DIMLUNIT
 70
     4
  9
$DIMLWD
 70
    -2
  9
$DIMLWE
 70
    -2
  9
$DIMTMOVE
 70
     0
  9
$DIMFXL
 40
1.0
  9
$DIMFXLON
 70
     0
  9
$DIMJOGANG
 40
0.7853981633974483
  9
$DIMTFILL
 70
     0
  9
$DIMTFILLCLR
 70
     0
  9
$DIMARCSYM
 70
     0
  9
$DIMLTYPE
  6

  9
$DIMLTEX1
  6

  9
$DIMLTEX2
  6

  9
$LUNITS
 70
     4
  9
$LUPREC
 70
     4
  9
$SKETCHINC
 40
0.1
  9
$FILLETRAD
 40
0.0
  9
$AUNITS
 70
     1
  9
$AUPREC
 70
     4
  9
$MENU
  1
acad
  9
$ELEVATION
 40
0.0
  9
$PELEVATION
 40
0.0
  9
$THICKNESS
 40
0.0
  9
$LIMCHECK
 70
     0
  9
$CHAMFERA
 40
0.0
  9
$CHAMFERB
 40
0.0
  9
$CHAMFERC
 40
0.0
  9
$CHAMFERD
 40
0.0
  9
$SKPOLY
 70
     0
  9
$TDCREATE
 40
2451029.636190972
  9
$TDUCREATE
 40
2451029.844524306
  9
$TDUPDATE
 40
2454083.561903936
  9
$TDUUPDATE
 40
2454083.770237268
  9
$TDINDWG
 40
3.2581662384
  9
$TDUSRTIMER
 40
3.2581662384
  9
$USRTIMER
 70
     1
  9
$ANGBASE
 50
0.0
  9
$ANGDIR
 70
     0
  9
$PDMODE
 70
     1
  9
$PDSIZE
 40
0.0
  9
$PLINEWID
 40
0.0
  9
$SPLFRAME
 70
     0
  9
$SPLINETYPE
 70
     6
  9
$SPLINESEGS
 70
     8
  9
$HANDSEED
  5
142FD
  9
$SURFTAB1
 70
     6
  9
$SURFTAB2
 70
     6
  9
$SURFTYPE
 70
     6
  9
$SURFU
 70
     6
  9
$SURFV
 70
     6
  9
$UCSBASE
  2

  9
$UCSNAME
  2

  9
$UCSORG
 10
0.0
 20
0.0
 30
0.0
  9
$UCSXDIR
 10
1.0
 20
0.0
 30
0.0
  9
$UCSYDIR
 10
0.0
 20
1.0
 30
0.0
  9
$UCSORTHOREF
  2

  9
$UCSORTHOVIEW
 70
     0
  9
$UCSORGTOP
 10
0.0
 20
0.0
 30
0.0
  9
$UCSORGBOTTOM
 10
0.0
 20
0.0
 30
0.0
  9
$UCSORGLEFT
 10
0.0
 20
0.0
 30
0.0
  9
$UCSORGRIGHT
 10
0.0
 20
0.0
 30
0.0
  9
$UCSORGFRONT
 10
0.0
 20
0.0
 30
0.0
  9
$UCSORGBACK
 10
0.0
 20
0.0
 30
0.0
  9
$PUCSBASE
  2

  9
$PUCSNAME
  2

  9
$PUCSORG
 10
0.0
 20
0.0
 30
0.0
  9
$PUCSXDIR
 10
1.0
 20
0.0
 30
0.0
  9
$PUCSYDIR
 10
0.0
 20
1.0
 30
0.0
  9
$PUCSORTHOREF
  2

  9
$PUCSORTHOVIEW
 70
     0
  9
$PUCSORGTOP
 10
0.0
 20
0.0
 30
0.0
  9
$PUCSORGBOTTOM
 10
0.0
 20
0.0
 30
0.0
  9
$PUCSORGLEFT
 10
0.0
 20
0.0
 30
0.0
  9
$PUCSORGRIGHT
 10
0.0
 20
0.0
 30
0.0
  9
$PUCSORGFRONT
 10
0.0
 20
0.0
 30
0.0
  9
$PUCSORGBACK
 10
0.0
 20
0.0
 30
0.0
  9
$USERI1
 70
     0
  9
$USERI2
 70
     0
  9
$USERI3
 70
     0
  9
$USERI4
 70
     0
  9
$USERI5
 70
     0
  9
$USERR1
 40
0.0
  9
$USERR2
 40
0.0
  9
$USERR3
 40
0.0
  9
$USERR4
 40
0.0
  9
$USERR5
 40
0.0
  9
$WORLDVIEW
 70
     1
  9
$SHADEDGE
 70
     3
  9
$SHADEDIF
 70
    70
  9
$TILEMODE
 70
     1
  9
$MAXACTVP
 70
    16
  9
$PINSBASE
 10
0.0
 20
0.0
 30
0.0
  9
$PLIMCHECK
 70
     0
  9
$PEXTMIN
 10
0.2789074086114169
 20
0.3337185294499356
 30
-0.0000000349181948
  9
$PEXTMAX
 10
7.899413478776132
 20
9.544304874012336
 30
0.0000000814935746
  9
$PLIMMIN
 10
-0.1566242155846284
 20
-0.1107394947821337
  9
$PLIMMAX
 10
8.34337554411948
 20
10.88926026492197
  9
$UNITMODE
 70
     0
  9
$VISRETAIN
 70
     0
  9
$PLINEGEN
 70
     0
  9
$PSLTSCALE
 70
     1
  9
$TREEDEPTH
 70
  3020
  9
$CMLSTYLE
  2
STANDARD
  9
$CMLJUST
 70
     0
  9
$CMLSCALE
 40
1.0
  9
$PROXYGRAPHICS
 70
     1
  9
$MEASUREMENT
 70
     0
  9
$CELWEIGHT
370
    -1
  9
$ENDCAPS
280
     0
  9
$JOINSTYLE
280
     0
  9
$LWDISPLAY
290
     0
  9
$INSUNITS
 70
     1
  9
$HYPERLINKBASE
  1

  9
$STYLESHEET
  1

  9
$XEDIT
290
     1
  9
$CEPSNTYPE
380
     0
  9
$PSTYLEMODE
290
     1
  9
$FINGERPRINTGUID
  2
{EED38BEA-5B6B-467F-90D5-C3127D1C881D}
  9
$VERSIONGUID
  2
{8636E3EC-1DCC-4865-9BA9-A680715BBF6C}
  9
$EXTNAMES
290
     1
  9
$PSVPSCALE
 40
0.0
  9
$OLESTARTUP
290
     0
  9
$SORTENTS
280
    96
  9
$INDEXCTL
280
     0
  9
$HIDETEXT
280
     0
  9
$XCLIPFRAME
290
     0
  9
$HALOGAP
280
     0
  9
$OBSCOLOR
 70
   257
  9
$OBSLTYPE
280
     0
  9
$INTERSECTIONDISPLAY
280
     0
  9
$INTERSECTIONCOLOR
 70
   257
  9
$DIMASSOC
280
     1
  9
$PROJECTNAME
  1

  9
$CAMERADISPLAY
290
     0
  9
$LENSLENGTH
 40
50.0
  9
$CAMERAHEIGHT
 40
0.0
  9
$STEPSPERSEC
 40
2.0
  9
$STEPSIZE
 40
6.0
  9
$3DDWFPREC
 40
2.0
  9
$PSOLWIDTH
 40
0.25
  9
$PSOLHEIGHT
 40
4.0
  9
$LOFTANG1
 40
1.570796326794896
  9
$LOFTANG2
 40
1.570796326794896
  9
$LOFTMAG1
 40
0.0
  9
$LOFTMAG2
 40
0.0
  9
$LOFTPARAM
 70
     7
  9
$LOFTNORMALS
280
     1
  9
$LATITUDE
 40
37.795
  9
$LONGITUDE
 40
-122.394
  9
$NORTHDIRECTION
 40
0.0
  9
$TIMEZONE
 70
 -8000
  9
$LIGHTGLYPHDISPLAY
280
     1
  9
$TILEMODELIGHTSYNCH
280
     1
  9
$CMATERIAL
347
141B4
  9
$SOLIDHIST
280
     1
  9
$SHOWHIST
280
     1
  9
$DWFFRAME
280
     2
  9
$DGNFRAME
280
     0
  9
$REALWORLDSCALE
290
     1
  9
$INTERFERECOLOR
 62
     1
  9
$INTERFEREOBJVS
345
141C1
  9
$INTERFEREVPVS
346
141BE
  9
$CSHADOW
280
     0
  9
$SHADOWPLANELOCATION
 40
0.0
  0
ENDSEC
  0
SECTION
  2
CLASSES
  0
CLASS
  1
DICTIONARYVAR
  2
AcDbDictionaryVar
  3
ObjectDBX Classes
 90
        0
 91
        3
280
     0
281
     0
  0
CLASS
  1
ACDBDICTIONARYWDFLT
  2
AcDbDictionaryWithDefault
  3
ObjectDBX Classes
 90
        0
 91
        1
280
     0
281
     0
  0
CLASS
  1
MATERIAL
  2
AcDbMaterial
  3
ObjectDBX Classes
 90
     1024
 91
        3
280
     0
281
     0
  0
CLASS
  1
VISUALSTYLE
  2
AcDbVisualStyle
  3
ObjectDBX Classes
 90
     4095
 91
       16
280
     0
281
     0
  0
CLASS
  1
TABLESTYLE
  2
AcDbTableStyle
  3
ObjectDBX Classes
 90
     4095
 91
        1
280
     0
281
     0
  0
CLASS
  1
SORTENTSTABLE
  2
AcDbSortentsTable
  3
ObjectDBX Classes
 90
        0
 91
        1
280
     0
281
     0
  0
ENDSEC
  0
SECTION
  2
TABLES
  0
TABLE
  2
VPORT
  5
8
102
{ACAD_XDICTIONARY
360
1427D
102
}
330
0
100
AcDbSymbolTable
 70
     1
  0
VPORT
  5
141B1
330
8
100
AcDbSymbolTableRecord
100
AcDbViewportTableRecord
  2
*Active
 70
     0
 10
0.0
 20
0.0
 11
1.0
 21
1.0
 12
213.1676439914067
 22
236.8069014652555
 13
0.0
 23
0.0
 14
1.0
 24
1.0
 15
0.25
 25
0.25
 16
0.0
 26
0.0
 36
1.0
 17
0.0
 27
0.0
 37
0.0
 40
192.5518563211211
 41
1.542525773195876
 42
50.0
 43
0.0
 44
0.0
 50
270.0
 51
0.0
 71
     0
 72
   100
 73
     1
 74
     0
 75
     0
 76
     0
 77
     0
 78
     0
281
     0
 65
     1
110
0.0
120
0.0
130
0.0
111
1.0
121
0.0
131
0.0
112
0.0
122
1.0
132
0.0
 79
     0
146
0.0
348
141BD
 60
     3
 61
     5
292
     1
282
     1
141
0.0
142
0.0
 63
   250
421
  3355443
  0
ENDTAB
  0
TABLE
  2
LTYPE
  5
5
330
0
100
AcDbSymbolTable
 70
     6
  0
LTYPE
  5
11
330
5
100
AcDbSymbolTableRecord
100
AcDbLinetypeTableRecord
  2
BYBLOCK
 70
     0
  3

 72
    65
 73
     0
 40
0.0
  0
LTYPE
  5
12
330
5
100
AcDbSymbolTableRecord
100
AcDbLinetypeTableRecord
  2
BYLAYER
 70
     0
  3

 72
    65
 73
     0
 40
0.0
  0
LTYPE
  5
13
330
5
100
AcDbSymbolTableRecord
100
AcDbLinetypeTableRecord
  2
CONTINUOUS
 70
     0
  3
Solid line
 72
    65
 73
     0
 40
0.0
  0
LTYPE
  5
111E4
330
5
100
AcDbSymbolTableRecord
100
AcDbLinetypeTableRecord
  2
CENTER2
 70
     0
  3
Center (.5x) ___ _ ___ _ ___ _ ___ _ ___ _ ___
 72
    65
 73
     4
 40
1.125
 49
0.75
 74
     0
 49
-0.125
 74
     0
 49
0.125
 74
     0
 49
-0.125
 74
     0
  0
ENDTAB
  0
TABLE
  2
LAYER
  5
2
102
{ACAD_XDICTIONARY
360
14266
102
}
330
0
100
AcDbSymbolTable
 70
    34
  0
LAYER
  5
E
330
2
100
AcDbSymbolTableRecord
100
AcDbLayerTableRecord
  2
0
 70
     0
 62
     7
  6
CONTINUOUS
370
    -3
390
B579
347
141B6
  0
LAYER
  5
41
330
2
100
AcDbSymbolTableRecord
100
AcDbLayerTableRecord
  2
BDR
 70
     0
 62
     7
  6
CONTINUOUS
370
    -3
390
B579
347
141B6
  0
LAYER
  5
44
330
2
100
AcDbSymbolTableRecord
100
AcDbLayerTableRecord
  2
AME_FRZ
 70
     0
 62
     7
  6
CONTINUOUS
370
    -3
390
B579
347
141B6
  0
LAYER
  5
45
330
2
100
AcDbSymbolTableRecord
100
AcDbLayerTableRecord
  2
ASHADE
 70
     0
 62
     7
  6
CONTINUOUS
370
    -3
390
B579
347
141B6
  0
LAYER
  5
B91F
330
2
100
AcDbSymbolTableRecord
100
AcDbLayerTableRecord
  2
HATCH
 70
     0
 62
     7
  6
CONTINUOUS
370
     9
390
B579
347
141B6
  0
LAYER
  5
F047
330
2
100
AcDbSymbolTableRecord
100
AcDbLayerTableRecord
  2
Defpoints
 70
     0
 62
     7
  6
CONTINUOUS
290
     0
370
    -3
390
B579
347
141B6
  0
LAYER
  5
111E5
330
2
100
AcDbSymbolTableRecord
100
AcDbLayerTableRecord
  2
TEXT
 70
     0
 62
     7
  6
CONTINUOUS
370
    25
390
B579
347
141B6
  0
LAYER
  5
117C7
330
2
100
AcDbSymbolTableRecord
100
AcDbLayerTableRecord
  2
FRAMING
 70
     0
 62
     7
  6
CONTINUOUS
370
    25
390
B579
347
141B6
  0
LAYER
  5
11A4D
330
2
100
AcDbSymbolTableRecord
100
AcDbLayerTableRecord
  2
CENTER LINE
 70
     0
 62
     7
  6
CENTER2
370
    -3
390
B579
347
141B6
  0
ENDTAB
  0
TABLE
  2
STYLE
  5
3
330
0
100
AcDbSymbolTable
 70
     6
  0
STYLE
  5
F
330
3
100
AcDbSymbolTableRecord
100
AcDbTextStyleTableRecord
  2
STANDARD
 70
     0
 40
0.0
 41
1.0
 50
0.0
 71
     0
 42
2.0
  3
TIMES.TTF
  4

1001
ACAD
1000
Times New Roman
1071
       18
  0
STYLE
  5
1D21
330
3
100
AcDbSymbolTableRecord
100
AcDbTextStyleTableRecord
  2
SIMPLEX
 70
     0
 40
0.1
 41
0.6
 50
0.0
 71
     0
 42
0.1
  3
SIMPLEX.shx
  4

  0
STYLE
  5
10B94
330
3
100
AcDbSymbolTableRecord
100
AcDbTextStyleTableRecord
  2
WEB PAGE
 70
     0
 40
0.0
 41
1.0
 50
0.0
 71
     0
 42
2.0
  3
simplex.shx
  4

  0
ENDTAB
  0
TABLE
  2
VIEW
  5
6
330
0
100
AcDbSymbolTable
 70
     1
  0
ENDTAB
  0
TABLE
  2
UCS
  5
7
330
0
100
AcDbSymbolTable
 70
     0
  0
ENDTAB
  0
TABLE
  2
APPID
  5
9
330
0
100
AcDbSymbolTable
 70
     7
  0
APPID
  5
10
330
9
100
AcDbSymbolTableRecord
100
AcDbRegAppTableRecord
  2
ACAD
 70
     0
  0
APPID
  5
3F
330
9
100
AcDbSymbolTableRecord
100
AcDbRegAppTableRecord
  2
AME_SOL
 70
     0
  0
APPID
  5
40
330
9
100
AcDbSymbolTableRecord
100
AcDbRegAppTableRecord
  2
AVE_RENDER
 70
     0
  0
APPID
  5
71A7
330
9
100
AcDbSymbolTableRecord
100
AcDbRegAppTableRecord
  2
AVE_ENTITY_MATERIAL
 70
     0
  0
APPID
  5
71A8
330
9
100
AcDbSymbolTableRecord
100
AcDbRegAppTableRecord
  2
AVE_FINISH
 70
     0
  0
APPID
  5
71A9
330
9
100
AcDbSymbolTableRecord
100
AcDbRegAppTableRecord
  2
AVE_MATERIAL
 70
     0
  0
APPID
  5
71AA
330
9
100
AcDbSymbolTableRecord
100
AcDbRegAppTableRecord
  2
AVE_GLOBAL
 70
     0
  0
ENDTAB
  0
TABLE
  2
DIMSTYLE
  5
A
330
0
100
AcDbSymbolTable
 70
     1
100
AcDbDimStyleTable
 71
     1
340
190D
  0
DIMSTYLE
105
190D
102
{ACAD_REACTORS
330
11A14
330
11A53
330
11A6B
330
11A8D
330
11AC0
330
119DE
330
119E0
102
}
330
A
100
AcDbSymbolTableRecord
100
AcDbDimStyleTableRecord
  2
STANDARD
 70
     0
 41
3.0
 42
2.0
 43
1.0
 44
1.0
140
1.75
141
1.0
147
1.0
276
     2
277
     4
340
F
  0
ENDTAB
  0
TABLE
  2
BLOCK_RECORD
  5
1
330
0
100
AcDbSymbolTable
 70
    64
  0
BLOCK_RECORD
  5
17
330
1
100
AcDbSymbolTableRecord
100
AcDbBlockTableRecord
  2
*MODEL_SPACE
340
B57C
 70
     0
280
     1
281
     0
  0
BLOCK_RECORD
  5
14
330
1
100
AcDbSymbolTableRecord
100
AcDbBlockTableRecord
  2
*PAPER_SPACE
340
B57D
 70
     0
280
     1
281
     0
  0
BLOCK_RECORD
  5
20
330
1
100
AcDbSymbolTableRecord
100
AcDbBlockTableRecord
  2
AME_NIL
340
0
102
{BLKREFS
331
3374
331
3E3C
102
}
 70
     0
280
     1
281
     0
  0
BLOCK_RECORD
  5
21
330
1
100
AcDbSymbolTableRecord
100
AcDbBlockTableRecord
  2
AME_SOL
340
0
102
{BLKREFS
331
3375
331
3E3D
102
}
 70
     0
280
     1
281
     0
  0
BLOCK_RECORD
  5
22
330
1
100
AcDbSymbolTableRecord
100
AcDbBlockTableRecord
  2
AVE_RENDER
340
0
102
{BLKREFS
331
3376
331
3377
331
3378
331
3E3E
331
3E3F
331
3E40
102
}
 70
     0
280
     1
281
     0
  0
BLOCK_RECORD
  5
11A15
330
1
100
AcDbSymbolTableRecord
100
AcDbBlockTableRecord
  2
*D53
340
0
 70
     0
280
     1
281
     0
  0
BLOCK_RECORD
  5
11A54
330
1
100
AcDbSymbolTableRecord
100
AcDbBlockTableRecord
  2
*D54
340
0
 70
     0
280
     1
281
     0
  0
BLOCK_RECORD
  5
11A6C
330
1
100
AcDbSymbolTableRecord
100
AcDbBlockTableRecord
  2
*D55
340
0
 70
     0
280
     1
281
     0
  0
BLOCK_RECORD
  5
11A8E
330
1
100
AcDbSymbolTableRecord
100
AcDbBlockTableRecord
  2
*D56
340
0
 70
     0
280
     1
281
     0
  0
BLOCK_RECORD
  5
11AC1
330
1
100
AcDbSymbolTableRecord
100
AcDbBlockTableRecord
  2
*D57
340
0
 70
     0
280
     1
281
     0
  0
ENDTAB
  0
ENDSEC
  0
SECTION
  2
BLOCKS
  0
BLOCK
  5
57
330
17
100
AcDbEntity
  8
0
100
AcDbBlockBegin
  2
*MODEL_SPACE
 70
     0
 10
0.0
 20
0.0
 30
0.0
  3
*MODEL_SPACE
  1

  0
ENDBLK
  5
58
330
17
100
AcDbEntity
  8
0
100
AcDbBlockEnd
  0
BLOCK
  5
55
330
14
100
AcDbEntity
 67
     1
  8
0
100
AcDbBlockBegin
  2
*PAPER_SPACE
 70
     0
 10
0.0
 20
0.0
 30
0.0
  3
*PAPER_SPACE
  1

  0
ENDBLK
  5
56
330
14
100
AcDbEntity
 67
     1
  8
0
100
AcDbBlockEnd
  0
BLOCK
  5
91E
330
20
100
AcDbEntity
  8
0
100
AcDbBlockBegin
  2
AME_NIL
 70
     0
 10
0.0
 20
0.0
 30
0.0
  3
AME_NIL
  1
AME_NIL
  0
ENDBLK
  5
91F
330
20
100
AcDbEntity
  8
0
100
AcDbBlockEnd
  0
BLOCK
  5
920
330
21
100
AcDbEntity
  8
0
100
AcDbBlockBegin
  2
AME_SOL
 70
     0
 10
0.0
 20
0.0
 30
0.0
  3
AME_SOL
  1
AME_SOL
  0
ENDBLK
  5
921
330
21
100
AcDbEntity
  8
0
100
AcDbBlockEnd
  0
BLOCK
  5
922
330
22
100
AcDbEntity
  8
0
100
AcDbBlockBegin
  2
AVE_RENDER
 70
     0
 10
0.0
 20
0.0
 30
0.0
  3
AVE_RENDER
  1
AVE_RENDER
  0
ENDBLK
  5
923
330
22
100
AcDbEntity
  8
0
100
AcDbBlockEnd
  0
BLOCK
  5
11A20
330
11A15
100
AcDbEntity
  8
0
100
AcDbBlockBegin
  2
*D53
 70
     1
 10
0.0
 20
0.0
 30
0.0
  3
*D53
  1

  0
ARC
  5
13713
330
11A15
100
AcDbEntity
  8
TEXT
 62
     0
370
    -2
100
AcDbCircle
 10
268.1082421255151
 20
284.9737896195758
 30
0.0
 40
16.29120245967018
100
AcDbArc
 50
190.5658951448167
 51
216.2230117514283
  0
ARC
  5
13714
330
11A15
100
AcDbEntity
  8
TEXT
 62
     0
370
    -2
100
AcDbCircle
 10
268.1082421255151
 20
284.9737896195758
 30
0.0
 40
16.29120245967018
100
AcDbArc
 50
235.414882990575
 51
259.4341048551833
  0
SOLID
  5
13715
330
11A15
100
AcDbEntity
  8
TEXT
 62
     0
100
AcDbTrace
 10
251.5953862974069
 20
281.9404960656546
 30
0.0
 11
252.5911384429186
 21
282.0325703004272
 31
0.0
 12
251.8170396658449
 22
284.9737896195758
 32
0.0
 13
251.8170396658449
 23
284.9737896195758
 33
0.0
  0
SOLID
  5
13716
330
11A15
100
AcDbEntity
  8
TEXT
 62
     0
100
AcDbTrace
 10
265.1670228063665
 20
269.4566859369793
 30
0.0
 11
265.0749485715938
 21
268.4609337914677
 31
0.0
 12
268.1082421255151
 22
268.6825871599056
 32
0.0
 13
268.1082421255151
 23
268.6825871599056
 33
0.0
  0
MTEXT
  5
13717
330
11A15
100
AcDbEntity
  8
TEXT
 62
     0
100
AcDbMText
 10
256.5886223925992
 20
273.4541698866601
 30
0.0
 40
1.75
 41
0.0
 46
0.0
 71
     5
 72
     1
  1
\A1;90°
 73
     1
 44
1.0
  0
POINT
  5
13718
330
11A15
100
AcDbEntity
  8
Defpoints
 62
     0
100
AcDbPoint
 10
253.9996469372451
 20
276.8281883897407
 30
0.0
  0
POINT
  5
13719
330
11A15
100
AcDbEntity
  8
Defpoints
 62
     0
100
AcDbPoint
 10
148.108242125515
 20
284.9737896195758
 30
0.0
  0
POINT
  5
1371A
330
11A15
100
AcDbEntity
  8
Defpoints
 62
     0
100
AcDbPoint
 10
268.1082421255151
 20
164.9737896195758
 30
0.0
  0
POINT
  5
1371B
330
11A15
100
AcDbEntity
  8
Defpoints
 62
     0
100
AcDbPoint
 10
268.1082421255151
 20
309.2152129451263
 30
0.0
  0
POINT
  5
1371C
330
11A15
100
AcDbEntity
  8
Defpoints
 62
     0
100
AcDbPoint
 10
268.1082421255151
 20
284.9737896195758
 30
0.0
  0
ENDBLK
  5
11A21
330
11A15
100
AcDbEntity
  8
0
100
AcDbBlockEnd
  0
BLOCK
  5
11A5F
330
11A54
100
AcDbEntity
  8
0
100
AcDbBlockBegin
  2
*D54
 70
     1
 10
0.0
 20
0.0
 30
0.0
  3
*D54
  1

  0
LINE
  5
14180
330
11A54
100
AcDbEntity
  8
TEXT
 62
     0
370
    -2
100
AcDbLine
 10
270.1082421255151
 20
284.9737896195758
 30
0.0
 11
305.4277602931436
 21
284.9737896195758
 31
0.0
  0
LINE
  5
14181
330
11A54
100
AcDbEntity
  8
TEXT
 62
     0
370
    -2
100
AcDbLine
 10
270.1082421255151
 20
164.9737896195757
 30
0.0
 11
305.4277602931436
 21
164.9737896195757
 31
0.0
  0
LINE
  5
14182
330
11A54
100
AcDbEntity
  8
TEXT
 62
     0
370
    -2
100
AcDbLine
 10
304.4277602931436
 20
281.9737896195757
 30
0.0
 11
304.4277602931436
 21
228.7654562862424
 31
0.0
  0
LINE
  5
14183
330
11A54
100
AcDbEntity
  8
TEXT
 62
     0
370
    -2
100
AcDbLine
 10
304.4277602931436
 20
167.9737896195757
 30
0.0
 11
304.4277602931436
 21
221.1821229529091
 31
0.0
  0
SOLID
  5
14184
330
11A54
100
AcDbEntity
  8
TEXT
 62
     0
100
AcDbTrace
 10
303.9277602931436
 20
281.9737896195757
 30
0.0
 11
304.9277602931436
 21
281.9737896195757
 31
0.0
 12
304.4277602931436
 22
284.9737896195758
 32
0.0
 13
304.4277602931436
 23
284.9737896195758
 33
0.0
  0
SOLID
  5
14185
330
11A54
100
AcDbEntity
  8
TEXT
 62
     0
100
AcDbTrace
 10
303.9277602931436
 20
167.9737896195757
 30
0.0
 11
304.9277602931436
 21
167.9737896195757
 31
0.0
 12
304.4277602931436
 22
164.9737896195757
 32
0.0
 13
304.4277602931436
 23
164.9737896195757
 33
0.0
  0
MTEXT
  5
14186
330
11A54
100
AcDbEntity
  8
TEXT
 62
     0
100
AcDbMText
 10
304.4277602931436
 20
224.9737896195758
 30
0.0
 40
1.75
 41
0.0
 46
0.0
 71
     5
 72
     1
  1
\A1;OPENING HEIGHT =\P(DOOR HEIGHT)
  7
WEB PAGE
 73
     1
 44
1.0
  0
POINT
  5
14187
330
11A54
100
AcDbEntity
  8
Defpoints
 62
     0
100
AcDbPoint
 10
268.1082421255151
 20
284.9737896195758
 30
0.0
  0
POINT
  5
14188
330
11A54
100
AcDbEntity
  8
Defpoints
 62
     0
100
AcDbPoint
 10
268.1082421255151
 20
164.9737896195757
 30
0.0
  0
POINT
  5
14189
330
11A54
100
AcDbEntity
  8
Defpoints
 62
     0
100
AcDbPoint
 10
304.4277602931436
 20
164.9737896195757
 30
0.0
  0
ENDBLK
  5
11A60
330
11A54
100
AcDbEntity
  8
0
100
AcDbBlockEnd
  0
BLOCK
  5
11A77
330
11A6C
100
AcDbEntity
  8
0
100
AcDbBlockBegin
  2
*D55
 70
     1
 10
0.0
 20
0.0
 30
0.0
  3
*D55
  1

  0
LINE
  5
1418A
330
11A6C
100
AcDbEntity
  8
TEXT
 62
     0
370
    -2
100
AcDbLine
 10
148.108242125515
 20
162.9737896195758
 30
0.0
 11
148.108242125515
 21
153.2475113459742
 31
0.0
  0
LINE
  5
1418B
330
11A6C
100
AcDbEntity
  8
TEXT
 62
     0
370
    -2
100
AcDbLine
 10
268.1082421255151
 20
162.9737896195758
 30
0.0
 11
268.1082421255151
 21
153.2475113459742
 31
0.0
  0
LINE
  5
1418C
330
11A6C
100
AcDbEntity
  8
TEXT
 62
     0
370
    -2
100
AcDbLine
 10
151.108242125515
 20
154.2475113459742
 30
0.0
 11
193.858242125515
 21
154.2475113459742
 31
0.0
  0
LINE
  5
1418D
330
11A6C
100
AcDbEntity
  8
TEXT
 62
     0
370
    -2
100
AcDbLine
 10
265.108242125515
 20
154.2475113459742
 30
0.0
 11
222.3582421255151
 21
154.2475113459742
 31
0.0
  0
SOLID
  5
1418E
330
11A6C
100
AcDbEntity
  8
TEXT
 62
     0
100
AcDbTrace
 10
151.108242125515
 20
154.7475113459742
 30
0.0
 11
151.108242125515
 21
153.7475113459742
 31
0.0
 12
148.108242125515
 22
154.2475113459742
 32
0.0
 13
148.108242125515
 23
154.2475113459742
 33
0.0
  0
SOLID
  5
1418F
330
11A6C
100
AcDbEntity
  8
TEXT
 62
     0
100
AcDbTrace
 10
265.108242125515
 20
154.7475113459742
 30
0.0
 11
265.108242125515
 21
153.7475113459742
 31
0.0
 12
268.1082421255151
 22
154.2475113459742
 32
0.0
 13
268.1082421255151
 23
154.2475113459742
 33
0.0
  0
MTEXT
  5
14190
330
11A6C
100
AcDbEntity
  8
TEXT
 62
     0
100
AcDbMText
 10
208.1082421255151
 20
154.2475113459742
 30
0.0
 40
1.75
 41
0.0
 46
0.0
 71
     5
 72
     1
  1
\A1;OPENING WIDTH =\P(DOOR WIDTH - 2")
  7
WEB PAGE
 73
     1
 44
1.0
  0
POINT
  5
14191
330
11A6C
100
AcDbEntity
  8
Defpoints
 62
     0
100
AcDbPoint
 10
148.108242125515
 20
164.9737896195757
 30
0.0
  0
POINT
  5
14192
330
11A6C
100
AcDbEntity
  8
Defpoints
 62
     0
100
AcDbPoint
 10
268.1082421255151
 20
164.9737896195757
 30
0.0
  0
POINT
  5
14193
330
11A6C
100
AcDbEntity
  8
Defpoints
 62
     0
100
AcDbPoint
 10
268.1082421255151
 20
154.2475113459742
 30
0.0
  0
ENDBLK
  5
11A78
330
11A6C
100
AcDbEntity
  8
0
100
AcDbBlockEnd
  0
BLOCK
  5
11A99
330
11A8E
100
AcDbEntity
  8
0
100
AcDbBlockBegin
  2
*D56
 70
     1
 10
0.0
 20
0.0
 30
0.0
  3
*D56
  1

  0
LINE
  5
138A4
330
11A8E
100
AcDbEntity
  8
TEXT
 62
     0
370
    -2
100
AcDbLine
 10
275.608242125515
 20
284.9737896195758
 30
0.0
 11
305.4277602931436
 21
284.9737896195758
 31
0.0
  0
LINE
  5
138A5
330
11A8E
100
AcDbEntity
  8
TEXT
 62
     0
370
    -2
100
AcDbLine
 10
275.608242125515
 20
308.5987896195758
 30
0.0
 11
305.4277602931436
 21
308.5987896195758
 31
0.0
  0
LINE
  5
138A6
330
11A8E
100
AcDbEntity
  8
TEXT
 62
     0
370
    -2
100
AcDbLine
 10
304.4277602931436
 20
287.9737896195758
 30
0.0
 11
304.4277602931436
 21
291.3696229529091
 31
0.0
  0
LINE
  5
138A7
330
11A8E
100
AcDbEntity
  8
TEXT
 62
     0
370
    -2
100
AcDbLine
 10
304.4277602931436
 20
305.5987896195758
 30
0.0
 11
304.4277602931436
 21
302.2029562862424
 31
0.0
  0
SOLID
  5
138A8
330
11A8E
100
AcDbEntity
  8
TEXT
 62
     0
100
AcDbTrace
 10
303.9277602931436
 20
287.9737896195758
 30
0.0
 11
304.9277602931436
 21
287.9737896195758
 31
0.0
 12
304.4277602931436
 22
284.9737896195758
 32
0.0
 13
304.4277602931436
 23
284.9737896195758
 33
0.0
  0
SOLID
  5
138A9
330
11A8E
100
AcDbEntity
  8
TEXT
 62
     0
100
AcDbTrace
 10
303.9277602931436
 20
305.5987896195758
 30
0.0
 11
304.9277602931436
 21
305.5987896195758
 31
0.0
 12
304.4277602931436
 22
308.5987896195758
 32
0.0
 13
304.4277602931436
 23
308.5987896195758
 33
0.0
  0
MTEXT
  5
138AA
330
11A8E
100
AcDbEntity
  8
TEXT
 62
     0
100
AcDbMText
 10
304.4277602931436
 20
296.7862896195758
 30
0.0
 40
1.75
 41
0.0
 46
0.0
 71
     5
 72
     1
  1
\A1;HEADROOM\P(HIGH LIFT & VERTICAL LIFT\PREQUIRES ADDITIONAL HEADROOM)
  7
WEB PAGE
 73
     1
 44
1.0
  0
POINT
  5
138AB
330
11A8E
100
AcDbEntity
  8
Defpoints
 62
     0
100
AcDbPoint
 10
273.6082421255151
 20
284.9737896195758
 30
0.0
  0
POINT
  5
138AC
330
11A8E
100
AcDbEntity
  8
Defpoints
 62
     0
100
AcDbPoint
 10
273.6082421255151
 20
308.5987896195758
 30
0.0
  0
POINT
  5
138AD
330
11A8E
100
AcDbEntity
  8
Defpoints
 62
     0
100
AcDbPoint
 10
304.4277602931436
 20
308.5987896195758
 30
0.0
  0
ENDBLK
  5
11A9A
330
11A8E
100
AcDbEntity
  8
0
100
AcDbBlockEnd
  0
BLOCK
  5
11ACC
330
11AC1
100
AcDbEntity
  8
0
100
AcDbBlockBegin
  2
*D57
 70
     1
 10
0.0
 20
0.0
 30
0.0
  3
*D57
  1

  0
LINE
  5
138CE
330
11AC1
100
AcDbEntity
  8
TEXT
 62
     0
370
    -2
100
AcDbLine
 10
113.0469987452696
 20
297.6119896195758
 30
0.0
 11
107.6133118105686
 21
297.6119896195758
 31
0.0
  0
LINE
  5
138CF
330
11AC1
100
AcDbEntity
  8
TEXT
 62
     0
370
    -2
100
AcDbLine
 10
130.108242125515
 20
164.9737896195758
 30
0.0
 11
107.6133118105685
 21
164.9737896195758
 31
0.0
  0
LINE
  5
138D0
330
11AC1
100
AcDbEntity
  8
TEXT
 62
     0
370
    -2
100
AcDbLine
 10
108.6133118105686
 20
294.6119896195757
 30
0.0
 11
108.6133118105686
 21
234.6262229529091
 31
0.0
  0
LINE
  5
138D1
330
11AC1
100
AcDbEntity
  8
TEXT
 62
     0
370
    -2
100
AcDbLine
 10
108.6133118105685
 20
167.9737896195758
 30
0.0
 11
108.6133118105686
 21
227.9595562862424
 31
0.0
  0
SOLID
  5
138D2
330
11AC1
100
AcDbEntity
  8
TEXT
 62
     0
100
AcDbTrace
 10
108.1133118105686
 20
294.6119896195757
 30
0.0
 11
109.1133118105686
 21
294.6119896195757
 31
0.0
 12
108.6133118105686
 22
297.6119896195758
 32
0.0
 13
108.6133118105686
 23
297.6119896195758
 33
0.0
  0
SOLID
  5
138D3
330
11AC1
100
AcDbEntity
  8
TEXT
 62
     0
100
AcDbTrace
 10
108.1133118105686
 20
167.9737896195758
 30
0.0
 11
109.1133118105686
 21
167.9737896195758
 31
0.0
 12
108.6133118105685
 22
164.9737896195758
 32
0.0
 13
108.6133118105685
 23
164.9737896195758
 33
0.0
  0
MTEXT
  5
138D4
330
11AC1
100
AcDbEntity
  8
TEXT
 62
     0
100
AcDbMText
 10
108.6133118105685
 20
231.2928896195758
 30
0.0
 40
1.75
 41
0.0
 46
0.0
 71
     5
 72
     1
  1
\A1;FLOOR TO\PSHAFT CENTER
  7
WEB PAGE
 73
     1
 44
1.0
  0
POINT
  5
138D5
330
11AC1
100
AcDbEntity
  8
Defpoints
 62
     0
100
AcDbPoint
 10
115.0469987452696
 20
297.6119896195758
 30
0.0
  0
POINT
  5
138D6
330
11AC1
100
AcDbEntity
  8
Defpoints
 62
     0
100
AcDbPoint
 10
132.108242125515
 20
164.9737896195758
 30
0.0
  0
POINT
  5
138D7
330
11AC1
100
AcDbEntity
  8
Defpoints
 62
     0
100
AcDbPoint
 10
108.6133118105685
 20
164.9737896195758
 30
0.0
  0
ENDBLK
  5
11ACD
330
11AC1
100
AcDbEntity
  8
0
100
AcDbBlockEnd
  0
ENDSEC
  0
SECTION
  2
ENTITIES
  0
INSERT
  5
3374
330
17
100
AcDbEntity
  8
AME_FRZ
100
AcDbBlockReference
  2
AME_NIL
 10
0.0
 20
0.0
 30
0.0
 41
24.609375
 42
24.609375
 43
24.609375
  0
INSERT
  5
3375
330
17
100
AcDbEntity
  8
AME_FRZ
100
AcDbBlockReference
  2
AME_SOL
 10
0.0
 20
0.0
 30
0.0
 41
24.609375
 42
24.609375
 43
24.609375
1001
AME_SOL
1000
R2.1
1000
AME2
1000
sq cm
1070
     3
1070
     0
1070
     3
1000
wire
1040
45.0
1000
U
1040
1.0
1000
cm
1000
gm
1000
MILD_STEEL
1070
    25
1000
CSG
1070
     1
1070
     3
1070
     3
1070
     3
1070
     0
1000
cu cm
1070
     1
1070
     0
1005
2D0D
  0
INSERT
  5
3376
330
17
100
AcDbEntity
  8
ASHADE
 62
     1
100
AcDbBlockReference
  2
AVE_RENDER
 10
0.0
 20
0.0
 30
0.0
 41
24.609375
 42
24.609375
 43
24.609375
1001
AVE_RENDER
1002
{
1070
     2
1000
Pref
1070
    30
1070
    20
1070
     0
1070
     0
1000

1070
    10
1070
     0
1070
    30
1040
1.0
1070
     1
1040
0.3
1040
0.7
1040
0.0
1040
10.0
1010
-1.0
1020
-1.0
1030
-1.0
1040
0.3
1070
    49
1002
}
  0
INSERT
  5
3377
330
17
100
AcDbEntity
  8
ASHADE
 62
     3
100
AcDbBlockReference
  2
AVE_RENDER
 10
0.0
 20
0.0
 30
0.0
 41
24.609375
 42
24.609375
 43
24.609375
1001
AVE_RENDER
1002
{
1070
     0
1000
Full Opt
1070
     0
1070
     1
1070
     1
1070
     1
1070
     0
1070
     0
1070
     0
1070
     1
1070
     1
1040
0.0001
1040
0.0001
1002
}
  0
INSERT
  5
3378
330
17
100
AcDbEntity
  8
ASHADE
 62
     4
100
AcDbBlockReference
  2
AVE_RENDER
 10
0.0
 20
0.0
 30
0.0
 41
24.609375
 42
24.609375
 43
24.609375
1001
AVE_RENDER
1002
{
1070
     0
1000
Quick Opt
1070
     0
1070
     1
1070
     1
1070
     1
1070
     0
1070
     0
1070
     1
1002
}
  0
INSERT
  5
3E3C
330
17
100
AcDbEntity
  8
AME_FRZ
100
AcDbBlockReference
  2
AME_NIL
 10
0.0
 20
0.0
 30
0.0
 41
34.993056
 42
34.993056
 43
34.993056
  0
INSERT
  5
3E3D
330
17
100
AcDbEntity
  8
AME_FRZ
100
AcDbBlockReference
  2
AME_SOL
 10
0.0
 20
0.0
 30
0.0
 41
34.993056
 42
34.993056
 43
34.993056
1001
AME_SOL
1000
R2.1
1000
AME2
1000
sq cm
1070
     3
1070
     0
1070
     3
1000
wire
1040
45.0
1000
U
1040
1.0
1000
cm
1000
gm
1000
MILD_STEEL
1070
    25
1000
CSG
1070
     1
1070
     3
1070
     3
1070
     3
1070
     0
1000
cu cm
1070
     1
1070
     0
1005
2D0D
  0
INSERT
  5
3E3E
330
17
100
AcDbEntity
  8
ASHADE
 62
     1
100
AcDbBlockReference
  2
AVE_RENDER
 10
0.0
 20
0.0
 30
0.0
 41
34.993056
 42
34.993056
 43
34.993056
1001
AVE_RENDER
1002
{
1070
     2
1000
Pref
1070
    30
1070
    20
1070
     0
1070
     0
1000

1070
    10
1070
     0
1070
    30
1040
1.0
1070
     1
1040
0.3
1040
0.7
1040
0.0
1040
10.0
1010
-1.0
1020
-1.0
1030
-1.0
1040
0.3
1070
    49
1002
}
  0
INSERT
  5
3E3F
330
17
100
AcDbEntity
  8
ASHADE
 62
     3
100
AcDbBlockReference
  2
AVE_RENDER
 10
0.0
 20
0.0
 30
0.0
 41
34.993056
 42
34.993056
 43
34.993056
1001
AVE_RENDER
1002
{
1070
     0
1000
Full Opt
1070
     0
1070
     1
1070
     1
1070
     1
1070
     0
1070
     0
1070
     0
1070
     1
1070
     1
1040
0.0001
1040
0.0001
1002
}
  0
INSERT
  5
3E40
330
17
100
AcDbEntity
  8
ASHADE
 62
     4
100
AcDbBlockReference
  2
AVE_RENDER
 10
0.0
 20
0.0
 30
0.0
 41
34.993056
 42
34.993056
 43
34.993056
1001
AVE_RENDER
1002
{
1070
     0
1000
Quick Opt
1070
     0
1070
     1
1070
     1
1070
     1
1070
     0
1070
     0
1070
     1
1002
}
  0
MTEXT
  5
405A
330
17
100
AcDbEntity
  8
BDR
100
AcDbMText
 10
353.0635595970848
 20
56.58463448330076
 30
0.0
 40
0.1
 41
37.627
 46
0.0
 71
     1
 72
     5
  1

  7
SIMPLEX
 73
     1
 44
1.0
  0
MTEXT
  5
8913
330
17
100
AcDbEntity
  8
BDR
100
AcDbMText
 10
877.3233813939555
 20
282.200335478095
 30
0.0
 40
3.0
 41
0.0
 46
0.0
 71
     4
 72
     1
  1
\A1;
 73
     1
 44
1.0
  0
MTEXT
  5
BB0D
330
17
100
AcDbEntity
  8
HATCH
 48
0.5
100
AcDbMText
 10
862.711853351133
 20
170.0626199810501
 30
0.0
 40
1.1
 41
0.0
 46
0.0
 71
     4
 72
     1
  1

 73
     1
 44
1.0
  0
MTEXT
  5
BD7C
330
17
100
AcDbEntity
  8
BDR
100
AcDbMText
 10
648.3700742151118
 20
223.690432353357
 30
0.0
 40
2.5
 41
0.0
 46
0.0
 71
     1
 72
     1
  1

 73
     1
 44
1.0
  0
MTEXT
  5
CE5A
330
17
100
AcDbEntity
  8
BDR
100
AcDbMText
 10
645.7641368582438
 20
217.5930814931963
 30
0.0
 40
2.5
 41
0.0
 46
0.0
 71
     1
 72
     1
  1

 73
     1
 44
1.0
  0
MTEXT
  5
D3E4
330
17
100
AcDbEntity
  8
0
100
AcDbMText
 10
393.5054431651311
 20
218.3654697964034
 30
0.0
 40
2.5
 41
0.0
 46
0.0
 71
     1
 72
     1
  1

 73
     1
 44
1.0
  0
MTEXT
  5
D891
330
17
100
AcDbEntity
  8
BDR
100
AcDbMText
 10
278.8170020773584
 20
330.6127380359346
 30
0.0
 40
2.5
 41
0.0
 46
0.0
 71
     1
 72
     1
  1

 73
     1
 44
1.0
  0
MTEXT
  5
D894
330
17
100
AcDbEntity
  8
BDR
100
AcDbMText
 10
282.4572809863948
 20
283.699790306357
 30
0.0
 40
2.5
 41
0.0
 46
0.0
 71
     1
 72
     1
  1

 73
     1
 44
1.0
  0
MTEXT
  5
D8BC
330
17
100
AcDbEntity
  8
BDR
100
AcDbMText
 10
280.6377852630108
 20
262.5297979250931
 30
0.0
 40
2.5
 41
0.0
 46
0.0
 71
     1
 72
     1
  1

 73
     1
 44
1.0
  0
MTEXT
  5
D8BE
330
17
100
AcDbEntity
  8
BDR
100
AcDbMText
 10
280.052229178619
 20
230.2002619872308
 30
0.0
 40
2.5
 41
0.0
 46
0.0
 71
     1
 72
     1
  1

 73
     1
 44
1.0
  0
MTEXT
  5
D8C2
330
17
100
AcDbEntity
  8
BDR
100
AcDbMText
 10
210.2931674542633
 20
331.4813092531851
 30
0.0
 40
2.5
 41
0.0
 46
0.0
 71
     9
 72
     1
  1

 73
     1
 44
1.0
  0
MTEXT
  5
DE82
330
17
100
AcDbEntity
  8
0
100
AcDbMText
 10
230.9601867147205
 20
186.4290317625283
 30
0.0
 40
3.5
 41
0.0
 46
0.0
 71
     1
 72
     1
  1

 73
     1
 44
1.0
  0
LINE
  5
11551
330
17
100
AcDbEntity
  8
FRAMING
100
AcDbLine
 10
268.1082421255151
 20
164.9737896195757
 30
0.0
 11
148.108242125515
 21
164.9737896195757
 31
0.0
  0
LINE
  5
11552
330
17
100
AcDbEntity
  8
FRAMING
100
AcDbLine
 10
148.108242125515
 20
164.9737896195757
 30
0.0
 11
148.108242125515
 21
284.9737896195758
 31
0.0
  0
LINE
  5
11553
330
17
100
AcDbEntity
  8
FRAMING
100
AcDbLine
 10
148.108242125515
 20
284.9737896195758
 30
0.0
 11
208.108242125515
 21
284.9737896195758
 31
0.0
  0
LINE
  5
117C6
330
17
100
AcDbEntity
  8
HATCH
100
AcDbLine
 10
148.108242125515
 20
164.9737896195757
 30
0.0
 11
132.108242125515
 21
164.9737896195758
 31
0.0
  0
LEADER
  5
119DE
330
17
100
AcDbEntity
  8
TEXT
100
AcDbLeader
  3
STANDARD
 73
     0
 40
4.666666666666666
 41
23.08333333333333
 76
     2
 10
148.108242125515
 20
225.5724678766911
 30
0.0
 10
162.8148984165029
 20
225.572467876691
 30
0.0
340
119DF
213
0.0
223
-1.25
233
0.0
1001
ACAD
1000
DSTYLE
1002
{
1070
   147
1040
1.0
1070
    77
1070
     0
1002
}
  0
MTEXT
  5
119DF
102
{ACAD_REACTORS
330
119DE
102
}
330
17
100
AcDbEntity
  8
TEXT
100
AcDbMText
 10
163.8148984165029
 20
226.2237896195757
 30
0.0
 40
1.75
 41
0.0
 46
0.0
 71
     1
 72
     1
  1
CONCRETE BLOCK\PWALL
  7
WEB PAGE
 73
     1
 44
1.0
  0
LEADER
  5
119E0
330
17
100
AcDbEntity
  8
TEXT
100
AcDbLeader
  3
STANDARD
 73
     0
 74
     0
 75
     1
 40
5.583333333333333
 41
25.08333333333334
 76
     3
 10
162.8148984165029
 20
284.9737896195758
 30
0.0
 10
165.8283105992113
 20
274.223383643589
 30
0.0
 10
168.8283105992113
 20
274.223383643589
 30
0.0
340
119E1
213
0.0
223
-1.25
233
0.0
1001
ACAD
1000
DSTYLE
1002
{
1070
   147
1040
1.0
1070
    77
1070
     0
1002
}
  0
MTEXT
  5
119E1
102
{ACAD_REACTORS
330
119E0
102
}
330
17
100
AcDbEntity
  8
TEXT
100
AcDbMText
 10
169.8283105992113
 20
275.4733836435889
 30
0.0
 40
1.75
 41
0.0
 46
0.0
 71
     1
 72
     1
  1
2x6 WOOD HEADER\P(MINIMUM)
  7
WEB PAGE
 73
     1
 44
1.0
  0
LINE
  5
11A08
330
17
100
AcDbEntity
  8
FRAMING
100
AcDbLine
 10
268.1082421255151
 20
164.9737896195757
 30
0.0
 11
268.108242125515
 21
284.9737896195757
 31
0.0
  0
MTEXT
  5
11A13
330
17
100
AcDbEntity
  8
TEXT
100
AcDbMText
 10
208.1082421255151
 20
195.637368755334
 30
0.0
 40
1.75
 41
0.0
 46
0.0
 71
     2
 72
     1
  1
FOR ATTACHING WOOD JAMB TO STRUCTURE\PPLEASE CONTACT ENGINEERING DEPARTMENT\PFOR FASTENER TYPE AND SPACING REQUIREMENTS.
  7
WEB PAGE
 73
     1
 44
1.0
  0
DIMENSION
  5
11A14
330
17
100
AcDbEntity
  8
TEXT
100
AcDbDimension
  2
*D53
 10
268.1082421255151
 20
284.9737896195758
 30
0.0
 11
256.5886223925993
 21
273.4541698866601
 31
0.0
 70
    34
 71
     5
 42
1.570796326794896
 73
     0
 74
     0
 75
     0
  3
STANDARD
100
AcDb2LineAngularDimension
 13
268.1082421255151
 23
164.9737896195757
 33
0.0
 14
268.1082421255151
 24
309.2152129451263
 34
0.0
 15
148.108242125515
 25
284.9737896195758
 35
0.0
 16
253.9996469372451
 26
276.8281883897407
 36
0.0
  0
LINE
  5
11A4E
330
17
100
AcDbEntity
  8
CENTER LINE
100
AcDbLine
 10
115.0469987452695
 20
297.6119896195758
 30
0.0
 11
279.6082421255151
 21
297.6119896195758
 31
0.0
  0
LINE
  5
11A52
330
17
100
AcDbEntity
  8
CENTER LINE
100
AcDbLine
 10
208.108242125515
 20
326.6917143326192
 30
0.0
 11
208.108242125515
 21
266.7297496345713
 31
0.0
  0
DIMENSION
  5
11A53
330
17
100
AcDbEntity
  8
TEXT
100
AcDbDimension
  2
*D54
 10
304.4277602931436
 20
164.9737896195757
 30
0.0
 11
304.4277602931436
 21
224.9737896195758
 31
0.0
 70
    32
  1
OPENING HEIGHT =\P(DOOR HEIGHT)
 71
     5
 42
120.0
 73
     0
 74
     0
 75
     0
  3
STANDARD
100
AcDbAlignedDimension
 13
268.1082421255151
 23
284.9737896195758
 33
0.0
 14
268.1082421255151
 24
164.9737896195757
 34
0.0
 50
90.0
100
AcDbRotatedDimension
1001
ACAD
1000
DSTYLE
1002
{
1070
   340
1005
10B94
1002
}
  0
DIMENSION
  5
11A6B
330
17
100
AcDbEntity
  8
TEXT
100
AcDbDimension
  2
*D55
 10
268.1082421255151
 20
154.2475113459742
 30
0.0
 11
208.1082421255151
 21
154.2475113459742
 31
0.0
 70
    32
  1
OPENING WIDTH =\P(DOOR WIDTH - 2")
 71
     5
 42
120.0
 73
     0
 74
     0
 75
     0
  3
STANDARD
100
AcDbAlignedDimension
 13
148.108242125515
 23
164.9737896195757
 33
0.0
 14
268.1082421255151
 24
164.9737896195757
 34
0.0
100
AcDbRotatedDimension
1001
ACAD
1000
DSTYLE
1002
{
1070
   340
1005
10B94
1002
}
  0
DIMENSION
  5
11A8D
330
17
100
AcDbEntity
  8
TEXT
100
AcDbDimension
  2
*D56
 10
304.4277602931436
 20
308.5987896195758
 30
0.0
 11
304.4277602931436
 21
296.7862896195758
 31
0.0
 70
    32
  1
HEADROOM\P(HIGH LIFT & VERTICAL LIFT\PREQUIRES ADDITIONAL HEADROOM)
 71
     5
 42
23.625
 73
     0
 74
     0
 75
     0
  3
STANDARD
100
AcDbAlignedDimension
 13
273.6082421255151
 23
284.9737896195758
 33
0.0
 14
273.6082421255151
 24
308.5987896195758
 34
0.0
 50
90.0
100
AcDbRotatedDimension
1001
ACAD
1000
DSTYLE
1002
{
1070
   340
1005
10B94
1002
}
  0
MTEXT
  5
11ABC
330
17
100
AcDbEntity
  8
FRAMING
100
AcDbMText
 10
208.5925543476369
 20
330.2573860169549
 30
0.0
 40
2.5
 41
0.0
 46
0.0
 71
     6
 72
     1
  1
C
 73
     1
 44
1.0
  0
MTEXT
  5
11ABD
330
17
100
AcDbEntity
  8
FRAMING
100
AcDbMText
 10
209.3449404159551
 20
329.0271719440237
 30
0.0
 40
2.5
 41
0.0
 46
0.0
 71
     6
 72
     1
  1
L
 73
     1
 44
1.0
  0
DIMENSION
  5
11AC0
330
17
100
AcDbEntity
  8
TEXT
100
AcDbDimension
  2
*D57
 10
108.6133118105685
 20
164.9737896195758
 30
0.0
 11
108.6133118105685
 21
231.2928896195758
 31
0.0
 70
    32
  1
FLOOR TO\PSHAFT CENTER
 71
     5
 42
132.6381999999999
 73
     0
 74
     0
 75
     0
  3
STANDARD
100
AcDbAlignedDimension
 13
115.0469987452696
 23
297.6119896195758
 33
0.0
 14
132.108242125515
 24
164.9737896195758
 34
0.0
 50
90.0
100
AcDbRotatedDimension
1001
ACAD
1000
DSTYLE
1002
{
1070
   340
1005
10B94
1002
}
  0
MTEXT
  5
11B15
330
17
100
AcDbEntity
  8
TEXT
100
AcDbMText
 10
150.9966001062817
 20
146.9892362883974
 30
0.0
 40
2.0
 41
139.5
 46
0.0
 71
     1
 72
     5
  1
1) FOR DOORS REQUIRING MORE THAN TWO SPRINGS, ADDITIONAL\PSPRING PADS MAY BE NEEDED.
  7
WEB PAGE
 73
     1
 44
1.0
  0
POINT
  5
11CD1
330
17
100
AcDbEntity
  8
FRAMING
  6
ByBlock
 62
     7
100
AcDbPoint
 10
267.6082421738759
 20
70.62301318305121
 30
0.0
  0
LWPOLYLINE
  5
13754
330
17
100
AcDbEntity
  8
FRAMING
100
AcDbPolyline
 90
        4
 70
     1
 43
0.0
 10
203.1082421255151
 20
291.6119896195758
 10
213.1082421255151
 20
291.6119896195758
 10
213.1082421255151
 20
303.6119896195757
 10
203.1082421255151
 20
303.6119896195757
  0
LEADER
  5
1375C
330
17
100
AcDbEntity
  8
TEXT
100
AcDbLeader
  3
STANDARD
 73
     0
 75
     1
 40
5.916666666666666
 41
37.99999999999997
 76
     3
 10
203.6909267161123
 20
303.3275573516663
 30
0.0
 10
193.8520439719275
 20
314.2442075705626
 30
0.0
 10
190.8520439719275
 20
314.2442075705626
 30
0.0
213
0.0
223
1.25
233
0.0
1001
ACAD
1000
DSTYLE
1002
{
1070
   147
1040
1.0
1070
    77
1070
     0
1002
}
  0
MTEXT
  5
1375D
102
{ACAD_REACTORS
330
1375C
102
}
330
17
100
AcDbEntity
  8
TEXT
100
AcDbMText
 10
189.8520439719275
 20
312.9942075705626
 30
0.0
 40
1.75
 41
0.0
 46
0.0
 71
     6
 72
     1
  1
10"W x 12"H x 1/4" STEEL\PCENTER SUPPORT (MINIMUM)
  7
WEB PAGE
 73
     1
 44
1.0
  0
CIRCLE
  5
1375E
330
17
100
AcDbEntity
  8
FRAMING
100
AcDbCircle
 10
212.224947381824
 20
302.7728683417441
 30
0.0
 40
0.3939959703379827
  0
CIRCLE
  5
13760
330
17
100
AcDbEntity
  8
FRAMING
100
AcDbCircle
 10
203.9915368692062
 20
302.7728683417441
 30
0.0
 40
0.3939959703379827
  0
CIRCLE
  5
13761
330
17
100
AcDbEntity
  8
FRAMING
100
AcDbCircle
 10
212.224947381824
 20
292.4511108974074
 30
0.0
 40
0.3939959703379827
  0
CIRCLE
  5
13762
330
17
100
AcDbEntity
  8
FRAMING
100
AcDbCircle
 10
203.9915368692062
 20
292.4511108974074
 30
0.0
 40
0.3939959703379827
  0
LINE
  5
13764
330
17
100
AcDbEntity
  8
HATCH
100
AcDbLine
 10
148.108242125515
 20
172.5987896195757
 30
0.0
 11
132.108242125515
 21
172.5987896195757
 31
0.0
  0
LINE
  5
13765
330
17
100
AcDbEntity
  8
HATCH
100
AcDbLine
 10
132.108242125515
 20
164.9737896195758
 30
0.0
 11
132.108242125515
 21
172.5987896195757
 31
0.0
  0
LINE
  5
13770
330
17
100
AcDbEntity
  8
HATCH
100
AcDbLine
 10
148.108242125515
 20
172.9737896195757
 30
0.0
 11
123.733242125515
 21
172.9737896195758
 31
0.0
  0
LINE
  5
13771
330
17
100
AcDbEntity
  8
HATCH
100
AcDbLine
 10
148.108242125515
 20
180.5987896195757
 30
0.0
 11
123.733242125515
 21
180.5987896195758
 31
0.0
  0
LINE
  5
13772
330
17
100
AcDbEntity
  8
HATCH
100
AcDbLine
 10
140.108242125515
 20
172.9737896195757
 30
0.0
 11
140.108242125515
 21
180.5987896195757
 31
0.0
  0
LINE
  5
13774
330
17
100
AcDbEntity
  8
HATCH
100
AcDbLine
 10
123.733242125515
 20
172.9737896195758
 30
0.0
 11
123.733242125515
 21
180.5987896195758
 31
0.0
  0
LINE
  5
13775
330
17
100
AcDbEntity
  8
HATCH
100
AcDbLine
 10
139.733242125515
 20
172.9737896195757
 30
0.0
 11
139.733242125515
 21
180.5987896195757
 31
0.0
  0
LINE
  5
13776
330
17
100
AcDbEntity
  8
HATCH
100
AcDbLine
 10
148.108242125515
 20
188.5987896195757
 30
0.0
 11
132.108242125515
 21
188.5987896195758
 31
0.0
  0
LINE
  5
13777
330
17
100
AcDbEntity
  8
HATCH
100
AcDbLine
 10
132.108242125515
 20
180.9737896195758
 30
0.0
 11
132.108242125515
 21
188.5987896195758
 31
0.0
  0
LINE
  5
13778
330
17
100
AcDbEntity
  8
HATCH
100
AcDbLine
 10
132.108242125515
 20
180.9737896195758
 30
0.0
 11
148.108242125515
 21
180.9737896195758
 31
0.0
  0
LINE
  5
13779
330
17
100
AcDbEntity
  8
HATCH
100
AcDbLine
 10
148.108242125515
 20
188.9737896195758
 30
0.0
 11
123.733242125515
 21
188.9737896195758
 31
0.0
  0
LINE
  5
1377A
330
17
100
AcDbEntity
  8
HATCH
100
AcDbLine
 10
139.733242125515
 20
188.9737896195758
 30
0.0
 11
139.733242125515
 21
196.5987896195757
 31
0.0
  0
LINE
  5
1377B
330
17
100
AcDbEntity
  8
HATCH
100
AcDbLine
 10
140.108242125515
 20
188.9737896195758
 30
0.0
 11
140.108242125515
 21
196.5987896195757
 31
0.0
  0
LINE
  5
1377C
330
17
100
AcDbEntity
  8
HATCH
100
AcDbLine
 10
148.108242125515
 20
196.5987896195757
 30
0.0
 11
123.733242125515
 21
196.5987896195758
 31
0.0
  0
LINE
  5
1377D
330
17
100
AcDbEntity
  8
HATCH
100
AcDbLine
 10
123.733242125515
 20
188.9737896195758
 30
0.0
 11
123.733242125515
 21
196.5987896195758
 31
0.0
  0
LINE
  5
1377E
330
17
100
AcDbEntity
  8
HATCH
100
AcDbLine
 10
148.108242125515
 20
212.5987896195758
 30
0.0
 11
123.733242125515
 21
212.5987896195758
 31
0.0
  0
LINE
  5
1377F
330
17
100
AcDbEntity
  8
HATCH
100
AcDbLine
 10
140.108242125515
 20
204.9737896195757
 30
0.0
 11
140.108242125515
 21
212.5987896195758
 31
0.0
  0
LINE
  5
13780
330
17
100
AcDbEntity
  8
HATCH
100
AcDbLine
 10
139.733242125515
 20
204.9737896195757
 30
0.0
 11
139.733242125515
 21
212.5987896195758
 31
0.0
  0
LINE
  5
13781
330
17
100
AcDbEntity
  8
HATCH
100
AcDbLine
 10
148.108242125515
 20
204.9737896195757
 30
0.0
 11
123.733242125515
 21
204.9737896195758
 31
0.0
  0
LINE
  5
13782
330
17
100
AcDbEntity
  8
HATCH
100
AcDbLine
 10
123.733242125515
 20
204.9737896195758
 30
0.0
 11
123.733242125515
 21
212.5987896195758
 31
0.0
  0
LINE
  5
13783
330
17
100
AcDbEntity
  8
HATCH
100
AcDbLine
 10
132.108242125515
 20
196.9737896195758
 30
0.0
 11
148.108242125515
 21
196.9737896195758
 31
0.0
  0
LINE
  5
13784
330
17
100
AcDbEntity
  8
HATCH
100
AcDbLine
 10
148.108242125515
 20
204.5987896195758
 30
0.0
 11
132.108242125515
 21
204.5987896195758
 31
0.0
  0
LINE
  5
13785
330
17
100
AcDbEntity
  8
HATCH
100
AcDbLine
 10
132.108242125515
 20
196.9737896195758
 30
0.0
 11
132.108242125515
 21
204.5987896195758
 31
0.0
  0
LINE
  5
13786
330
17
100
AcDbEntity
  8
HATCH
100
AcDbLine
 10
148.108242125515
 20
228.5987896195758
 30
0.0
 11
123.733242125515
 21
228.5987896195758
 31
0.0
  0
LINE
  5
13787
330
17
100
AcDbEntity
  8
HATCH
100
AcDbLine
 10
140.108242125515
 20
220.9737896195758
 30
0.0
 11
140.108242125515
 21
228.5987896195758
 31
0.0
  0
LINE
  5
13788
330
17
100
AcDbEntity
  8
HATCH
100
AcDbLine
 10
139.733242125515
 20
220.9737896195758
 30
0.0
 11
139.733242125515
 21
228.5987896195758
 31
0.0
  0
LINE
  5
13789
330
17
100
AcDbEntity
  8
HATCH
100
AcDbLine
 10
148.108242125515
 20
220.9737896195758
 30
0.0
 11
123.733242125515
 21
220.9737896195758
 31
0.0
  0
LINE
  5
1378A
330
17
100
AcDbEntity
  8
HATCH
100
AcDbLine
 10
123.733242125515
 20
220.9737896195758
 30
0.0
 11
123.733242125515
 21
228.5987896195758
 31
0.0
  0
LINE
  5
1378B
330
17
100
AcDbEntity
  8
HATCH
100
AcDbLine
 10
132.108242125515
 20
212.9737896195758
 30
0.0
 11
148.108242125515
 21
212.9737896195758
 31
0.0
  0
LINE
  5
1378C
330
17
100
AcDbEntity
  8
HATCH
100
AcDbLine
 10
148.108242125515
 20
220.5987896195757
 30
0.0
 11
132.108242125515
 21
220.5987896195758
 31
0.0
  0
LINE
  5
1378D
330
17
100
AcDbEntity
  8
HATCH
100
AcDbLine
 10
132.108242125515
 20
212.9737896195758
 30
0.0
 11
132.108242125515
 21
220.5987896195758
 31
0.0
  0
LINE
  5
1378E
330
17
100
AcDbEntity
  8
HATCH
100
AcDbLine
 10
148.108242125515
 20
244.5987896195758
 30
0.0
 11
123.733242125515
 21
244.5987896195758
 31
0.0
  0
LINE
  5
1378F
330
17
100
AcDbEntity
  8
HATCH
100
AcDbLine
 10
140.108242125515
 20
236.9737896195758
 30
0.0
 11
140.108242125515
 21
244.5987896195758
 31
0.0
  0
LINE
  5
13790
330
17
100
AcDbEntity
  8
HATCH
100
AcDbLine
 10
139.733242125515
 20
236.9737896195758
 30
0.0
 11
139.733242125515
 21
244.5987896195758
 31
0.0
  0
LINE
  5
13791
330
17
100
AcDbEntity
  8
HATCH
100
AcDbLine
 10
148.108242125515
 20
236.9737896195758
 30
0.0
 11
123.733242125515
 21
236.9737896195758
 31
0.0
  0
LINE
  5
13792
330
17
100
AcDbEntity
  8
HATCH
100
AcDbLine
 10
123.733242125515
 20
236.9737896195758
 30
0.0
 11
123.733242125515
 21
244.5987896195758
 31
0.0
  0
LINE
  5
13793
330
17
100
AcDbEntity
  8
HATCH
100
AcDbLine
 10
132.108242125515
 20
228.9737896195758
 30
0.0
 11
148.108242125515
 21
228.9737896195758
 31
0.0
  0
LINE
  5
13794
330
17
100
AcDbEntity
  8
HATCH
100
AcDbLine
 10
148.108242125515
 20
236.5987896195758
 30
0.0
 11
132.108242125515
 21
236.5987896195758
 31
0.0
  0
LINE
  5
13795
330
17
100
AcDbEntity
  8
HATCH
100
AcDbLine
 10
132.108242125515
 20
228.9737896195758
 30
0.0
 11
132.108242125515
 21
236.5987896195758
 31
0.0
  0
LINE
  5
13796
330
17
100
AcDbEntity
  8
HATCH
100
AcDbLine
 10
148.108242125515
 20
260.5987896195758
 30
0.0
 11
123.733242125515
 21
260.5987896195758
 31
0.0
  0
LINE
  5
13797
330
17
100
AcDbEntity
  8
HATCH
100
AcDbLine
 10
140.108242125515
 20
252.9737896195758
 30
0.0
 11
140.108242125515
 21
260.5987896195758
 31
0.0
  0
LINE
  5
13798
330
17
100
AcDbEntity
  8
HATCH
100
AcDbLine
 10
139.733242125515
 20
252.9737896195758
 30
0.0
 11
139.733242125515
 21
260.5987896195758
 31
0.0
  0
LINE
  5
13799
330
17
100
AcDbEntity
  8
HATCH
100
AcDbLine
 10
148.108242125515
 20
252.9737896195758
 30
0.0
 11
123.733242125515
 21
252.9737896195758
 31
0.0
  0
LINE
  5
1379A
330
17
100
AcDbEntity
  8
HATCH
100
AcDbLine
 10
123.733242125515
 20
252.9737896195758
 30
0.0
 11
123.733242125515
 21
260.5987896195758
 31
0.0
  0
LINE
  5
1379B
330
17
100
AcDbEntity
  8
HATCH
100
AcDbLine
 10
132.108242125515
 20
244.9737896195758
 30
0.0
 11
148.108242125515
 21
244.9737896195758
 31
0.0
  0
LINE
  5
1379C
330
17
100
AcDbEntity
  8
HATCH
100
AcDbLine
 10
148.108242125515
 20
252.5987896195758
 30
0.0
 11
132.108242125515
 21
252.5987896195758
 31
0.0
  0
LINE
  5
1379D
330
17
100
AcDbEntity
  8
HATCH
100
AcDbLine
 10
132.108242125515
 20
244.9737896195758
 30
0.0
 11
132.108242125515
 21
252.5987896195758
 31
0.0
  0
LINE
  5
1379E
330
17
100
AcDbEntity
  8
HATCH
100
AcDbLine
 10
148.108242125515
 20
276.5987896195758
 30
0.0
 11
123.733242125515
 21
276.5987896195758
 31
0.0
  0
LINE
  5
1379F
330
17
100
AcDbEntity
  8
HATCH
100
AcDbLine
 10
140.108242125515
 20
268.9737896195758
 30
0.0
 11
140.108242125515
 21
276.5987896195758
 31
0.0
  0
LINE
  5
137A0
330
17
100
AcDbEntity
  8
HATCH
100
AcDbLine
 10
139.733242125515
 20
268.9737896195758
 30
0.0
 11
139.733242125515
 21
276.5987896195758
 31
0.0
  0
LINE
  5
137A1
330
17
100
AcDbEntity
  8
HATCH
100
AcDbLine
 10
148.108242125515
 20
268.9737896195758
 30
0.0
 11
123.733242125515
 21
268.9737896195758
 31
0.0
  0
LINE
  5
137A2
330
17
100
AcDbEntity
  8
HATCH
100
AcDbLine
 10
123.733242125515
 20
268.9737896195758
 30
0.0
 11
123.733242125515
 21
276.5987896195758
 31
0.0
  0
LINE
  5
137A3
330
17
100
AcDbEntity
  8
HATCH
100
AcDbLine
 10
132.108242125515
 20
260.9737896195758
 30
0.0
 11
148.108242125515
 21
260.9737896195758
 31
0.0
  0
LINE
  5
137A4
330
17
100
AcDbEntity
  8
HATCH
100
AcDbLine
 10
148.108242125515
 20
268.5987896195758
 30
0.0
 11
132.108242125515
 21
268.5987896195758
 31
0.0
  0
LINE
  5
137A5
330
17
100
AcDbEntity
  8
HATCH
100
AcDbLine
 10
132.108242125515
 20
260.9737896195758
 30
0.0
 11
132.108242125515
 21
268.5987896195758
 31
0.0
  0
LINE
  5
137A6
330
17
100
AcDbEntity
  8
HATCH
100
AcDbLine
 10
156.1082421255151
 20
292.5987896195758
 30
0.0
 11
123.733242125515
 21
292.5987896195758
 31
0.0
  0
LINE
  5
137A7
330
17
100
AcDbEntity
  8
HATCH
100
AcDbLine
 10
140.108242125515
 20
284.9737896195758
 30
0.0
 11
140.108242125515
 21
292.5987896195758
 31
0.0
  0
LINE
  5
137A8
330
17
100
AcDbEntity
  8
HATCH
100
AcDbLine
 10
139.733242125515
 20
284.9737896195758
 30
0.0
 11
139.733242125515
 21
292.5987896195758
 31
0.0
  0
LINE
  5
137A9
330
17
100
AcDbEntity
  8
HATCH
100
AcDbLine
 10
148.108242125515
 20
284.9737896195758
 30
0.0
 11
123.733242125515
 21
284.9737896195758
 31
0.0
  0
LINE
  5
137AA
330
17
100
AcDbEntity
  8
HATCH
100
AcDbLine
 10
123.733242125515
 20
284.9737896195758
 30
0.0
 11
123.733242125515
 21
292.5987896195758
 31
0.0
  0
LINE
  5
137AB
330
17
100
AcDbEntity
  8
HATCH
100
AcDbLine
 10
132.108242125515
 20
276.9737896195758
 30
0.0
 11
148.108242125515
 21
276.9737896195758
 31
0.0
  0
LINE
  5
137AC
330
17
100
AcDbEntity
  8
HATCH
100
AcDbLine
 10
148.108242125515
 20
284.5987896195758
 30
0.0
 11
132.108242125515
 21
284.5987896195758
 31
0.0
  0
LINE
  5
137AD
330
17
100
AcDbEntity
  8
HATCH
100
AcDbLine
 10
132.108242125515
 20
276.9737896195758
 30
0.0
 11
132.108242125515
 21
284.5987896195758
 31
0.0
  0
LINE
  5
137AE
330
17
100
AcDbEntity
  8
HATCH
100
AcDbLine
 10
295.4832421255149
 20
308.5987896195758
 30
0.0
 11
123.733242125515
 21
308.5987896195758
 31
0.0
  0
LINE
  5
137AF
330
17
100
AcDbEntity
  8
HATCH
100
AcDbLine
 10
140.108242125515
 20
300.9737896195758
 30
0.0
 11
140.108242125515
 21
308.5987896195758
 31
0.0
  0
LINE
  5
137B0
330
17
100
AcDbEntity
  8
HATCH
100
AcDbLine
 10
139.733242125515
 20
300.9737896195758
 30
0.0
 11
139.733242125515
 21
308.5987896195758
 31
0.0
  0
LINE
  5
137B2
330
17
100
AcDbEntity
  8
HATCH
100
AcDbLine
 10
123.733242125515
 20
300.9737896195758
 30
0.0
 11
123.733242125515
 21
308.5987896195758
 31
0.0
  0
LINE
  5
137B3
330
17
100
AcDbEntity
  8
HATCH
100
AcDbLine
 10
132.108242125515
 20
292.9737896195758
 30
0.0
 11
148.108242125515
 21
292.9737896195758
 31
0.0
  0
LINE
  5
137B4
330
17
100
AcDbEntity
  8
HATCH
100
AcDbLine
 10
148.108242125515
 20
300.5987896195758
 30
0.0
 11
132.108242125515
 21
300.5987896195758
 31
0.0
  0
LINE
  5
137B5
330
17
100
AcDbEntity
  8
HATCH
100
AcDbLine
 10
132.108242125515
 20
292.9737896195758
 30
0.0
 11
132.108242125515
 21
300.5987896195758
 31
0.0
  0
LINE
  5
137C0
330
17
100
AcDbEntity
  8
HATCH
100
AcDbLine
 10
156.108242125515
 20
284.9737896195758
 30
0.0
 11
156.1082421255151
 21
292.5987896195758
 31
0.0
  0
LINE
  5
137C1
330
17
100
AcDbEntity
  8
HATCH
100
AcDbLine
 10
156.1082421255151
 20
300.9737896195758
 30
0.0
 11
156.108242125515
 21
308.5987896195758
 31
0.0
  0
LINE
  5
137C2
330
17
100
AcDbEntity
  8
HATCH
100
AcDbLine
 10
156.483242125515
 20
300.9737896195758
 30
0.0
 11
156.483242125515
 21
308.5987896195758
 31
0.0
  0
LINE
  5
137C3
330
17
100
AcDbEntity
  8
HATCH
100
AcDbLine
 10
156.483242125515
 20
284.9737896195758
 30
0.0
 11
156.483242125515
 21
292.5987896195758
 31
0.0
  0
LINE
  5
137C4
330
17
100
AcDbEntity
  8
HATCH
100
AcDbLine
 10
148.108242125515
 20
300.5987896195758
 30
0.0
 11
148.108242125515
 21
292.9737896195758
 31
0.0
  0
LINE
  5
137C5
330
17
100
AcDbEntity
  8
HATCH
100
AcDbLine
 10
148.483242125515
 20
300.5987896195758
 30
0.0
 11
148.483242125515
 21
292.9737896195758
 31
0.0
  0
LINE
  5
137C6
330
17
100
AcDbEntity
  8
HATCH
100
AcDbLine
 10
148.483242125515
 20
292.9737896195758
 30
0.0
 11
164.483242125515
 21
292.9737896195758
 31
0.0
  0
LINE
  5
137C7
330
17
100
AcDbEntity
  8
HATCH
100
AcDbLine
 10
164.483242125515
 20
300.5987896195758
 30
0.0
 11
164.483242125515
 21
292.9737896195758
 31
0.0
  0
LINE
  5
137C8
330
17
100
AcDbEntity
  8
HATCH
100
AcDbLine
 10
164.483242125515
 20
300.5987896195758
 30
0.0
 11
148.483242125515
 21
300.5987896195758
 31
0.0
  0
LINE
  5
137CA
330
17
100
AcDbEntity
  8
HATCH
100
AcDbLine
 10
172.483242125515
 20
300.9737896195758
 30
0.0
 11
172.483242125515
 21
308.5987896195758
 31
0.0
  0
LINE
  5
137CB
330
17
100
AcDbEntity
  8
HATCH
100
AcDbLine
 10
172.858242125515
 20
300.9737896195758
 30
0.0
 11
172.858242125515
 21
308.5987896195758
 31
0.0
  0
LINE
  5
137CD
330
17
100
AcDbEntity
  8
HATCH
100
AcDbLine
 10
188.8582421255151
 20
300.9737896195758
 30
0.0
 11
188.8582421255151
 21
308.5987896195758
 31
0.0
  0
LINE
  5
137CF
330
17
100
AcDbEntity
  8
HATCH
100
AcDbLine
 10
172.483242125515
 20
284.9737896195758
 30
0.0
 11
172.483242125515
 21
292.5987896195758
 31
0.0
  0
LINE
  5
137D0
330
17
100
AcDbEntity
  8
HATCH
100
AcDbLine
 10
172.858242125515
 20
284.9737896195758
 30
0.0
 11
172.858242125515
 21
292.5987896195758
 31
0.0
  0
LINE
  5
137D1
330
17
100
AcDbEntity
  8
HATCH
100
AcDbLine
 10
188.858242125515
 20
284.9737896195758
 30
0.0
 11
188.8582421255151
 21
292.5987896195758
 31
0.0
  0
LINE
  5
137D2
330
17
100
AcDbEntity
  8
HATCH
100
AcDbLine
 10
189.233242125515
 20
284.9737896195758
 30
0.0
 11
189.233242125515
 21
292.5987896195758
 31
0.0
  0
LINE
  5
137D3
330
17
100
AcDbEntity
  8
HATCH
100
AcDbLine
 10
188.8582421255151
 20
292.5987896195758
 30
0.0
 11
156.483242125515
 21
292.5987896195758
 31
0.0
  0
LINE
  5
137D4
330
17
100
AcDbEntity
  8
FRAMING
100
AcDbLine
 10
180.858242125515
 20
284.9737896195758
 30
0.0
 11
156.483242125515
 21
284.9737896195758
 31
0.0
  0
LINE
  5
137D5
330
17
100
AcDbEntity
  8
HATCH
100
AcDbLine
 10
205.2332421255151
 20
284.9737896195758
 30
0.0
 11
205.2332421255151
 21
291.6119896195758
 31
0.0
  0
LINE
  5
137D6
330
17
100
AcDbEntity
  8
HATCH
100
AcDbLine
 10
205.608242125515
 20
284.9737896195758
 30
0.0
 11
205.608242125515
 21
291.6119896195758
 31
0.0
  0
LINE
  5
137DA
330
17
100
AcDbEntity
  8
FRAMING
100
AcDbLine
 10
208.108242125515
 20
284.9737896195758
 30
0.0
 11
189.233242125515
 21
284.9737896195758
 31
0.0
  0
LINE
  5
137E6
330
17
100
AcDbEntity
  8
FRAMING
100
AcDbLine
 10
268.108242125515
 20
284.9737896195757
 30
0.0
 11
208.108242125515
 21
284.973789619576
 31
0.0
  0
LINE
  5
137E7
330
17
100
AcDbEntity
  8
HATCH
100
AcDbLine
 10
181.233242125515
 20
292.9737896195758
 30
0.0
 11
197.233242125515
 21
292.9737896195758
 31
0.0
  0
LINE
  5
137E8
330
17
100
AcDbEntity
  8
HATCH
100
AcDbLine
 10
164.858242125515
 20
292.9737896195758
 30
0.0
 11
180.858242125515
 21
292.9737896195758
 31
0.0
  0
LINE
  5
137E9
330
17
100
AcDbEntity
  8
HATCH
100
AcDbLine
 10
180.858242125515
 20
300.5987896195758
 30
0.0
 11
164.858242125515
 21
300.5987896195758
 31
0.0
  0
LINE
  5
137EA
330
17
100
AcDbEntity
  8
HATCH
100
AcDbLine
 10
197.233242125515
 20
300.5987896195758
 30
0.0
 11
181.233242125515
 21
300.5987896195758
 31
0.0
  0
LINE
  5
137EB
330
17
100
AcDbEntity
  8
HATCH
100
AcDbLine
 10
181.233242125515
 20
300.5987896195758
 30
0.0
 11
181.233242125515
 21
292.9737896195758
 31
0.0
  0
LINE
  5
137EC
330
17
100
AcDbEntity
  8
HATCH
100
AcDbLine
 10
180.858242125515
 20
300.5987896195758
 30
0.0
 11
180.858242125515
 21
292.9737896195758
 31
0.0
  0
LINE
  5
137ED
330
17
100
AcDbEntity
  8
HATCH
100
AcDbLine
 10
197.233242125515
 20
300.5987896195758
 30
0.0
 11
197.233242125515
 21
292.9737896195758
 31
0.0
  0
LINE
  5
137EE
330
17
100
AcDbEntity
  8
HATCH
100
AcDbLine
 10
164.858242125515
 20
292.9737896195758
 30
0.0
 11
164.858242125515
 21
300.5987896195758
 31
0.0
  0
LINE
  5
137EF
330
17
100
AcDbEntity
  8
HATCH
100
AcDbLine
 10
197.608242125515
 20
300.5987896195758
 30
0.0
 11
197.608242125515
 21
292.9737896195758
 31
0.0
  0
LINE
  5
137F5
330
17
100
AcDbEntity
  8
FRAMING
100
AcDbLine
 10
213.608242125515
 20
300.5987896195758
 30
0.0
 11
213.1082421255151
 21
300.5987896195758
 31
0.0
  0
LINE
  5
137F6
330
17
100
AcDbEntity
  8
HATCH
100
AcDbLine
 10
197.608242125515
 20
292.9737896195758
 30
0.0
 11
203.1082421255151
 21
292.9737896195758
 31
0.0
  0
LINE
  5
13807
330
17
100
AcDbEntity
  8
HATCH
100
AcDbLine
 10
189.233242125515
 20
300.9737896195758
 30
0.0
 11
189.233242125515
 21
308.5987896195758
 31
0.0
  0
LINE
  5
13808
330
17
100
AcDbEntity
  8
HATCH
100
AcDbLine
 10
205.2332421255151
 20
303.6119896195757
 30
0.0
 11
205.2332421255151
 21
308.5987896195758
 31
0.0
  0
LINE
  5
13809
330
17
100
AcDbEntity
  8
HATCH
100
AcDbLine
 10
205.6082421255151
 20
303.6119896195757
 30
0.0
 11
205.6082421255151
 21
308.5987896195758
 31
0.0
  0
LINE
  5
13813
330
17
100
AcDbEntity
  8
HATCH
100
AcDbLine
 10
203.1082421255151
 20
300.5987896195758
 30
0.0
 11
197.608242125515
 21
300.5987896195758
 31
0.0
  0
LINE
  5
13814
330
17
100
AcDbEntity
  8
HATCH
100
AcDbLine
 10
203.1082421255151
 20
300.9737896195758
 30
0.0
 11
123.733242125515
 21
300.9737896195758
 31
0.0
  0
LINE
  5
13816
330
17
100
AcDbEntity
  8
HATCH
100
AcDbLine
 10
203.1082421255151
 20
292.5987896195758
 30
0.0
 11
189.233242125515
 21
292.5987896195758
 31
0.0
  0
LINE
  5
138AE
330
17
100
AcDbEntity
  8
FRAMING
100
AcDbLine
 10
268.1082421255151
 20
164.9737896195757
 30
0.0
 11
295.4832421255149
 21
164.9737896195757
 31
0.0
  0
HATCH
  5
138BE
330
17
100
AcDbEntity
  8
HATCH
100
AcDbHatch
 10
0.0
 20
0.0
 30
0.0
210
0.0
220
0.0
230
1.0
  2
AR-CONC
 70
     0
 71
     0
 91
        2
 92
        7
 72
     0
 73
     1
 93
       10
 10
268.1082421255151
 20
164.9737896195758
 10
295.4832421255149
 20
164.9737896195757
 10
295.4832421255149
 20
308.5987896195757
 10
208.108242125515
 20
308.5987896195757
 10
208.108242125515
 20
303.6119896195757
 10
213.1082421255151
 20
303.6119896195757
 10
213.1082421255151
 20
291.6119896195758
 10
208.108242125515
 20
291.6119896195758
 10
208.108242125515
 20
284.973789619576
 10
268.108242125515
 20
284.9737896195757
 97
        0
 92
      137
 93
        4
 72
     1
 10
281.0319269598102
 20
301.6404562862425
 11
327.8235936264768
 21
301.6404562862425
 72
     1
 10
327.8235936264768
 20
301.6404562862425
 11
327.8235936264768
 21
291.9321229529092
 72
     1
 10
327.8235936264768
 20
291.9321229529092
 11
281.0319269598102
 21
291.9321229529092
 72
     1
 10
281.0319269598102
 20
291.9321229529092
 11
281.0319269598102
 21
301.6404562862425
 97
        0
 75
     0
 76
     1
 52
0.0
 41
2.5
 77
     0
 78
    13
 53
50.0
 43
0.0
 44
0.0
 45
17.93150456501884
 46
-1.568803374564877
 79
     2
 49
1.875
 49
-20.625
 53
355.0
 43
0.0
 44
0.0
 45
-3.468783340325
 46
18.80480334250029
 79
     2
 49
1.5
 49
-16.5
 53
100.4514
 43
1.494292
 44
-0.1307335
 45
14.46273454285054
 46
17.23598855152384
 79
     2
 49
1.59350475
 49
-17.5285528
 53
46.1842
 43
0.0
 44
5.0
 45
26.68102621564111
 46
-4.137975358225453
 79
     2
 49
2.8125
 49
-30.9375
 53
96.6356
 43
2.223418624999999
 44
4.655167324999999
 45
23.36656763871758
 46
24.35294677251104
 79
     2
 49
2.390257199999999
 49
-26.292825
 53
351.1842000000001
 43
0.0
 44
5.0
 45
23.36654862834068
 46
24.35296502313312
 79
     2
 49
2.25
 49
-24.75
 53
21.0
 43
2.5
 44
3.75
 45
14.92267630296154
 46
-10.06547226663347
 79
     2
 49
1.875
 49
-20.625
 53
326.0
 43
2.5
 44
3.75
 45
6.082883298039543
 46
18.12875112617132
 79
     2
 49
1.5
 49
-16.5
 53
71.45140000000001
 43
3.743555825
 44
2.91120985
 45
21.00556571453725
 46
8.063262417748809
 79
     2
 49
1.59350475
 49
-17.5285528
 53
37.5
 43
0.0
 44
0.0
 45
0.3039963829322667
 46
8.322346345782786
 79
     6
 49
0.0
 49
-16.3
 49
0.0
 49
-16.75
 49
0.0
 49
-16.5625
 53
7.499999999999999
 43
0.0
 44
0.0
 45
6.576738436053714
 46
9.860292797059006
 79
     6
 49
0.0
 49
-9.549999999999998
 49
0.0
 49
-15.925
 49
0.0
 49
-6.3125
 53
327.5
 43
-5.575
 44
0.0
 45
13.34556090431022
 46
-0.5638717933594951
 79
     6
 49
0.0
 49
-6.25
 49
0.0
 49
-19.5
 49
0.0
 49
-25.875
 53
317.5
 43
-8.074999999999999
 44
0.0
 45
14.57965423355965
 46
2.502624558307942
 79
     6
 49
0.0
 49
-8.125
 49
0.0
 49
-12.95
 49
0.0
 49
-18.375
 47
0.4411172737828478
 98
        1
 10
278.6318886395304
 20
224.6550816101026
  0
MTEXT
  5
138C0
330
17
100
AcDbEntity
  8
TEXT
100
AcDbMText
 10
253.0906569392149
 20
226.2237896195757
 30
0.0
 40
1.75
 41
0.0
 46
0.0
 71
     3
 72
     1
  1
CONCRETE\PWALL
  7
WEB PAGE
 73
     1
 44
1.0
  0
LEADER
  5
138C2
330
17
100
AcDbEntity
  8
TEXT
100
AcDbLeader
  3
STANDARD
 40
4.666666666666666
 41
23.08333333333333
 76
     2
 10
268.5952474998501
 20
225.5721868416769
 30
0.0
 10
253.8885912088622
 20
225.5721868416768
 30
0.0
211
-1.0
221
0.0
231
0.0
210
0.0
220
0.0
230
-1.0
213
0.0
223
-1.25
233
0.0
1001
ACAD
1000
DSTYLE
1002
{
1070
   147
1040
1.0
1070
    77
1070
     0
1002
}
  0
SOLID
  5
1416E
330
17
100
AcDbEntity
  8
TEXT
100
AcDbTrace
 10
151.108242125515
 20
193.887368755334
 30
0.0
 11
148.108242125515
 21
194.387368755334
 31
0.0
 12
151.108242125515
 22
194.887368755334
 32
0.0
 13
151.108242125515
 23
194.887368755334
 33
0.0
1001
ACAD
1000
DSTYLE
1002
{
1070
   147
1040
1.0
1070
    77
1070
     0
1002
}
  0
LWPOLYLINE
  5
1416F
330
17
100
AcDbEntity
  8
TEXT
100
AcDbPolyline
 90
        2
 70
     0
 43
0.0
 10
151.108242125515
 20
194.387368755334
 10
176.1892764722496
 20
194.387368755334
1001
ACAD
1000
DSTYLE
1002
{
1070
   147
1040
1.0
1070
    77
1070
     0
1002
}
  0
LWPOLYLINE
  5
14170
330
17
100
AcDbEntity
  8
TEXT
100
AcDbPolyline
 90
        2
 70
     0
 43
0.0
 10
265.108242125515
 20
194.387368755334
 10
240.0272077787805
 20
194.387368755334
1001
ACAD
1000
DSTYLE
1002
{
1070
   147
1040
1.0
1070
    77
1070
     0
1002
}
  0
SOLID
  5
14171
330
17
100
AcDbEntity
  8
TEXT
100
AcDbTrace
 10
265.108242125515
 20
193.887368755334
 30
0.0
 11
268.1082421255151
 21
194.387368755334
 31
0.0
 12
265.108242125515
 22
194.887368755334
 32
0.0
 13
265.108242125515
 23
194.887368755334
 33
0.0
1001
ACAD
1000
DSTYLE
1002
{
1070
   147
1040
1.0
1070
    77
1070
     0
1002
}
  0
VIEWPORT
  5
C943
330
14
100
AcDbEntity
 67
     1
  8
0
100
AcDbViewport
 10
4.089160443693774
 20
4.939011701731135
 30
0.0
 40
14.31727776344958
 41
9.281710563439329
 68
     1
 69
     1
 12
4.089160443693774
 22
4.939011701731135
 13
0.0
 23
0.0
 14
0.5
 24
0.5
 15
0.5
 25
0.5
 16
0.0
 26
0.0
 36
1.0
 17
0.0
 27
0.0
 37
0.0
 42
50.0
 43
0.0
 44
0.0
 45
9.281710563439329
 50
0.0
 51
0.0
 72
   100
 90
    32800
  1

281
     0
 71
     1
 74
     0
110
0.0
120
0.0
130
0.0
111
1.0
121
0.0
131
0.0
112
0.0
122
1.0
132
0.0
 79
     0
146
0.0
170
     0
 61
     5
348
141BD
292
     1
282
     1
141
0.0
142
0.0
 63
   250
421
  3355443
  0
VIEWPORT
  5
14175
330
14
100
AcDbEntity
 67
     1
  8
Defpoints
100
AcDbViewport
 10
4.089107754887153
 20
4.939219160439233
 30
0.0
 40
7.620151324406917
 41
9.209376282200842
 68
     2
 69
     2
 12
213.1611383334022
 22
236.7996743613425
 13
0.0
 23
0.0
 14
1.0
 24
1.0
 15
0.25
 25
0.25
 16
0.0
 26
0.0
 36
1.0
 17
0.0
 27
0.0
 37
0.0
 42
50.0
 43
0.0
 44
0.0
 45
279.0245527473793
 50
270.0
 51
0.0
 72
   100
 90
    32768
  1

281
     0
 71
     1
 74
     0
110
0.0
120
0.0
130
0.0
111
1.0
121
0.0
131
0.0
112
0.0
122
1.0
132
0.0
 79
     0
146
0.0
170
     0
 61
     5
348
141BD
292
     1
282
     1
141
0.0
142
0.0
 63
   250
421
  3355443
  0
ENDSEC
  0
SECTION
  2
OBJECTS
  0
DICTIONARY
  5
C
330
0
100
AcDbDictionary
281
     1
  3
ACAD_COLOR
350
141C8
  3
ACAD_GROUP
350
D
  3
ACAD_LAYOUT
350
B57A
  3
ACAD_MATERIAL
350
141B3
  3
ACAD_MLINESTYLE
350
1A
  3
ACAD_PLOTSETTINGS
350
B57B
  3
ACAD_PLOTSTYLENAME
350
B578
  3
ACAD_TABLESTYLE
350
141C9
  3
ACAD_VISUALSTYLE
350
141B7
  3
AcadDim
350
12124
  3
ACDBVARIABLEDICTIONARY
350
59
  0
DICTIONARY
  5
1427D
330
8
100
AcDbDictionary
280
     1
281
     1
  0
DICTIONARY
  5
14266
330
2
100
AcDbDictionary
280
     1
281
     1
  3
ACAD_LAYERSTATES
360
14267
  0
DICTIONARY
  5
141C8
102
{ACAD_REACTORS
330
C
102
}
330
C
100
AcDbDictionary
281
     1
  0
DICTIONARY
  5
D
102
{ACAD_REACTORS
330
C
102
}
330
C
100
AcDbDictionary
281
     1
  0
DICTIONARY
  5
B57A
102
{ACAD_REACTORS
330
C
102
}
330
C
100
AcDbDictionary
281
     1
  3
Layout1
350
B57D
  3
Model
350
B57C
  0
DICTIONARY
  5
141B3
102
{ACAD_REACTORS
330
C
102
}
330
C
100
AcDbDictionary
281
     1
  3
ByBlock
350
141B5
  3
ByLayer
350
141B4
  3
Global
350
141B6
  0
DICTIONARY
  5
1A
102
{ACAD_REACTORS
330
C
102
}
330
C
100
AcDbDictionary
281
     1
  3
STANDARD
350
1B
  0
DICTIONARY
  5
B57B
102
{ACAD_REACTORS
330
C
102
}
330
C
100
AcDbDictionary
281
     1
  0
ACDBDICTIONARYWDFLT
  5
B578
102
{ACAD_REACTORS
330
C
102
}
330
C
100
AcDbDictionary
281
     1
  3
Normal
350
B579
100
AcDbDictionaryWithDefault
340
B579
  0
DICTIONARY
  5
141C9
102
{ACAD_REACTORS
330
C
102
}
330
C
100
AcDbDictionary
281
     1
  3
Standard
350
141CA
  0
DICTIONARY
  5
141B7
102
{ACAD_REACTORS
330
C
102
}
330
C
100
AcDbDictionary
281
     1
  3
2dWireframe
350
141BD
  3
3D Hidden
350
141BF
  3
3dWireframe
350
141BE
  3
Basic
350
141BC
  3
Brighten
350
141C3
  3
ColorChange
350
141C7
  3
Conceptual
350
141C0
  3
Dim
350
141C2
  3
Facepattern
350
141C6
  3
Flat
350
141B8
  3
FlatWithEdges
350
141B9
  3
Gouraud
350
141BA
  3
GouraudWithEdges
350
141BB
  3
Linepattern
350
141C5
  3
Realistic
350
141C1
  3
Thicken
350
141C4
  0
XRECORD
  5
12124
102
{ACAD_REACTORS
330
C
102
}
330
C
100
AcDbXrecord
280
     1
 90
   990106
  3

 60
     0
 61
     0
 62
     1
 63
     3
 64
     0
 65
     0
 66
     0
 67
     3
 68
     1
 69
     0
 70
     0
 71
     0
 72
     0
 40
0.0
170
     0
340
0
  0
DICTIONARY
  5
59
102
{ACAD_REACTORS
330
C
102
}
330
C
100
AcDbDictionary
281
     1
  3
CTABLESTYLE
350
142CF
  3
DIMADEC
350
5A
  3
SORTENTS
350
769A
  0
DICTIONARY
  5
14267
102
{ACAD_REACTORS
330
14266
102
}
330
14266
100
AcDbDictionary
281
     1
  0
LAYOUT
  5
B57D
102
{ACAD_XDICTIONARY
360
1427A
102
}
102
{ACAD_REACTORS
330
B57A
102
}
330
B57A
100
AcDbPlotSettings
  1

  2
Acrobat PDFWriter
  4
Letter
  6

 40
7.143749713897705
 41
7.143756389617919
 42
7.14373779296875
 43
7.14373779296875
 44
215.8999938964844
 45
279.3999938964844
 46
0.254
 47
0.508
 48
0.0
 49
0.0
140
0.0
141
0.0
142
1.0
143
1.0
 70
   692
 72
     0
 73
     0
 74
     1
  7

 75
    16
147
1.0
 76
     0
 77
     2
 78
   300
148
-3.427494737810719
149
-4.831324380639443
100
AcDbLayout
  1
Layout1
 70
     1
 71
     1
 10
-0.1566242155846284
 20
-0.1107394947821337
 11
8.34337554411948
 21
10.88926026492197
 12
0.0
 22
0.0
 32
0.0
 14
0.2789074086114169
 24
0.3337185294499356
 34
-0.0000000349181948
 15
7.899413478776132
 25
9.544304874012336
 35
0.0000000814935746
146
0.0
 13
0.0
 23
0.0
 33
0.0
 16
1.0
 26
0.0
 36
0.0
 17
0.0
 27
1.0
 37
0.0
 76
     0
330
14
331
C943
  0
LAYOUT
  5
B57C
102
{ACAD_REACTORS
330
B57A
102
}
330
B57A
100
AcDbPlotSettings
  1

  2
PMKT1 Marketing HP-8100DN Laser
  4
Letter
  6

 40
4.233333110809326
 41
4.233341693878173
 42
4.233322143554687
 43
4.23333740234375
 44
215.8999938964844
 45
279.3999938964844
 46
0.0
 47
48.76799999999999
 48
85.70824212551448
 49
26.44136450459063
140
330.5082421255156
141
347.7413645045904
142
1.0
143
27.97680015456219
 70
 11956
 72
     0
 73
     0
 74
     1
  7

 75
     0
147
0.0357439018928306
 76
     0
 77
     2
 78
   300
148
-2512.805685798135
149
-3588.325647311199
100
AcDbLayout
  1
Model
 70
     1
 71
     0
 10
0.0
 20
0.0
 11
12.0
 21
9.0
 12
0.0
 22
0.0
 32
0.0
 14
0.0
 24
0.0
 34
0.0
 15
0.0
 25
0.0
 35
0.0
146
0.0
 13
0.0
 23
0.0
 33
0.0
 16
1.0
 26
0.0
 36
0.0
 17
0.0
 27
1.0
 37
0.0
 76
     0
330
17
331
141B1
  0
MATERIAL
  5
141B5
102
{ACAD_REACTORS
330
141B3
102
}
330
141B3
100
AcDbMaterial
  1
ByBlock
  0
MATERIAL
  5
141B4
102
{ACAD_REACTORS
330
141B3
102
}
330
141B3
100
AcDbMaterial
  1
ByLayer
  0
MATERIAL
  5
141B6
102
{ACAD_REACTORS
330
141B3
102
}
330
141B3
100
AcDbMaterial
  1
Global
  0
MLINESTYLE
  5
1B
102
{ACAD_REACTORS
330
1A
102
}
330
1A
100
AcDbMlineStyle
  2
STANDARD
 70
     0
  3

 62
   256
 51
90.0
 52
90.0
 71
     2
 49
0.5
 62
   256
  6
BYLAYER
 49
-0.5
 62
   256
  6
BYLAYER
  0
ACDBPLACEHOLDER
  5
B579
102
{ACAD_REACTORS
330
B578
102
}
330
B578
  0
TABLESTYLE
  5
141CA
102
{ACAD_REACTORS
330
141C9
102
}
330
141C9
100
AcDbTableStyle
  3
Standard
 70
     0
 71
     0
 40
0.06
 41
0.06
280
     0
281
     0
  7
STANDARD
140
0.18
170
     2
 62
     0
 63
     7
283
     0
 90
      512
 91
        0
  1

274
    -2
284
     1
 64
     0
275
    -2
285
     1
 65
     0
276
    -2
286
     1
 66
     0
277
    -2
287
     1
 67
     0
278
    -2
288
     1
 68
     0
279
    -2
289
     1
 69
     0
  7
STANDARD
140
0.25
170
     5
 62
     0
 63
     7
283
     0
 90
      512
 91
        0
  1

274
    -2
284
     1
 64
     0
275
    -2
285
     1
 65
     0
276
    -2
286
     1
 66
     0
277
    -2
287
     1
 67
     0
278
    -2
288
     1
 68
     0
279
    -2
289
     1
 69
     0
  7
STANDARD
140
0.18
170
     5
 62
     0
 63
     7
283
     0
 90
      512
 91
        0
  1

274
    -2
284
     1
 64
     0
275
    -2
285
     1
 65
     0
276
    -2
286
     1
 66
     0
277
    -2
287
     1
 67
     0
278
    -2
288
     1
 68
     0
279
    -2
289
     1
 69
     0
  0
VISUALSTYLE
  5
141BD
102
{ACAD_REACTORS
330
141B7
102
}
330
141B7
100
AcDbVisualStyle
  2
2dWireframe
 70
     4
 71
     0
 72
     2
 73
     0
 90
        0
 40
-0.6
 41
-30.0
 62
     5
 63
     7
421
 16777215
 74
     1
 91
        4
 64
     7
 65
   257
 75
     1
175
     1
 42
1.0
 92
        0
 66
   257
 43
1.0
 76
     1
 77
     6
 78
     2
 67
     7
 79
     5
170
     0
171
     0
290
     0
174
     0
 93
        1
 44
0.0
173
     0
291
     0
 45
0.0
  0
VISUALSTYLE
  5
141BF
102
{ACAD_REACTORS
330
141B7
102
}
330
141B7
100
AcDbVisualStyle
  2
3D Hidden
 70
     6
 71
     1
 72
     2
 73
     2
 90
        0
 40
-0.6
 41
-30.0
 62
     5
 63
     7
421
 16777215
 74
     2
 91
        2
 64
     7
 65
   257
 75
     2
175
     1
 42
40.0
 92
        0
 66
   257
 43
1.0
 76
     1
 77
     6
 78
     2
 67
     7
 79
     3
170
     0
171
     0
290
     0
174
     0
 93
        1
 44
0.0
173
     0
291
     0
 45
0.0
  0
VISUALSTYLE
  5
141BE
102
{ACAD_REACTORS
330
141B7
102
}
330
141B7
100
AcDbVisualStyle
  2
3dWireframe
 70
     5
 71
     0
 72
     2
 73
     0
 90
        0
 40
-0.6
 41
-30.0
 62
     5
 63
     7
421
 16777215
 74
     1
 91
        4
 64
     7
 65
   257
 75
     1
175
     1
 42
1.0
 92
        0
 66
   257
 43
1.0
 76
     1
 77
     6
 78
     2
 67
     7
 79
     5
170
     0
171
     0
290
     0
174
     0
 93
        1
 44
0.0
173
     0
291
     0
 45
0.0
  0
VISUALSTYLE
  5
141BC
102
{ACAD_REACTORS
330
141B7
102
}
330
141B7
100
AcDbVisualStyle
  2
Basic
 70
     7
 71
     1
 72
     0
 73
     1
 90
        0
 40
-0.6
 41
-30.0
 62
     5
 63
     7
421
 16777215
 74
     0
 91
        4
 64
     7
 65
   257
 75
     1
175
     1
 42
1.0
 92
        8
 66
     7
 43
1.0
 76
     1
 77
     6
 78
     2
 67
     7
 79
     5
170
     0
171
     0
290
     0
174
     0
 93
        1
 44
0.0
173
     0
291
     1
 45
0.0
  0
VISUALSTYLE
  5
141C3
102
{ACAD_REACTORS
330
141B7
102
}
330
141B7
100
AcDbVisualStyle
  2
Brighten
 70
    12
 71
     2
 72
     2
 73
     0
 90
        0
 40
-0.6
 41
-30.0
 62
     5
 63
     7
421
 16777215
 74
     1
 91
        4
 64
     7
 65
   257
 75
     1
175
     1
 42
1.0
 92
        8
 66
     7
 43
1.0
 76
     1
 77
     6
 78
     2
 67
     7
 79
     5
170
     0
171
     0
290
     0
174
     0
 93
        1
 44
50.0
173
     0
291
     1
 45
0.0
  0
VISUALSTYLE
  5
141C7
102
{ACAD_REACTORS
330
141B7
102
}
330
141B7
100
AcDbVisualStyle
  2
ColorChange
 70
    16
 71
     2
 72
     2
 73
     3
 90
        0
 40
-0.6
 41
-30.0
 62
     5
 63
     8
421
  8421504
 74
     1
 91
        4
 64
     7
 65
   257
 75
     1
175
     1
 42
1.0
 92
        8
 66
     8
424
  8421504
 43
1.0
 76
     1
 77
     6
 78
     2
 67
     7
 79
     5
170
     0
171
     0
290
     0
174
     0
 93
        1
 44
0.0
173
     0
291
     1
 45
0.0
  0
VISUALSTYLE
  5
141C0
102
{ACAD_REACTORS
330
141B7
102
}
330
141B7
100
AcDbVisualStyle
  2
Conceptual
 70
     9
 71
     3
 72
     2
 73
     0
 90
        0
 40
-0.6
 41
-30.0
 62
     5
 63
     7
421
 16777215
 74
     2
 91
        2
 64
     7
 65
   257
 75
     1
175
     1
 42
40.0
 92
        8
 66
     7
 43
1.0
 76
     1
 77
     6
 78
     2
 67
     7
 79
     3
170
     0
171
     0
290
     0
174
     0
 93
        1
 44
0.0
173
     0
291
     0
 45
0.0
  0
VISUALSTYLE
  5
141C2
102
{ACAD_REACTORS
330
141B7
102
}
330
141B7
100
AcDbVisualStyle
  2
Dim
 70
    11
 71
     2
 72
     2
 73
     0
 90
        0
 40
-0.6
 41
-30.0
 62
     5
 63
     7
421
 16777215
 74
     1
 91
        4
 64
     7
 65
   257
 75
     1
175
     1
 42
1.0
 92
        8
 66
     7
 43
1.0
 76
     1
 77
     6
 78
     2
 67
     7
 79
     5
170
     0
171
     0
290
     0
174
     0
 93
        1
 44
-50.0
173
     0
291
     1
 45
0.0
  0
VISUALSTYLE
  5
141C6
102
{ACAD_REACTORS
330
141B7
102
}
330
141B7
100
AcDbVisualStyle
  2
Facepattern
 70
    15
 71
     2
 72
     2
 73
     0
 90
        0
 40
-0.6
 41
-30.0
 62
     5
 63
     7
421
 16777215
 74
     1
 91
        4
 64
     7
 65
   257
 75
     1
175
     1
 42
1.0
 92
        8
 66
     7
 43
1.0
 76
     1
 77
     6
 78
     2
 67
     7
 79
     5
170
     0
171
     0
290
     0
174
     0
 93
        1
 44
0.0
173
     0
291
     1
 45
0.0
  0
VISUALSTYLE
  5
141B8
102
{ACAD_REACTORS
330
141B7
102
}
330
141B7
100
AcDbVisualStyle
  2
Flat
 70
     0
 71
     2
 72
     1
 73
     1
 90
        2
 40
-0.6
 41
30.0
 62
     5
 63
     7
421
 16777215
 74
     0
 91
        4
 64
     7
 65
   257
 75
     1
175
     1
 42
1.0
 92
        8
 66
     7
 43
1.0
 76
     1
 77
     6
 78
     2
 67
     7
 79
     5
170
     0
171
     0
290
     0
174
     0
 93
       13
 44
0.0
173
     0
291
     1
 45
0.0
  0
VISUALSTYLE
  5
141B9
102
{ACAD_REACTORS
330
141B7
102
}
330
141B7
100
AcDbVisualStyle
  2
FlatWithEdges
 70
     1
 71
     2
 72
     1
 73
     1
 90
        2
 40
-0.6
 41
30.0
 62
     5
 63
     7
421
 16777215
 74
     1
 91
        4
 64
     7
 65
   257
 75
     1
175
     1
 42
1.0
 92
        0
 66
   257
 43
1.0
 76
     1
 77
     6
 78
     2
 67
     7
 79
     5
170
     0
171
     0
290
     0
174
     0
 93
       13
 44
0.0
173
     0
291
     1
 45
0.0
  0
VISUALSTYLE
  5
141BA
102
{ACAD_REACTORS
330
141B7
102
}
330
141B7
100
AcDbVisualStyle
  2
Gouraud
 70
     2
 71
     2
 72
     2
 73
     1
 90
        2
 40
-0.6
 41
30.0
 62
     5
 63
     7
421
 16777215
 74
     0
 91
        4
 64
     7
 65
   257
 75
     1
175
     1
 42
1.0
 92
        0
 66
     7
 43
1.0
 76
     1
 77
     6
 78
     2
 67
     7
 79
     5
170
     0
171
     0
290
     0
174
     0
 93
       13
 44
0.0
173
     0
291
     1
 45
0.0
  0
VISUALSTYLE
  5
141BB
102
{ACAD_REACTORS
330
141B7
102
}
330
141B7
100
AcDbVisualStyle
  2
GouraudWithEdges
 70
     3
 71
     2
 72
     2
 73
     1
 90
        2
 40
-0.6
 41
30.0
 62
     5
 63
     7
421
 16777215
 74
     1
 91
        4
 64
     7
 65
   257
 75
     1
175
     1
 42
1.0
 92
        0
 66
   257
 43
1.0
 76
     1
 77
     6
 78
     2
 67
     7
 79
     5
170
     0
171
     0
290
     0
174
     0
 93
       13
 44
0.0
173
     0
291
     1
 45
0.0
  0
VISUALSTYLE
  5
141C5
102
{ACAD_REACTORS
330
141B7
102
}
330
141B7
100
AcDbVisualStyle
  2
Linepattern
 70
    14
 71
     2
 72
     2
 73
     0
 90
        0
 40
-0.6
 41
-30.0
 62
     5
 63
     7
421
 16777215
 74
     1
 91
        4
 64
     7
 65
   257
 75
     7
175
     7
 42
1.0
 92
        8
 66
     7
 43
1.0
 76
     1
 77
     6
 78
     2
 67
     7
 79
     5
170
     0
171
     0
290
     0
174
     0
 93
        1
 44
0.0
173
     0
291
     1
 45
0.0
  0
VISUALSTYLE
  5
141C1
102
{ACAD_REACTORS
330
141B7
102
}
330
141B7
100
AcDbVisualStyle
  2
Realistic
 70
     8
 71
     2
 72
     2
 73
     0
 90
        0
 40
-0.6
 41
-30.0
 62
     5
 63
     7
421
 16777215
 74
     1
 91
        0
 64
     7
 65
   257
 75
     1
175
     1
 42
1.0
 92
        8
 66
     8
424
  7895160
 43
1.0
 76
     1
 77
     6
 78
     2
 67
     7
 79
     5
170
     0
171
     0
290
     0
174
     0
 93
       13
 44
0.0
173
     0
291
     0
 45
0.0
  0
VISUALSTYLE
  5
141C4
102
{ACAD_REACTORS
330
141B7
102
}
330
141B7
100
AcDbVisualStyle
  2
Thicken
 70
    13
 71
     2
 72
     2
 73
     0
 90
        0
 40
-0.6
 41
-30.0
 62
     5
 63
     7
421
 16777215
 74
     1
 91
        4
 64
     7
 65
   257
 75
     1
175
     1
 42
1.0
 92
       12
 66
     7
 43
1.0
 76
     1
 77
     6
 78
     2
 67
     7
 79
     5
170
     0
171
     0
290
     0
174
     0
 93
        1
 44
0.0
173
     0
291
     1
 45
0.0
  0
DICTIONARYVAR
  5
142CF
102
{ACAD_REACTORS
330
59
102
}
330
59
100
DictionaryVariables
280
     0
  1
STANDARD
  0
DICTIONARYVAR
  5
5A
102
{ACAD_REACTORS
330
59
102
}
330
59
100
DictionaryVariables
280
     0
  1
0
  0
DICTIONARYVAR
  5
769A
102
{ACAD_REACTORS
330
59
102
}
330
59
100
DictionaryVariables
280
     0
  1
96
  0
DICTIONARY
  5
1427A
330
B57D
100
AcDbDictionary
280
     1
281
     1
  3
ADSK_XREC_LAYOUTTHUMBNAIL
360
1427B
  0
XRECORD
  5
1427B
102
{ACAD_REACTORS
330
1427A
102
}
330
1427A
100
AcDbXrecord
280
     1
310
280000006C0000008C0000000100080000000000103B0000000000000000000000010000000000000000000000000000FFFFFF000000000000000000000000000000000000000000000000000000000000000000330000006600000099000000CC000000FF00000000330000333300006633000099330000CC330000FF3300
310
0000660000336600006666000099660000CC660000FF66000000990000339900006699000099990000CC990000FF99000000CC000033CC000066CC000099CC0000CCCC0000FFCC000000FF000033FF000066FF000099FF0000CCFF0000FFFF000000003300330033006600330099003300CC003300FF003300003333003333
310
33006633330099333300CC333300FF33330000663300336633006666330099663300CC663300FF66330000993300339933006699330099993300CC993300FF99330000CC330033CC330066CC330099CC3300CCCC3300FFCC330000FF330033FF330066FF330099FF3300CCFF3300FFFF330000006600330066006600660099
310
006600CC006600FF00660000336600333366006633660099336600CC336600FF33660000666600336666006666660099666600CC666600FF66660000996600339966006699660099996600CC996600FF99660000CC660033CC660066CC660099CC6600CCCC6600FFCC660000FF660033FF660066FF660099FF6600CCFF6600
310
FFFF660000009900330099006600990099009900CC009900FF00990000339900333399006633990099339900CC339900FF33990000669900336699006666990099669900CC669900FF66990000999900339999006699990099999900CC999900FF99990000CC990033CC990066CC990099CC9900CCCC9900FFCC990000FF99
310
0033FF990066FF990099FF9900CCFF9900FFFF99000000CC003300CC006600CC009900CC00CC00CC00FF00CC000033CC003333CC006633CC009933CC00CC33CC00FF33CC000066CC003366CC006666CC009966CC00CC66CC00FF66CC000099CC003399CC006699CC009999CC00CC99CC00FF99CC0000CCCC0033CCCC0066CC
310
CC0099CCCC00CCCCCC00FFCCCC0000FFCC0033FFCC0066FFCC0099FFCC00CCFFCC00FFFFCC000000FF003300FF006600FF009900FF00CC00FF00FF00FF000033FF003333FF006633FF009933FF00CC33FF00FF33FF000066FF003366FF006666FF009966FF00CC66FF00FF66FF000099FF003399FF006699FF009999FF00CC
310
99FF00FF99FF0000CCFF0033CCFF0066CCFF0099CCFF00CCCCFF00FFCCFF0000FFFF0033FFFF0066FFFF0099FFFF00CCFFFF00FFFFFF00000000000D0D0D001A1A1A00282828003535350043434300505050005D5D5D006B6B6B00787878008686860093939300A1A1A100AEAEAE00BBBBBB00C9C9C900D6D6D600E4E4E400
310
F1F1F100FFFFFF0000000000000000000000000000000000000000000000000000000000000000000000000000000000F5F5F5F5F5F5F5F5F5F5F5F5F5F5F5F5F5F5F5F5F5F5F5F5F5F5F5F5F5F5F5F5F5F5F5F5F5F5F5F5F5F5F5F5F5F5F5F5F5F5F5F5F5F5F5F5F5F5F5F5F5F5F5F5F5F5F5F5F5F5F5F5F5F5F5F5F5F5F5
310
F5F5F5F5F5F5F5F5F5F5F5F5F5F5F5F5F5F5F5F5F5F5F5F5F5F5F5F5F5F5E2E2E2E2E2E2E2E2E2E2E2E2E2E2E2E2E2E2E2E2E2E2E2E2E2E2E2E2E2E2E2E2E2E2E2E2E2E2E2E2E2E2E2E2E2E2E2E2E2E2E2E2E2E2E2E2E2E2E2E2E2E2E2E2E2E2E2E2E2E2E2E2E2E2E2E2E2E2E2E2E2E2E2E2E2E2E2E2E2E2E2E2E2E2E2E2E2
310
E2E2E2E2E2E2E2E2E2F5F5E2E2E2E2E2E2E2E2E2E2E2E2E2E2E2E2E2E2E2E2E2E2E2E2E2E2E2E2E2E2E2E2E2E2E2E2E2E2E2E2E2E2E2E2E2E2E2E2E2E2E2E2E2E2E2E2E2E2E2E2E2E2E2E2E2E2E2E2E2E2E2E2E2E2E2E2E2E2E2E2E2E2E2E2E2E2E2E2E2E2E2E2E2E2E2E2E2E2E2E2E2E2E2E2E2E2F5F5E2E2E2E2E2E2E2E2
310
E2E2E2E2E2E2E2E2E2E2E2E2E2E2E2E2E2E2E2E2E2E2E2E2E2E2E2E2E2E2E2E2E2E2E2E2E2E2E2E2E2E2E2E2E2E2E2E2E2E2E2E2E2E2E2E2E2E2E2E2E2E2E2E2E2E2E2E2E2E2E2E2E2E2E2E2E2E2E2E2E2E2E2E2E2E2E2E2E2E2E2E2E2E2E2E2E2E2F5F5E2E2F5F5F5F5F5F5F5F5F5E2E2E2E2E2E2E2E2E2F5F5F5F5F5F5F5
310
F5F5F5F5F5F5F5F5F5E2E2E2E2E2E2E2E2E2F5F5F5F5F5F5F5F5F5F5F5F5F5F5F5F5E2E2E2E2E2E2E2E2E2F5F5F5F5F5F5F5F5F5F5F5F5F5F5F5F5E2E2E2E2E2E2E2E2E2F5F5F5F5F5F5F5F5F5E2E2F5F5E2E2F5E2E2E2E2E2E2E2E2E2E2E2E2E2E2E2E2E2E2E2E2E2E2E2E2E2E2E2E2E2E2E2E2E2E2E2E2E2E2E2E2E2E2E2
310
E2E2E2E2E2E2E2E2E2E2E2E2E2E2E2E2E2E2E2E2E2E2E2E2E2E2E2E2E2E2E2E2E2E2E2E2E2E2E2E2E2E2E2E2E2E2E2E2E2E2E2E2E2E2E2E2E2F5E2E2F5F5E2E2F5E2F5F5F5F5F5F5F5F5F5F5F5F5F5F5F5F5F5F5F5F5F5F5F5F5F5F5F5F5F5F5F5F5F5F5F5F5F5F5F5F5F5F5F5F5F5F5F5F5F5F5F5F5F5F5F5F5F5F5F5F5F5
310
F5F5F5F5F5F5F5F5F5F5F5F5F5F5F5F5F5F5F5F5F5F5F5F5F5F5F5F5F5F5F5F5F5F5F5F5F5E2F5E2E2F5F5E2E2F5E2F5E2E2E2E2E2E2E2E2E2E2E2E2E2E2E2E2E2E2E2E2E2E2E2E2E2E2E2E2E2E2E2E2E2E2E2E2E2E2E2E2E2E2E2E2E2E2E2E2E2E2E2E2E2E2E2E2E2E2E2E2E2E2E2E2E2E2E2E2E2E2E2E2E2E2E2E2E2E2E2
310
E2E2E2E2E2E2E2E2E2E2E2E2E2E2E2E2E2F5E2F5E2E2F5F5E2E2F5E2F5E2E2E2E2E2E2E2E2E2E2E2E2E2E2E2E2E2E2E2E2E2E2E2E2E2E2E2E2E2E2E2E2E2E2E2E2E2E2E2E2E2E2E2E2E2E2E2E2E2E2E2E2E2E2E2E2E2E2E2E2E2E2E2E2E2E2E2E2E2E2E2E2E2E2E2E2E2E2E2E2E2E2E2E2E2E2E2E2E2E2E2E2E2E2E2E2F5E2
310
F5E2E2F5F5E2E2F5E2F5E2E2E2E2E2E2E2E2E2E2E2E2E2E2E2E2E2E2E2E2E2E2E2E2E2E2E2E2E2E2E2E2E2E2E2E2E2E2E2E2E2E2E2E2E2E2E2E2E2E2E2E2E2E2E2E2E2E2E2E2E2E2E2E2E2E2E2E2E2E2E2E2E2E2E2E2E2E2E2E2E2E2E2E2E2E2E2E2E2E2E2E2E2E2E2E2F5E2F5E2E2F5F5E2E2F5E2F5E2E2E2E2E2E2E2E2E2
310
E2E2E2E2E2E2E2E2E2E2E2E2E2E2E2E2E2E2E2E2E2E2E2E2E2E2E2E2E2E2E2E2E2E2E2E2E2E2E2E2E2E2E2E2E2E2E2E2E2E2E2E2E2E2E2E2E2E2E2E2E2E2E2E2E2E2E2E2E2E2E2E2E2E2E2E2E2E2E2E2E2E2E2E2E2E2E2F5E2F5E2E2F5F5E2E2F5E2F5E2E2E2E2E2E2E2E2E2E2E2E2E2E2E2E2E2E2E2E2E2E2E2E2E2E2E2E2
310
E2E2E2E2E2E2E2E2E2E2E2E2E2E2E2E2E2E2E2E2E2E2E2E2E2E2E2E2E2E2E2E2E2E2E2E2E2E2E2E2E2E2E2E2E2E2E2E2E2E2E2E2E2E2E2E2E2E2E2E2E2E2E2E2E2E2E2E2F5E2F5E2E2F5F5E2E2F5E2F5E2E2E2E2E2E2E2E2E2E2E2E2E2E2E2E2E2E2E2E2E2E2E2E2E2E2E2E2E2E2E2E2E2E2E2E2E2E2E2E2E2E2E2E2E2E2E2
310
E2E2E2E2E2E2E2E2E2E2E2E2E2E2E2E2E2E2E2E2E2E2E2E2E2E2E2E2E2E2E2E2E2E2E2E2E2E2E2E2E2E2E2E2E2E2E2E2E2F5E2F5E2E2F5F5E2E2E2E2F5E2E2E2E2E2E2E2E2E2E2E2E2E2E2E2E2E2E2E2E2E2E2E2E2E2E2E2E2E2E2E2E2E2E2E2E2E2E2E2E2E2E2E2E2E2E2E2E2E2E2E2E2E2E2E2E2E2E2E2E2E2E2E2E2E2E2
310
E2E2E2E2E2E2E2E2E2E2E2E2E2E2E2E2E2E2E2E2E2E2E2E2E2E2E2E2E2E2F5E2E2E2E2F5F5E2E2E2E2F5E2E2E2E2E2E2E2E2E2E2E2E2E2E2E2E2E2E2E2E2E2E2E2E2E2E2E2E2E2E2E2E2E2E2E2E2E2E2E2E2E2E2E2E2E2E2E2E2E2E2E2E2E2E2E2E2E2E2E2E2E2E2E2E2E2E2E2E2E2E2E2E2E2E2E2E2E2E2E2E2E2E2E2E2E2
310
E2E2E2E2E2E2E2E2E2E2E2F5E2E2E2E2F5F5E2E2E2E2F5E2E2E2E2E2E2E2E2E2E2E2E2E2E2E2E2E2E2E2E2E2E2E2E2E2E2E2E2E2E2E2E2E2E2E2E2E2E2E2E2E2E2E2E2E2E2E2E2E2E2E2E2E2E2E2E2E2E2E2E2E2E2E2E2E2E2E2E2E2E2E2E2E2E2E2E2E2E2E2E2E2E2E2E2E2E2E2E2E2E2E2E2E2E2E2E2F5E2E2E2E2F5F5E2
310
E2E2E2F5E2E2E2E2E2E2E2E2E2E2E2E2E2E2E2E2E2E2E2E2E2E2E2E2E2E2E2E2E2E2E2E2E2E2E2E2E2E2E2E2E2E2E2E2E2E2E2E2E2E2E2E2E2E2E2E2E2E2E2E2E2E2E2E2E2E2E2E2E2E2E2E2E2E2E2E2E2E2E2E2E2E2E2E2E2E2E2E2E2E2E2E2E2E2E2E2F5E2E2E2E2F5F5E2E2E2E2F5E2E2E2E2E2E2E2E2E2E2E2E2E2E2E2
310
E2E2E2E2E2E2E2E2E2E2E2E2E2E2E2E2E2E2E2E2E2E2E2E2E2E2E2E2E2E2E2E2E2E2E2E2E2E2E2E2E2E2E2E2E2E2E2E2E2E2E2E2E2E2E2E2E2E2E2E2E2E2E2E2E2E2E2E2E2E2E2E2E2E2E2E2E2E2E2E2E2F5E2E2E2E2F5F5E2E2E2E2F5E2E2E2E2E2E2E2E2E2E2E2E2E2E2E2E2E2E2E2E2E2E2E2E2E2E2E2E2E2E2E2E2E2E2
310
E2E2E2E2E2E2E2E2E2E2E2E2E2E2E2E2E2E2E2E2E2E2E2E2E2E2E2E2E2E2E2E2E2E2E2E2E2E2E2E2E2E2E2E2E2E2E2E2E2E2E2E2E2E2E2E2E2E2E2E2E2E2F5E2E2E2E2F5F5E2E2E2E2F5E2E2E2E2E2E2E2E2E2E2E2E2E2E2E2E2E2E2E2E2E2E2E2E2E2E2E2E2E2E2E2E2E2E2E2E2E2E2E2E2E2E2E2E2E2E2E2E2E2E2E2E2E2
310
E2E2E2E2E2E2E2E2E2E2E2E2E2E2E2E2E2E2E2E2E2E2E2E2E2E2E2E2E2E2E2E2E2E2E2E2E2E2E2E2E2E2E2F5E2E2E2E2F5F5E2E2E2E2F5E2E2E2E2E2E2E2E2E2E2E2E2E2E2E2E2E2E2E2E2E2E2E2E2E2E2E2E2E2E2E2E2E2E2E2E2E2E2E2E2E2E2E2E2E2E2E2E2E2E2E2E2E2E2E2E2E2E2E2E2E2E2E2E2E2E2E2E2E2E2E2E2
310
E2E2E2E2E2E2E2E2E2E2E2E2E2E2E2E2E2E2E2E2E2E2E2E2F5E2E2E2E2F5F5E2E2E2E2F5E2E2E2E2E2E2E2E2E2E2E2E2E2E2E2E2E2E2E2E2E2E2E2E2E2E2E2E2E2E2E2E2E2E2E2E2E2E2E2E2E2E2E2E2E2E2E2E2E2E2E2E2E2E2E2E2E2E2E2E2E2E2E2E2E2E2E2E2E2E2E2E2E2E2E2E2E2E2E2E2E2E2E2E2E2E2E2E2E2E2E2
310
E2E2E2E2E2F5E2E2E2E2F5F5E2E2F5E2F5E2E2E2E2E2E2E2E2E2E2E2E2E2E2E2E2E2E2E2E2E2E2E2E2E2E2E2E2E2E2E2E2E2E2E2E2E2E2E2E2E2E2E2E2E2E2E2E2E2E2E2E2E2E2E2E2E2E2E2E2E2E2E2E2E2E2E2E2E2E2E2E2E2E2E2E2E2E2E2E2E2E2E2E2E2E2E2E2E2E2E2E2E2E2E2E2F5E2F5E2E2F5F5E2E2F5E2F5E2E2
310
E2E2E2E2E2E2E2E2E2E2E2E2E2E2E2E2E2E2E2E2E2E2E2E2E2E2E2E2E2E2E2E2E2E2E2E2E2E2E2E2E2E2E2E2E2E2E2E2E2E2E2E2E2E2E2E2E2E2E2E2E2E2E2E2E2E2E2E2E2E2E2E2E2E2E2E2E2E2E2E2E2E2E2E2E2E2E2E2E2E2E2E2E2E2F5E2F5E2E2F5F5E2E2F5E2F5E2E2E2E2E2E2E2E2E2E2E2E2E2E2E2E2E2E2E2E2E2
310
F5F5F5F5F5F5F5F5F5F5F5F5F5F5F5F5F5F5F5F5F5E2E2E2E2E2E2E2E2E2E2E2E2E2E2E2E2E2E2E2E2E2E2E2E2E2E2E2E2E2E2E2E2E2E2E2E2E2E2E2E2E2E2E2E2E2E2E2E2E2E2E2E2E2E2F5E2F5E2E2F5F5E2E2F5E2F5E2E2E2E2E2E2E2E2E2E2E2E2E2E2E2E2E2E2E2E2E2F5F5F5F5F5F5F5F5F5F5F5F5F5F5F5F5F5F5F5
310
F5F5F5F5F5F5F5F5F5F5F5F5F5F5F5F5F5F5F5F5F5F5F5F5E2E2E2E2E2E2E2E2E2E2E2E2E2E2E2E2E2E2E2E2E2E2E2E2E2E2E2E2E2E2E2E2F5E2F5E2E2F5F5E2E2F5E2F5E2E2E2E2E2E2E2E2E2E2E2E2E2E2E2E2E2E2E2E2E2F5F5F5F5F5F5F5F5F5F5F5F5F5F5F5F5F5F5F5F5F5F5F5F5F5F5F5F5F5F5F5F5F5F5F5E2F5F5
310
F5F5F5F5F5E2E2E2E2E2E2E2E2E2E2E2E2E2E2E2E2E2E2E2E2E2E2E2E2E2E2E2E2E2E2E2E2F5E2F5E2E2F5F5E2E2F5E2F5E2E2E2E2E2E2E2E2E2E2E2E2E2E2E2E2E2E2E2E2E2E2E2E2E2E2E2E2E2E2E2E2E2E2E2E2E2E2E2E2E2E2E2E2E2E2E2E2E2E2E2E2E2E2E2E2E2E2E2E2E2E2E2E2E2E2E2E2E2E2E2E2E2E2E2E2E2E2
310
E2E2E2E2E2E2E2E2E2E2E2E2E2E2E2E2E2E2F5E2F5E2E2F5F5E2E2F5E2F5E2E2E2E2E2E2E2E2E2E2E2E2E2E2E2E2E2E2E2E2E2E2E2E2E2E2E2E2E2E2E2E2E2E2E2E2E2E2E2F5F5E2E2E2E2E2E2E2E2E2F5E2E2E2E2E2E2E2E2E2E2E2E2E2E2E2E2E2E2E2E2E2E2E2E2E2E2E2E2E2E2E2E2E2E2E2E2E2E2E2E2E2E2E2E2E2F5
310
E2F5E2E2F5F5E2E2F5E2F5E2E2E2E2E2E2E2E2E2E2E2E2E2E2E2E2E2E2E2E2F5F5F5F5F5F5F5F5F5F5F5F5F5F5F5F5F5F5F5F5F5F5F5F5F5F5F5F5F5F5F5F5F5F5F5F5F5F5F5F5F5F5F5F5F5F5F5F5F5F5F5E2E2E2E2E2E2E2E2E2E2E2E2E2E2E2E2E2E2E2E2E2E2E2E2E2F5E2F5E2E2F5F5E2E2F5E2F5E2E2E2E2E2E2E2E2
310
E2E2E2E2E2E2E2E2E2E2E2E2F5F5E2E2E2E2E2E2E2E2E2E2E2E2E2E2E2E2E2E2F5F5F5F5F5F5F5F5F5F5F5E2E2E2E2E2E2E2E2E2E2E2E2E2E2E2E2E2E2F5F5E2E2E2E2E2E2E2E2E2E2E2E2E2E2E2E2E2E2E2E2E2E2E2E2E2F5E2F5E2E2F5F5E2E2F5E2F5E2E2E2E2E2E2E2E2E2E2E2E2E2E2E2E2E2E2E2E2F5E2E2E2E2E2E2
310
E2E2E2E2E2E2E2E2E2E2E2E2E2F5F5F5F5F5F5F5F5F5E2E2E2E2E2E2E2E2E2E2E2E2E2E2E2E2E2E2E2E2E2F5E2E2E2E2E2E2E2E2E2E2E2E2E2E2E2E2E2E2E2E2E2E2E2E2E2F5E2F5E2E2F5F5E2E2F5E2F5E2E2E2E2E2E2E2E2E2E2E2E2E2E2E2E2E2E2E2E2F5E2E2E2E2E2E2E2E2E2E2E2E2E2E2E2E2E2E2E2E2E2E2E2E2E2
310
E2E2E2E2E2E2E2E2E2E2E2E2E2E2E2E2E2E2E2E2E2E2E2E2F5E2E2E2E2E2E2E2E2E2E2E2E2E2E2E2E2E2E2E2E2E2E2E2E2E2F5E2F5E2E2F5F5E2E2F5E2F5E2E2E2E2E2E2E2E2E2E2E2E2E2E2E2E2E2E2E2E2F5E2E2E2E2E2E2E2E2E2E2E2E2E2E2E2E2E2E2E2E2E2E2E2E2E2E2E2E2E2E2E2E2E2E2E2E2E2E2E2E2E2E2E2E2
310
E2E2E2E2E2F5E2E2E2E2E2E2E2E2E2E2E2E2E2E2E2E2E2E2E2E2E2E2E2E2E2F5E2F5E2E2F5F5E2E2F5E2F5E2E2E2F5F5F5F5F5F5F5F5F5F5F5F5F5F5F5F5F5F5F5F5F5F5F5F5F5F5F5F5F5F5F5F5F5F5F5F5F5F5F5F5F5F5F5F5F5F5F5F5F5F5F5F5F5F5F5F5F5F5F5F5F5F5F5F5F5F5F5F5F5F5F5F5F5F5F5F5F5F5F5F5F5
310
F5F5F5E2E2E2E2E2E2E2E2E2F5E2F5E2E2F5F5E2E2F5E2F5E2E2E2F5F5E2E2E2E2E2E2E2E2F5E2E2E2E2E2E2F5E2E2E2E2E2E2E2E2E2E2E2E2E2E2E2E2E2E2E2E2E2E2E2E2E2E2E2E2E2E2E2E2E2E2E2E2E2E2E2E2E2E2E2E2E2E2E2E2E2F5E2E2F5E2E2E2E2E2F5E2E2E2E2E2F5E2E2E2E2E2E2E2E2E2E2F5E2F5E2E2F5F5
310
E2E2F5E2F5E2E2E2F5E2E2E2E2E2E2E2E2E2F5E2E2E2E2E2E2F5E2E2E2E2E2E2E2E2E2E2E2E2E2E2E2E2E2E2E2E2E2E2E2E2E2E2E2E2E2E2E2E2E2E2E2E2E2E2E2E2E2E2E2E2E2E2E2E2E2F5E2F5E2F5E2E2E2F5F5E2E2E2E2E2F5E2E2E2E2E2E2E2E2E2E2F5E2F5E2E2F5F5E2E2F5E2F5E2E2E2F5E2E2E2E2E2E2F5F5F5F5
310
F5F5F5F5F5F5F5E2E2E2E2E2E2E2E2E2E2E2E2E2E2E2E2E2E2E2E2E2E2E2E2E2E2E2E2E2E2E2E2E2E2E2E2E2E2E2E2E2E2E2E2E2E2E2E2E2F5E2E2E2F5F5F5E2F5E2E2E2E2E2E2F5E2E2E2E2E2E2E2E2E2E2F5E2F5E2E2F5F5E2E2F5E2F5E2E2E2F5E2E2E2E2E2E2F5E2E2E2E2E2F5F5E2E2F5E2E2E2E2E2E2E2E2E2E2E2E2
310
E2E2E2E2E2E2E2E2E2E2E2E2E2E2E2E2E2E2E2E2E2E2E2E2E2E2E2E2E2E2E2E2E2E2E2E2E2F5E2E2E2E2E2E2E2E2E2E2E2E2E2E2F5E2E2E2E2E2E2E2E2E2E2F5E2F5E2E2F5F5E2E2E2E2F5E2E2E2F5E2E2E2E2E2E2F5E2E2E2E2E2F5F5E2E2F5E2E2E2E2E2E2E2E2E2E2E2E2E2E2E2E2E2E2E2E2E2E2E2E2E2E2E2E2E2E2E2
310
E2E2E2E2E2E2E2E2E2E2E2E2E2E2E2E2E2E2F5E2E2F5E2E2F5F5E2E2E2E2E2E2E2F5E2E2E2E2E2E2E2E2E2E2F5E2E2E2E2F5F5E2E2E2E2F5E2E2E2F5E2E2E2E2E2E2F5F5F5F5F5F5F5F5F5F5F5E2E2E2E2E2E2E2E2E2E2E2E2E2E2E2E2E2E2E2E2E2E2E2E2E2E2E2E2E2E2E2E2E2E2E2E2E2E2E2E2E2E2E2E2E2E2E2E2E2F5
310
E2F5E2E2E2E2F5F5E2E2E2E2E2E2F5E2E2E2E2E2E2E2E2E2E2F5E2E2E2E2F5F5E2E2E2E2F5E2E2E2F5E2E2E2E2E2E2E2E2E2F5E2E2E2E2E2E2F5E2E2E2E2E2E2E2E2E2E2E2E2E2E2E2E2E2E2E2E2E2E2E2E2E2E2E2E2E2E2E2E2E2E2E2E2E2E2E2E2E2E2E2E2E2E2E2E2E2F5E2E2E2E2E2F5E2F5E2E2F5E2E2E2F5E2E2E2E2
310
E2E2E2E2E2E2F5E2E2E2E2F5F5E2E2E2E2F5E2E2E2F5E2E2E2E2E2E2E2E2E2F5E2E2E2E2E2E2F5E2E2E2E2E2E2E2E2E2E2E2E2E2E2E2E2E2E2E2E2E2E2E2E2E2E2E2E2E2E2E2E2E2E2E2E2E2E2E2E2E2E2E2E2E2E2E2E2E2F5E2E2E2E2E2E2E2E2E2E2F5E2E2E2F5E2E2E2E2E2E2E2E2E2E2F5E2E2E2E2F5F5E2E2E2E2F5E2
310
E2E2F5E2E2E2E2E2E2E2E2E2F5E2E2E2E2E2E2F5E2E2E2E2E2E2E2E2E2F5F5F5F5F5F5F5F5F5F5F5F5F5F5F5F5F5F5F5F5F5F5F5F5F5F5F5F5F5F5E2E2E2E2E2E2E2E2E2E2F5E2E2F5E2E2E2E2F5E2E2E2E2E2E2F5E2E2E2E2E2E2E2E2E2E2F5E2E2E2E2F5F5E2E2E2E2F5E2E2E2F5E2E2E2E2E2E2F5F5F5F5F5F5F5F5F5F5
310
F5E2E2E2E2E2E2E2E2E2F5F5F5F5F5F5F5F5F5F5F5F5F5F5F5F5F5F5F5F5F5F5F5F5F5F5F5F5F5F5E2E2E2E2E2E2E2E2E2E2F5F5E2E2F5E2E2F5E2E2E2E2E2E2E2F5E2E2E2E2E2E2E2E2E2E2F5E2E2E2E2F5F5E2E2E2E2F5E2E2E2F5E2E2E2E2E2E2F5E2E2E2E2E2F5F5E2E2F5E2E2E2E2E2E2E2E2E2E2E2F5F5F5F5F5F5F5
310
F5F5F5F5F5F5F5F5F5F5F5F5F5F5F5F5F5F5F5E2E2E2E2E2E2E2E2E2E2E2E2F5E2E2E2F5E2E2F5F5E2F5F5E2E2E2F5E2E2E2E2E2E2E2E2E2E2F5E2E2E2E2F5F5E2E2E2E2F5E2E2E2F5E2E2E2E2E2E2F5E2E2E2E2E2F5F5E2E2F5F5F5F5F5F5F5F5F5F5F5F5F5F5F5F5F5F5F5F5F5F5F5F5F5F5F5F5F5F5F5F5F5F5F5F5F5F5
310
F5F5F5F5F5F5F5F5F5F5F5F5F5E2F5F5E2E2E2E2F5E2E2E2E2E2E2F5E2E2E2E2E2E2E2E2E2E2F5E2E2E2E2F5F5E2E2E2E2F5E2E2E2F5E2E2E2E2E2E2F5F5F5F5F5F5F5F5F5F5F5E2E2E2E2E2E2E2E2E2E2E2E2E2E2E2E2E2E2E2E2E2E2E2E2E2E2E2E2E2E2E2E2E2E2E2E2E2E2E2E2E2E2E2E2E2E2E2E2E2F5F5E2E2E2F5F5
310
E2F5E2E2E2E2E2E2F5E2E2E2E2E2E2E2E2E2E2F5E2E2E2E2F5F5E2E2E2E2F5E2E2E2F5E2E2E2E2E2E2E2E2E2F5E2E2E2E2E2E2F5E2E2E2E2E2E2E2E2E2E2E2E2E2E2E2E2E2E2E2E2E2E2E2E2E2E2E2E2E2E2E2E2E2E2E2E2E2E2E2E2E2E2E2E2E2E2E2E2E2F5F5E2F5E2E2F5F5E2E2E2E2E2E2E2F5E2E2E2E2E2E2E2E2E2E2
310
F5E2E2E2E2F5F5E2E2F5E2F5E2E2E2F5E2E2E2E2E2E2E2E2E2F5E2E2E2E2E2E2F5E2E2E2E2E2E2E2E2E2E2E2E2E2E2E2E2E2E2E2E2E2E2E2E2E2E2E2E2E2E2E2E2E2E2E2E2E2E2E2E2E2E2E2E2E2E2E2E2E2F5F5E2E2E2E2E2E2E2F5E2E2E2E2E2F5E2E2E2E2E2E2E2E2E2E2F5E2F5E2E2F5F5E2E2F5E2F5E2E2E2F5E2E2E2
310
E2E2E2F5F5F5F5F5F5F5F5F5F5F5E2E2E2E2E2E2E2E2E2E2E2E2E2E2E2E2E2E2E2E2E2E2E2E2E2E2E2E2E2E2E2E2E2E2E2E2E2E2E2E2E2E2E2E2E2E2E2E2E2F5E2E2F5E2E2E2E2F5E2E2E2E2E2E2F5E2E2E2E2E2E2E2E2E2E2F5E2F5E2E2F5F5E2E2F5E2F5E2E2E2F5E2E2E2E2E2E2F5E2E2E2E2E2F5F5E2E2F5E2E2E2E2E2
310
E2E2E2E2E2E2E2E2E2E2E2E2E2E2E2E2E2E2E2E2E2E2E2E2E2E2E2E2E2E2E2E2E2E2E2E2E2E2E2E2E2E2E2E2F5E2E2F5E2E2E2E2E2E2F5E2E2E2E2F5E2E2E2E2E2E2E2E2E2E2F5E2F5E2E2F5F5E2E2F5E2F5E2E2E2F5E2E2E2E2E2E2F5E2E2E2E2E2F5F5E2E2F5E2E2E2E2E2E2E2E2E2E2E2E2E2E2E2E2E2E2E2E2E2E2E2E2
310
E2E2E2E2E2E2E2E2E2E2E2E2E2E2E2E2E2E2E2E2E2E2E2E2E2F5E2E2E2F5E2F5F5E2E2F5E2E2E2E2F5E2E2E2E2E2E2E2E2E2E2F5E2F5E2E2F5F5E2E2F5E2F5E2E2E2F5E2E2E2E2E2E2F5F5F5F5F5F5F5F5F5F5F5E2E2E2E2E2E2E2E2E2E2E2E2E2E2E2E2E2E2E2E2E2E2E2E2E2E2E2E2E2E2E2E2E2E2E2E2E2E2E2E2E2E2E2
310
E2E2E2E2E2E2F5E2E2F5E2E2E2E2E2F5F5E2E2E2E2F5E2E2E2E2E2E2E2E2E2E2F5E2F5E2E2F5F5E2E2F5E2F5E2E2E2F5E2E2E2E2E2E2E2E2E2F5F5F5F5F5F5F5F5E2E2E2E2E2E2E2E2E2E2E2E2E2E2E2E2E2E2E2E2E2E2E2E2E2E2E2E2E2E2E2E2E2E2E2E2E2E2E2E2E2E2E2E2E2E2E2E2E2F5E2E2E2E2E2E2E2F5E2F5E2E2
310
E2E2F5E2E2E2E2E2E2E2E2E2E2F5E2F5E2E2F5F5E2E2F5E2F5E2E2E2F5E2E2E2E2E2E2E2E2E2F5E2E2E2E2E2E2F5E2E2E2E2E2E2E2E2E2E2E2E2E2E2E2E2E2E2E2E2E2E2E2E2E2E2E2E2E2E2E2E2E2E2E2E2E2E2E2E2E2E2E2E2E2E2E2E2E2F5E2E2E2F5F5F5E2E2E2E2E2E2E2E2F5E2E2E2E2E2E2E2E2E2E2F5E2F5E2E2F5
310
F5E2E2F5E2F5E2E2E2F5E2E2E2E2E2E2E2E2E2F5E2E2E2E2E2E2F5E2E2E2E2E2E2E2E2E2E2E2E2E2E2E2E2E2E2E2E2E2E2E2E2E2E2E2E2E2E2E2E2E2E2E2E2E2E2E2E2E2E2E2E2E2E2E2E2E2F5E2E2F5F5E2E2E2F5F5E2E2E2E2E2F5E2E2E2E2E2E2E2E2E2E2F5E2F5E2E2F5F5E2E2F5E2F5E2E2E2F5E2E2E2E2E2E2F5F5F5
310
F5F5F5F5F5F5F5F5E2E2E2E2E2E2F5F5F5E2E2E2E2E2E2E2E2E2E2E2E2E2E2E2E2E2E2E2E2E2E2E2E2E2E2E2E2E2E2E2F5F5F5F5E2E2E2E2E2F5F5E2E2F5E2F5E2F5E2E2E2E2E2E2F5E2E2E2E2E2E2E2E2E2E2F5E2F5E2E2F5F5E2E2F5E2F5E2E2E2F5E2E2E2E2E2E2F5E2E2E2E2E2F5F5E2E2F5E2E2E2E2E2F5F5F5F5F5F5
310
F5F5F5F5F5E2E2E2E2E2E2E2E2E2E2E2E2E2E2E2E2E2E2E2E2E2F5F5F5F5F5F5F5E2E2E2E2E2F5E2E2E2E2E2E2F5E2E2E2F5F5F5F5F5F5F5F5F5E2E2E2E2E2E2F5E2F5E2E2F5F5E2E2F5E2F5E2E2E2F5E2E2E2E2E2E2F5E2E2E2E2E2F5F5E2E2F5F5F5F5F5F5F5F5F5F5F5F5F5F5F5F5F5E2E2E2E2E2E2E2E2E2E2E2E2E2E2
310
E2E2E2E2E2E2E2F5F5F5F5F5F5F5F5F5F5F5F5F5E2F5E2E2E2E2E2E2F5F5F5F5F5F5F5F5F5F5F5F5E2E2E2E2E2F5E2F5E2E2F5F5E2E2F5E2F5F5F5F5F5F5F5F5F5E2E2F5F5F5F5F5F5F5F5F5F5F5E2E2E2E2E2E2E2E2E2E2E2E2E2E2E2E2E2E2E2E2E2E2E2E2E2E2E2E2E2E2E2E2E2E2E2E2E2E2E2E2E2E2E2E2E2E2E2E2E2
310
F5E2E2F5E2E2E2E2E2E2F5F5F5F5F5F5F5F5F5F5E2E2E2E2E2E2F5E2F5E2E2F5F5E2E2F5E2F5F5F5F5F5F5F5F5F5E2E2E2E2E2F5E2E2E2E2E2E2F5E2E2E2E2E2E2E2E2E2E2E2E2E2E2E2E2E2E2E2E2E2E2E2E2E2E2E2E2E2E2E2E2E2E2E2E2E2E2E2E2E2E2E2E2E2E2E2E2E2F5E2E2E2E2E2E2E2E2F5E2E2E2E2E2F5E2E2E2
310
E2E2E2E2E2E2E2F5E2F5E2E2F5F5E2E2F5E2F5E2F5F5F5F5F5F5E2E2E2E2E2E2F5E2E2E2E2E2E2F5E2E2E2E2E2E2E2E2E2E2E2E2E2E2E2E2E2E2E2E2E2E2E2E2E2E2E2E2E2E2E2E2E2E2E2E2E2E2E2E2E2E2E2E2E2E2E2E2E2F5F5E2F5E2E2E2E2F5E2F5F5E2E2E2F5E2E2E2E2E2E2E2E2E2E2F5E2F5E2E2F5F5E2E2F5E2F5
310
E2E2E2F5E2E2E2E2E2E2E2E2E2F5F5F5F5F5F5F5F5E2E2E2E2E2E2E2E2E2E2E2E2E2E2E2E2E2E2E2E2E2E2E2E2E2E2E2E2E2E2E2E2E2E2E2E2E2E2E2E2E2E2E2E2E2E2E2E2E2F5E2F5F5E2F5F5E2E2F5F5E2E2E2E2F5E2E2E2E2E2E2E2E2E2E2F5E2F5E2E2F5F5E2E2F5E2F5E2E2E2F5E2E2E2E2E2E2F5F5F5F5F5F5F5F5F5
310
F5F5E2E2E2E2E2E2E2E2E2E2E2E2E2E2E2E2E2E2E2E2E2E2E2E2E2E2E2E2E2E2E2E2E2E2E2E2E2E2E2E2E2E2E2E2E2E2E2E2E2F5E2E2E2E2E2F5F5E2F5E2E2E2E2E2F5E2E2E2E2E2E2E2E2E2E2F5E2F5E2E2F5F5E2E2E2E2F5E2E2E2F5E2E2E2E2E2E2F5E2E2E2E2E2F5F5E2E2F5E2E2E2E2E2E2E2E2E2E2E2E2E2E2E2E2E2
310
E2E2E2E2E2E2E2E2E2E2E2E2E2E2E2E2E2E2E2E2E2E2E2E2E2E2E2E2E2E2E2E2F5E2E2E2E2E2E2F5F5F5E2E2E2E2E2F5E2E2E2E2E2E2E2E2E2E2F5E2E2E2E2F5F5E2E2E2E2F5E2E2E2F5E2E2E2E2E2E2F5E2E2E2E2E2F5F5E2E2F5E2E2E2E2E2E2E2E2E2E2E2E2E2E2E2E2E2E2E2E2E2E2E2E2E2E2E2E2E2E2E2E2E2E2E2E2
310
E2E2E2E2E2E2E2E2E2E2E2E2E2F5F5E2E2F5E2E2F5E2F5E2E2E2E2E2F5E2E2E2E2E2E2E2E2E2E2F5E2E2E2E2F5F5E2E2E2E2F5E2E2E2F5E2E2E2E2E2E2F5F5F5F5F5F5F5F5F5F5F5E2E2E2E2E2E2E2E2E2E2E2E2E2E2E2E2E2E2E2E2E2E2E2E2E2E2E2E2E2E2E2E2E2E2E2E2E2E2E2E2E2E2E2E2E2E2E2E2E2F5F5E2E2F5E2
310
E2E2F5F5F5E2E2E2E2F5E2E2E2E2E2E2E2E2E2E2F5E2E2E2E2F5F5E2E2E2E2F5E2E2E2F5E2E2E2E2E2E2E2E2E2F5E2E2E2E2E2E2F5E2E2E2E2E2E2E2E2E2E2E2E2E2E2E2E2E2E2E2E2E2E2E2E2E2E2E2E2E2E2E2E2E2E2E2E2E2E2E2E2E2E2E2E2E2E2E2E2E2F5E2E2E2E2F5E2E2E2E2E2E2E2E2E2F5E2E2E2E2E2E2E2E2E2
310
E2F5E2E2E2E2F5F5E2E2E2E2F5E2E2E2F5E2E2E2E2E2E2E2E2E2F5E2E2E2E2E2E2F5E2E2E2E2E2E2E2E2E2E2E2E2E2E2E2E2E2E2E2E2E2E2E2E2E2E2E2E2E2E2E2E2E2E2E2E2E2E2E2E2E2E2E2E2E2E2E2E2E2F5E2E2E2E2E2E2E2E2E2E2E2E2E2E2F5E2E2E2E2E2E2E2E2E2E2F5E2E2E2E2F5F5E2E2E2E2F5E2E2E2F5E2E2
310
E2E2E2E2F5F5F5F5F5F5F5F5F5F5F5E2E2E2E2E2E2E2E2E2E2E2E2E2E2E2E2E2E2E2E2E2E2E2E2E2E2E2E2E2E2E2E2E2E2E2E2E2E2E2E2E2E2E2E2E2E2E2E2E2F5F5F5E2F5E2E2F5E2F5E2E2E2E2E2F5E2E2E2E2E2E2E2E2E2E2F5E2E2E2E2F5F5E2E2E2E2F5E2E2E2F5E2E2E2E2E2E2F5E2E2E2E2E2F5F5E2E2F5E2E2E2E2
310
E2E2E2E2E2E2E2E2E2E2E2E2E2E2E2E2E2E2E2E2E2E2E2E2E2E2E2E2E2E2E2E2E2E2E2E2E2E2E2E2E2E2E2E2E2F5F5F5E2E2E2E2F5F5F5F5E2E2E2E2F5E2E2E2E2E2E2E2E2E2E2F5E2E2E2E2F5F5E2E2E2E2F5E2E2E2F5E2E2E2E2E2E2F5E2E2E2E2E2F5F5E2E2F5E2E2E2E2E2E2E2E2E2E2E2E2E2E2E2E2E2E2E2E2E2E2E2
310
E2E2E2E2E2E2E2E2E2E2E2E2E2E2E2E2E2E2E2E2E2E2E2E2E2E2F5E2E2E2E2E2E2E2E2F5E2E2E2E2E2F5E2E2E2E2E2E2E2E2E2E2F5E2E2E2E2F5F5E2E2E2E2F5E2E2E2F5E2E2E2E2E2E2F5F5F5F5F5F5F5F5F5F5F5E2E2E2E2E2E2E2E2E2E2E2E2E2E2E2E2E2E2E2E2E2E2E2E2E2E2E2E2E2E2E2E2E2E2E2E2E2E2E2E2E2E2
310
E2E2E2E2E2E2E2F5F5E2E2E2E2E2F5E2E2E2E2E2E2E2F5E2E2E2E2E2E2E2E2E2E2F5E2E2E2E2F5F5E2E2E2E2F5E2E2E2F5E2E2E2E2E2E2E2E2E2F5E2E2E2E2E2E2F5E2E2E2E2E2E2E2E2E2E2E2E2E2E2E2E2E2E2E2E2E2E2E2E2E2E2E2E2E2E2E2E2E2E2E2E2E2E2E2E2E2E2E2E2E2E2E2E2E2F5E2E2E2F5E2E2F5E2F5E2E2
310
E2E2E2F5E2E2E2E2E2E2E2E2E2E2F5E2E2E2E2F5F5E2E2F5E2F5E2E2E2F5E2E2E2E2E2E2E2E2E2F5E2E2E2E2E2E2F5E2E2E2E2E2E2E2E2E2E2E2E2E2E2E2E2E2E2E2E2E2E2E2E2E2E2E2E2E2E2E2E2E2E2E2E2E2E2E2E2E2E2E2E2E2E2E2E2E2F5E2F5F5E2E2E2E2E2E2E2E2E2E2E2F5E2E2E2E2E2E2E2E2E2E2F5E2F5E2E2
310
F5F5E2E2F5E2F5E2E2E2F5E2E2E2E2E2E2E2E2E2F5E2E2E2E2E2E2F5E2E2E2E2E2E2E2E2E2E2E2E2E2E2E2E2E2E2E2E2E2E2E2E2F5E2E2E2E2E2E2E2E2E2E2E2E2E2E2E2E2E2E2E2E2E2E2E2E2F5E2E2F5E2E2E2E2E2F5E2E2E2E2E2F5E2E2E2E2E2E2E2E2E2E2F5E2F5E2E2F5F5E2E2F5E2F5E2E2E2F5E2E2E2E2E2E2F5F5
310
F5F5F5F5F5F5F5F5F5E2E2E2E2E2E2E2E2F5F5F5F5F5F5E2E2E2E2E2E2E2E2E2E2F5E2E2E2E2E2E2E2E2E2E2E2E2E2E2E2E2E2E2E2E2E2E2F5F5F5E2E2F5F5E2F5F5E2E2E2F5E2E2E2F5E2E2E2E2E2E2E2E2E2E2F5E2F5E2E2F5F5E2E2F5E2F5E2E2E2F5E2E2E2E2E2E2F5E2E2E2E2E2F5F5E2E2F5E2E2E2E2E2E2E2E2F5F5
310
F5F5F5F5E2E2E2E2E2E2E2E2E2E2F5E2E2E2E2E2E2E2E2E2E2E2E2E2E2E2E2E2E2F5F5F5F5E2E2F5E2E2F5E2E2E2F5F5F5E2F5E2E2E2F5E2E2E2E2E2E2E2E2E2E2F5E2F5E2E2F5F5E2E2F5E2F5E2E2E2F5E2E2E2E2E2E2F5E2E2E2E2E2F5F5E2E2F5E2E2E2E2E2E2F5F5F5F5F5F5F5F5F5F5F5F5F5E2E2E2E2E2F5E2E2E2E2
310
E2E2E2E2E2E2E2E2E2E2E2E2E2E2F5E2E2E2E2E2F5E2E2E2E2E2E2E2E2E2E2F5E2E2E2F5E2E2E2E2E2E2E2E2E2E2F5E2F5E2E2F5F5E2E2F5E2F5E2E2E2F5E2E2E2E2E2E2F5F5F5F5F5F5F5F5F5F5F5E2E2E2E2E2E2F5E2E2E2E2E2E2E2E2E2E2E2E2E2E2E2E2E2F5E2E2E2E2E2E2E2E2E2E2E2E2E2E2E2E2E2E2F5E2E2E2E2
310
E2F5E2E2E2E2E2E2E2E2E2E2E2E2E2E2F5E2E2E2E2E2E2E2E2E2E2F5E2F5E2E2F5F5E2E2F5E2F5E2E2E2F5E2E2E2E2E2E2E2E2E2F5E2E2E2E2E2E2F5E2E2E2E2E2F5E2E2E2E2E2E2E2E2E2E2E2E2E2E2E2E2E2E2F5E2E2E2E2E2E2E2E2E2E2E2E2E2E2E2E2E2F5E2E2E2E2E2E2F5E2F5E2F5E2F5E2E2F5E2E2E2E2E2F5E2E2
310
E2E2E2E2E2E2E2E2F5E2F5E2E2F5F5E2E2F5E2F5E2E2E2F5E2E2E2E2E2E2E2E2E2F5E2E2E2E2E2E2F5E2E2E2E2E2F5F5E2E2E2E2E2E2E2E2E2E2E2E2E2E2E2E2E2F5E2E2E2E2E2E2E2E2E2E2E2E2E2E2E2E2E2F5E2E2E2E2E2E2F5E2E2E2E2E2E2E2E2E2E2E2E2E2E2F5E2E2E2E2E2E2E2E2E2E2F5E2F5E2E2F5F5E2E2F5E2
310
F5E2E2E2F5E2E2E2E2E2E2F5F5F5F5F5F5F5F5F5F5F5F5F5F5F5F5F5F5F5F5F5F5F5F5F5F5F5F5F5F5F5F5F5F5F5F5F5F5F5F5F5F5F5F5F5F5F5F5F5F5F5F5F5F5F5F5F5F5F5F5F5F5F5F5F5F5F5F5F5F5F5F5F5F5F5F5F5E2E2E2E2E2E2E2E2E2F5E2F5E2E2F5F5E2E2F5E2F5E2E2E2F5E2E2E2E2E2E2F5E2E2E2E2E2F5F5
310
E2E2E2E2E2F5E2E2E2E2E2E2F5E2E2E2E2E2E2F5E2E2E2E2E2E2F5F5E2F5E2F5E2E2E2E2E2E2E2E2E2F5F5E2E2E2F5F5E2E2E2E2F5E2E2E2F5F5E2F5E2E2E2F5E2E2E2F5E2E2E2E2E2E2E2E2E2E2F5E2F5E2E2F5F5E2E2F5E2F5E2E2E2F5E2E2E2E2E2E2F5E2E2E2E2E2F5F5E2E2E2E2E2F5E2E2E2E2E2E2F5E2E2E2E2E2E2
310
F5E2E2E2E2E2E2F5F5E2F5F5E2E2E2E2F5E2F5E2E2F5E2E2E2E2E2E2E2E2E2E2E2E2E2F5E2F5E2F5E2F5F5E2E2E2E2E2F5E2E2E2E2E2E2E2E2E2E2F5E2F5E2E2F5F5E2E2F5E2F5E2E2E2F5E2E2E2E2E2E2F5E2E2E2E2E2F5F5E2E2E2E2E2F5E2E2E2E2E2E2F5E2E2E2E2E2E2F5E2E2E2E2E2F5F5F5F5F5E2E2E2F5E2E2E2F5
310
E2E2E2E2E2F5E2E2F5E2E2E2F5F5E2E2E2E2E2E2F5E2E2E2E2E2E2E2E2F5E2E2E2E2E2E2E2E2E2E2F5E2F5E2E2F5F5E2E2F5E2F5E2E2E2F5F5E2E2E2E2E2F5F5F5F5F5F5F5F5F5F5F5F5F5F5F5F5F5F5F5F5F5F5F5F5F5F5F5F5F5F5F5F5F5F5E2F5F5F5F5E2E2E2F5F5F5E2E2E2E2E2E2F5E2E2F5E2E2F5F5F5E2E2E2E2F5
310
E2F5F5F5F5F5F5F5F5F5F5F5F5F5F5F5F5F5F5F5F5F5E2F5E2E2F5F5E2E2F5E2F5E2E2E2F5F5E2E2E2E2E2E2E2E2F5E2E2E2E2E2E2F5E2E2E2E2E2E2F5E2E2E2E2E2E2F5E2E2E2E2E2F5F5E2F5E2F5E2F5E2E2E2E2E2F5F5E2E2E2F5E2E2E2E2F5E2E2E2E2F5E2E2E2E2F5F5F5F5F5F5F5F5F5F5F5F5F5F5F5F5F5F5F5F5F5
310
F5F5F5E2F5E2E2F5F5E2E2F5E2F5E2E2E2F5F5F5F5F5F5F5F5F5F5F5F5F5F5F5F5F5F5F5F5F5F5F5F5F5F5F5F5F5F5F5F5F5F5F5F5F5F5F5F5F5F5F5F5F5F5F5F5F5F5F5F5F5F5F5F5F5F5F5F5F5F5F5F5F5F5F5F5F5F5F5F5F5E2F5F5F5F5F5F5F5F5F5F5F5F5F5F5F5F5F5E2E2F5E2F5E2E2F5F5E2E2F5E2F5E2E2E2E2E2
310
E2E2E2E2E2F5F5F5F5F5F5F5F5F5F5F5F5F5F5F5F5F5F5F5F5F5F5F5F5F5F5F5F5F5F5F5F5F5F5E2F5E2F5E2E2F5E2E2E2F5F5E2F5E2E2E2F5E2E2F5F5E2E2E2F5E2F5E2E2E2E2E2F5F5E2E2E2F5F5F5F5F5F5F5E2E2E2E2E2E2E2F5E2F5E2E2F5F5E2E2E2E2F5E2E2E2E2E2E2E2E2E2E2F5E2E2E2E2E2F5F5E2E2E2E2E2F5
310
E2E2E2E2E2E2F5E2E2E2E2E2E2F5E2E2E2E2E2F5F5F5F5F5F5E2E2E2E2F5E2E2E2E2E2E2E2E2F5F5F5F5E2F5E2E2E2E2E2E2F5E2E2F5F5E2E2E2E2E2E2F5E2E2E2E2E2E2E2E2E2E2F5E2E2E2E2F5F5E2E2E2E2F5E2E2E2E2E2E2E2E2E2E2F5E2E2E2E2E2F5F5E2E2E2E2E2F5E2E2E2E2E2E2F5E2E2E2E2E2E2F5E2E2E2E2F5
310
E2F5F5E2F5F5E2E2E2E2F5F5E2E2E2E2F5E2E2E2F5E2E2E2E2E2E2E2F5E2E2E2E2E2E2E2E2F5E2E2E2E2F5E2E2E2E2E2E2E2E2E2E2F5E2E2E2E2F5F5E2E2E2E2F5E2E2E2E2E2E2E2E2E2E2F5F5F5F5F5F5F5F5F5F5F5F5F5F5F5F5F5F5F5F5F5F5F5F5F5F5F5F5F5F5F5F5F5F5F5F5F5F5F5F5F5F5F5F5F5F5F5F5F5F5F5F5
310
F5F5F5F5F5F5F5F5F5F5F5F5F5F5F5F5F5F5F5F5F5F5F5F5F5E2E2E2E2E2E2E2E2E2F5E2E2E2E2F5F5E2E2E2E2F5E2E2E2E2E2E2E2E2E2E2E2E2E2E2E2E2E2E2E2E2E2F5F5F5F5F5F5F5F5F5F5F5F5F5F5F5F5F5E2E2E2F5E2E2E2F5E2E2E2E2E2E2E2E2E2E2E2E2E2E2E2E2E2E2E2E2E2E2E2E2E2E2E2E2E2E2E2E2E2E2E2
310
E2E2E2E2E2E2E2E2E2E2E2E2E2E2E2F5E2E2E2E2F5F5E2E2E2E2F5E2E2E2E2E2E2E2E2E2E2E2E2E2E2E2E2E2E2E2E2E2F5F5F5F5F5F5F5F5F5F5F5F5F5F5F5F5F5E2E2F5E2E2E2E2F5E2E2E2E2E2E2E2E2E2E2E2E2E2E2E2E2E2E2E2E2E2E2E2E2E2E2E2E2E2E2E2E2E2E2E2E2E2E2E2E2E2E2E2E2E2E2E2E2E2E2F5E2E2E2
310
E2F5F5E2E2E2E2F5E2E2E2E2E2E2E2E2E2E2E2E2E2E2E2E2E2E2E2E2E2E2F5F5F5F5F5F5F5F5F5F5F5F5F5F5F5F5F5F5E2E2E2E2E2F5E2E2E2E2E2E2E2E2E2E2E2E2E2E2E2E2E2E2E2E2E2E2E2E2E2E2E2E2E2E2E2E2E2E2E2E2E2E2E2E2E2E2E2E2E2E2E2E2E2E2F5E2E2E2E2F5F5E2E2E2E2F5E2E2E2E2E2E2E2E2E2E2E2
310
E2E2E2E2E2E2E2E2E2E2E2E2E2E2E2E2E2E2E2E2E2E2E2E2E2E2E2E2E2E2E2E2E2E2F5E2E2E2E2E2E2E2E2E2E2E2E2E2E2E2E2E2E2E2E2E2E2E2E2E2E2E2E2E2E2E2E2E2E2E2E2E2E2E2E2E2E2E2E2E2E2E2E2E2E2F5E2E2E2E2F5F5E2E2E2E2F5E2E2E2E2E2E2E2E2E2E2E2E2E2E2E2E2E2E2E2E2E2E2E2E2E2E2E2E2E2E2
310
E2E2E2E2E2E2E2E2E2E2E2E2E2E2E2F5E2E2E2E2E2E2E2E2E2E2E2E2E2E2E2E2E2E2E2E2E2E2E2E2E2E2E2E2E2E2E2E2E2E2E2E2E2E2E2E2E2E2E2E2E2E2E2E2E2E2F5E2E2E2E2F5F5E2E2E2E2F5E2E2E2E2E2E2E2E2E2E2E2E2E2E2E2E2E2E2E2E2E2E2E2E2E2E2E2E2E2E2E2E2E2E2E2E2E2E2E2E2E2E2E2E2E2F5E2E2E2
310
E2E2E2E2E2E2E2E2E2E2E2E2E2E2E2E2E2E2E2E2E2E2E2E2E2E2E2E2E2E2E2E2E2E2E2E2E2E2E2E2E2E2E2E2E2E2E2F5E2E2E2E2F5F5E2E2E2E2F5E2E2E2E2E2E2E2E2E2E2E2E2E2E2E2E2E2E2E2E2E2E2E2E2E2E2E2E2E2E2E2E2E2E2E2E2E2E2E2E2E2E2E2E2F5F5E2E2E2E2E2E2E2E2E2E2E2E2E2E2E2E2E2E2E2E2E2E2
310
E2E2E2E2E2E2E2E2E2E2E2E2E2E2E2E2E2E2E2E2E2E2E2E2E2E2E2E2F5E2E2E2E2F5F5E2E2F5E2F5E2E2E2E2E2E2E2E2E2E2E2E2E2E2E2E2E2E2E2E2E2E2E2E2E2E2E2E2E2E2E2E2E2E2E2E2E2E2E2E2E2E2E2E2F5F5E2E2E2E2E2E2E2E2E2E2E2E2E2E2E2E2E2E2E2E2E2E2E2E2E2E2E2E2E2E2E2E2E2E2E2E2E2E2E2E2E2
310
E2E2E2E2E2E2E2E2E2F5E2F5E2E2F5F5E2E2F5E2F5E2E2E2E2E2E2E2E2E2E2E2E2E2E2E2E2E2E2E2E2E2E2E2E2E2E2E2E2E2E2E2E2E2E2E2E2E2E2E2E2E2E2E2E2F5F5E2E2E2E2E2E2E2E2E2E2E2E2E2E2E2E2E2E2E2E2E2E2E2E2E2E2E2E2E2E2E2E2E2E2E2E2E2E2E2E2E2E2E2E2E2E2E2E2E2E2F5E2F5E2E2F5F5E2E2F5
310
E2F5E2E2E2E2E2E2E2E2E2E2E2E2E2E2E2E2E2E2E2E2E2E2E2E2E2E2E2E2E2E2E2E2E2E2E2E2E2E2E2E2E2E2E2E2E2E2E2E2E2E2E2E2E2E2E2E2E2E2E2E2E2E2E2E2E2E2E2E2E2E2E2E2E2E2E2E2E2E2E2E2E2E2E2E2E2E2E2E2E2E2E2E2E2E2E2E2F5E2F5E2E2F5F5E2E2F5E2F5E2E2E2E2E2E2E2E2E2E2E2E2E2E2E2E2E2
310
E2E2E2E2E2E2E2E2E2E2E2E2E2E2E2E2E2E2E2E2E2E2E2E2E2E2E2E2E2E2E2E2E2E2E2E2E2E2E2E2E2E2E2E2E2E2E2E2E2E2E2E2E2E2E2E2E2E2E2E2E2E2E2E2E2E2E2E2E2E2E2E2E2E2E2E2E2E2E2F5E2F5E2E2F5F5E2E2F5E2F5E2E2E2E2E2E2E2E2E2E2E2E2E2E2E2E2E2E2E2E2E2E2E2E2E2E2E2E2E2E2E2E2E2E2E2E2
310
E2E2E2E2E2E2E2E2E2E2E2E2E2E2E2E2E2E2E2E2E2E2E2E2E2E2E2E2E2E2E2E2E2E2E2E2E2E2E2E2E2E2E2E2E2E2E2E2E2E2E2E2E2E2E2E2E2E2E2E2F5E2F5E2E2F5F5E2E2F5E2F5E2E2E2E2E2E2E2E2E2E2E2E2E2E2E2E2E2E2E2E2E2E2E2E2E2E2E2E2E2E2E2E2E2E2E2E2E2E2E2E2E2E2E2E2E2E2E2E2E2E2E2E2E2E2E2
310
E2E2E2E2E2E2E2E2E2E2E2E2E2E2E2E2E2E2E2E2E2E2E2E2E2E2E2E2E2E2E2E2E2E2E2E2E2E2E2E2E2F5E2F5E2E2F5F5E2E2F5E2F5E2E2E2E2E2E2E2E2E2E2E2E2E2E2E2E2E2E2E2E2E2E2E2E2E2E2E2E2E2E2E2E2E2E2E2E2E2E2E2E2E2E2E2E2E2E2E2E2E2E2E2E2E2E2E2E2E2E2E2E2E2E2E2E2E2E2E2E2E2E2E2E2E2E2
310
E2E2E2E2E2E2E2E2E2E2E2E2E2E2E2E2E2E2E2E2E2E2F5E2F5E2E2F5F5E2E2F5E2F5E2E2E2E2E2E2E2E2E2E2E2E2E2E2E2E2E2E2E2E2E2E2E2E2E2E2E2E2E2E2E2E2E2E2E2E2E2E2E2E2E2E2E2E2E2E2E2E2E2E2E2E2E2E2E2E2E2E2E2E2E2E2E2E2E2E2E2E2E2E2E2E2E2E2E2E2E2E2E2E2E2E2E2E2E2E2E2E2E2E2E2E2E2
310
E2E2E2F5E2F5E2E2F5F5E2E2F5E2F5E2E2E2E2E2E2E2E2E2E2E2E2E2E2E2E2E2E2E2E2E2E2E2E2E2E2E2E2E2E2E2E2E2E2E2E2E2E2E2E2E2E2E2E2E2E2E2E2E2E2E2E2E2E2E2E2E2E2E2E2E2E2E2E2E2E2E2E2E2E2E2E2E2E2E2E2E2E2E2E2E2E2E2E2E2E2E2E2E2E2E2E2E2E2E2E2F5E2F5E2E2F5F5E2E2F5E2F5E2E2E2E2
310
E2E2E2E2E2E2E2E2E2E2E2E2E2E2E2E2E2E2E2E2E2E2E2E2E2E2E2E2E2E2E2E2E2E2E2E2E2E2E2E2E2E2E2E2E2E2E2E2E2E2E2E2E2E2E2E2E2E2E2E2E2E2E2E2E2E2E2E2E2E2E2E2E2E2E2E2E2E2E2E2E2E2E2E2E2E2E2E2E2E2E2E2F5E2F5E2E2F5F5E2E2F5E2F5E2E2E2E2E2E2E2E2E2E2E2E2E2E2E2E2E2E2E2E2E2E2E2
310
E2E2E2E2E2E2E2E2E2E2E2E2E2E2E2E2E2E2E2E2E2E2E2E2E2E2E2E2E2E2E2E2E2E2E2E2E2E2E2E2E2E2E2E2E2E2E2E2E2E2E2E2E2E2E2E2E2E2E2E2E2E2E2E2E2E2E2E2E2E2E2E2E2F5E2F5E2E2F5F5E2E2F5E2F5E2E2E2E2E2E2E2E2E2E2E2E2E2E2E2E2E2E2E2E2E2E2E2E2E2E2E2E2E2E2E2E2E2E2E2E2E2E2E2E2E2E2
310
E2E2E2E2E2E2E2E2E2E2E2E2E2E2E2E2E2E2E2E2E2E2E2E2E2E2E2E2E2E2E2E2E2E2E2E2E2E2E2E2E2E2E2E2E2E2E2E2E2E2E2E2E2E2F5E2F5E2E2F5F5E2E2F5E2F5E2E2E2E2E2E2E2E2E2E2E2E2E2E2E2E2E2E2E2E2E2E2E2E2E2E2E2E2E2E2E2E2E2E2E2E2E2E2E2E2E2E2E2E2E2E2E2E2E2E2E2E2E2E2E2E2E2E2E2E2E2
310
E2E2E2E2E2E2E2E2E2E2E2E2E2E2E2E2E2E2E2E2E2E2E2E2E2E2E2E2E2E2E2E2E2E2E2F5E2F5E2E2F5F5E2E2F5E2F5E2E2E2E2E2E2E2E2E2E2E2E2E2E2E2E2E2E2E2E2E2E2E2E2E2E2E2E2E2E2E2E2E2E2E2E2E2E2E2E2E2E2E2E2E2E2E2E2E2E2E2E2E2E2E2E2E2E2E2E2E2E2E2E2E2E2E2E2E2E2E2E2E2E2E2E2E2E2E2E2
310
E2E2E2E2E2E2E2E2E2E2E2E2E2E2E2E2F5E2F5E2E2F5F5E2E2F5E2F5E2E2E2E2E2E2E2E2E2E2E2E2E2E2E2E2E2E2E2E2E2E2E2E2E2E2E2E2E2E2E2E2E2E2E2E2E2E2E2E2E2E2E2E2E2E2E2E2E2E2E2E2E2E2E2E2E2E2E2E2E2E2E2E2E2E2E2E2E2E2E2E2E2E2E2E2E2E2E2E2E2E2E2E2E2E2E2E2E2E2E2E2E2E2E2E2F5E2F5
310
E2E2F5F5E2E2F5E2F5E2E2E2E2E2E2E2E2E2E2E2E2E2E2E2E2E2E2E2E2E2E2E2E2E2E2E2E2E2E2E2E2E2E2E2E2E2E2E2E2E2E2E2E2E2E2E2E2E2E2E2E2E2E2E2E2E2E2E2E2E2E2E2E2E2E2E2E2E2E2E2E2E2E2E2E2E2E2E2E2E2E2E2E2E2E2E2E2E2E2E2E2E2E2E2E2F5E2F5E2E2F5F5E2E2F5E2F5E2E2E2E2E2E2E2E2E2E2
310
E2E2E2E2E2E2E2E2E2E2E2E2E2E2E2E2E2E2E2E2E2E2E2E2E2E2E2E2E2E2E2E2E2E2E2E2E2E2E2E2E2E2E2E2E2E2E2E2E2E2E2E2E2E2E2E2E2E2E2E2E2E2E2E2E2E2E2E2E2E2E2E2E2E2E2E2E2E2E2E2E2E2E2E2E2E2F5E2F5E2E2F5F5E2E2E2E2F5E2E2E2E2E2E2E2E2E2E2E2E2E2E2E2E2E2E2E2E2E2E2E2E2E2E2E2E2E2
310
E2E2E2E2E2E2E2E2E2E2E2E2E2E2E2E2E2E2E2E2E2E2E2E2E2E2E2E2E2E2E2E2E2E2E2E2E2E2E2E2E2E2E2E2E2E2E2E2E2E2E2E2E2E2E2E2E2E2E2E2E2E2E2E2E2E2E2F5E2E2E2E2F5F5E2E2E2E2F5E2E2E2E2E2E2E2E2E2E2E2E2E2E2E2E2E2E2E2E2E2E2E2E2E2E2E2E2E2E2E2E2E2E2E2E2E2E2E2E2E2E2E2E2E2E2E2E2
310
E2E2E2E2E2E2E2E2E2E2E2E2E2E2E2E2E2E2E2E2E2E2E2E2E2E2E2E2E2E2E2E2E2E2E2E2E2E2E2E2E2E2E2E2E2E2E2E2F5E2E2E2E2F5F5E2E2E2E2F5E2E2E2E2E2E2E2E2E2E2E2E2E2E2E2E2E2E2E2E2E2E2E2E2E2E2E2E2E2E2E2E2E2E2E2E2E2E2E2E2E2E2E2E2E2E2E2E2E2E2E2E2E2E2E2E2E2E2E2E2E2E2E2E2E2E2E2
310
E2E2E2E2E2E2E2E2E2E2E2E2E2E2E2E2E2E2E2E2E2E2E2E2E2E2E2E2E2F5E2E2E2E2F5F5E2E2E2E2F5E2E2E2E2E2E2E2E2E2E2E2E2E2E2E2E2E2E2E2E2E2E2E2E2E2E2E2E2E2E2E2E2E2E2E2E2E2E2E2E2E2E2E2E2E2E2E2E2E2E2E2E2E2E2E2E2E2E2E2E2E2E2E2E2E2E2E2E2E2E2E2E2E2E2E2E2E2E2E2E2E2E2E2E2E2E2
310
E2E2E2E2E2E2E2E2E2E2F5E2E2E2E2F5F5E2E2E2E2F5F5F5F5F5F5F5F5F5F5F5F5F5F5F5F5F5F5F5F5F5F5F5F5F5F5F5F5F5F5F5F5F5F5F5F5F5F5F5F5F5F5F5F5F5F5F5F5F5F5F5F5F5F5F5F5F5F5F5F5F5F5F5F5F5F5F5F5F5F5F5F5F5F5F5F5F5F5F5F5F5F5F5F5F5F5F5F5F5F5F5F5F5F5F5F5F5F5E2E2E2E2F5F5E2E2
310
E2E2E2E2E2E2E2E2E2E2E2E2E2E2E2E2E2E2E2E2E2E2E2E2E2E2E2E2E2E2E2E2E2E2E2E2E2E2E2E2E2E2E2E2E2E2E2E2E2E2E2E2E2E2E2E2E2E2E2E2E2E2E2E2E2E2E2E2E2E2E2E2E2E2E2E2E2E2E2E2E2E2E2E2E2E2E2E2E2E2E2E2E2E2E2E2E2E2E2E2E2E2E2E2F5F5E2E2E2E2E2E2E2E2E2E2E2E2E2E2E2E2E2E2E2E2E2
310
E2E2E2E2E2E2E2E2E2E2E2E2E2E2E2E2E2E2E2E2E2E2E2E2E2E2E2E2E2E2E2E2E2E2E2E2E2E2E2E2E2E2E2E2E2E2E2E2E2E2E2E2E2E2E2E2E2E2E2E2E2E2E2E2E2E2E2E2E2E2E2E2E2E2E2E2E2E2E2E2E2E2E2E2E2F5F5E2E2E2E2E2E2E2E2E2E2E2E2E2E2E2E2E2E2E2E2E2E2E2E2E2E2E2E2E2E2E2E2E2E2E2E2E2E2E2E2
310
E2E2E2E2E2E2E2E2E2E2E2E2E2E2E2E2E2E2E2E2E2E2E2E2E2E2E2E2E2E2E2E2E2E2E2E2E2E2E2E2E2E2E2E2E2E2E2E2E2E2E2E2E2E2E2E2E2E2E2E2E2E2E2E2E2E2F5F5E2E2E2E2E2E2E2E2E2E2E2E2E2E2E2E2E2E2E2E2E2E2E2E2E2E2E2E2E2E2E2E2E2E2E2E2E2E2E2E2E2E2E2E2E2E2E2E2E2E2E2E2E2E2E2E2E2E2E2
310
E2E2E2E2E2E2E2E2E2E2E2E2E2E2E2E2E2E2E2E2E2E2E2E2E2E2E2E2E2E2E2E2E2E2E2E2E2E2E2E2E2E2E2E2E2E2E2F5F5E2E2F5E2E2E2E2E2E2E2E2E2E2E2E2E2E2E2E2E2E2E2E2E2E2E2E2E2E2E2E2E2E2E2E2E2E2E2E2E2E2E2E2E2E2E2E2E2E2E2E2E2E2E2E2E2E2E2E2E2E2E2E2E2E2E2E2E2E2E2E2E2E2E2E2E2E2E2
310
E2E2E2E2E2E2E2E2E2E2E2E2E2E2E2E2E2E2E2E2E2E2E2E2E2F5E2E2F5F5E2E2F5E2E2E2E2E2E2E2E2E2E2E2E2E2E2E2E2E2E2E2E2E2E2E2E2E2E2E2E2E2E2E2E2E2E2E2E2E2E2E2E2E2E2E2E2E2E2E2E2E2E2E2E2E2E2E2E2E2E2E2E2E2E2E2E2E2E2E2E2E2E2E2E2E2E2E2E2E2E2E2E2E2E2E2E2E2E2E2E2E2E2E2E2E2E2
310
E2E2E2E2E2E2F5E2E2F5F5E2E2F5E2E2E2E2E2E2E2E2E2E2E2E2E2E2E2E2E2E2E2E2E2E2E2E2E2E2E2E2E2E2E2E2E2E2E2E2E2E2E2E2E2E2E2E2E2E2E2E2E2E2E2E2E2E2E2E2E2E2E2E2E2E2E2E2E2E2E2E2E2E2E2E2E2E2E2E2E2E2E2E2E2E2E2E2E2E2E2E2E2E2E2E2E2E2E2E2E2E2E2E2F5E2E2F5F5E2E2F5E2E2E2E2E2
310
E2E2E2E2E2E2E2E2E2E2E2E2E2E2E2E2E2E2E2E2E2E2E2E2E2E2E2E2E2E2E2E2E2E2E2E2E2E2E2E2E2E2E2E2E2E2E2E2E2E2E2E2E2E2E2E2E2E2E2E2E2E2E2E2E2E2E2E2E2E2E2E2E2E2E2E2E2E2E2E2E2E2E2E2E2E2E2E2E2E2E2E2E2E2E2F5E2E2F5F5E2E2F5E2E2E2E2E2E2E2E2E2E2E2E2E2E2E2E2E2E2E2E2E2E2E2E2
310
E2E2E2E2E2E2E2E2E2E2E2E2E2E2E2E2E2E2E2E2E2E2E2E2E2E2E2E2E2E2E2E2E2E2E2E2E2E2E2E2E2E2E2E2E2E2E2E2E2E2E2E2E2E2E2E2E2E2E2E2E2E2E2E2E2E2E2E2E2E2E2E2E2E2E2E2F5E2E2F5F5E2E2F5E2E2E2E2E2E2E2E2E2E2E2E2E2E2E2E2E2E2E2E2E2E2E2E2E2E2E2E2E2E2E2E2E2E2E2E2E2E2E2E2E2E2E2
310
E2E2E2E2E2E2E2E2E2E2E2E2E2E2E2E2E2E2E2E2E2E2E2E2E2E2E2E2E2E2E2E2E2E2E2E2E2E2E2E2E2E2E2E2E2E2E2E2E2E2E2E2E2E2E2E2E2F5E2E2F5F5E2E2F5E2E2E2E2E2E2E2E2E2E2E2E2E2E2E2E2E2E2E2E2E2E2E2E2E2E2E2E2E2E2E2E2E2E2E2E2E2E2E2E2E2E2E2E2E2E2E2E2E2E2E2E2E2E2E2E2E2E2E2E2E2E2
310
E2E2E2E2E2E2E2E2E2E2E2E2E2E2E2E2E2E2E2E2E2E2E2E2E2E2E2E2E2E2E2E2E2E2E2E2E2E2F5E2E2F5F5E2E2F5E2E2E2E2E2E2E2E2E2E2E2E2E2E2E2E2E2E2E2E2E2E2E2E2E2E2E2E2E2E2E2E2E2E2E2E2E2E2E2E2E2E2E2E2E2E2E2E2E2E2E2E2E2E2E2E2E2E2E2E2E2E2E2E2E2E2E2E2E2E2E2E2E2E2E2E2E2E2E2E2E2
310
E2E2E2E2E2E2E2E2E2E2E2E2E2E2E2E2E2E2E2F5E2E2F5F5E2E2F5F5F5F5F5F5F5F5F5E2E2E2E2E2E2E2E2E2F5F5F5F5F5F5F5F5F5F5F5F5F5F5F5F5E2E2E2E2E2E2E2E2E2F5F5F5F5F5F5F5F5F5F5F5F5F5F5F5F5E2E2E2E2E2E2E2E2E2F5F5F5F5F5F5F5F5F5F5F5F5F5F5F5F5E2E2E2E2E2E2E2E2E2F5F5F5F5F5F5F5F5
310
F5E2E2F5F5E2E2E2E2E2E2E2E2E2E2E2E2E2E2E2E2E2E2E2E2E2E2E2E2E2E2E2E2E2E2E2E2E2E2E2E2E2E2E2E2E2E2E2E2E2E2E2E2E2E2E2E2E2E2E2E2E2E2E2E2E2E2E2E2E2E2E2E2E2E2E2E2E2E2E2E2E2E2E2E2E2E2E2E2E2E2E2E2E2E2E2E2E2E2E2E2E2E2E2E2E2E2E2E2E2E2F5F5E2E2E2E2E2E2E2E2E2E2E2E2E2E2
310
E2E2E2E2E2E2E2E2E2E2E2E2E2E2E2E2E2E2E2E2E2E2E2E2E2E2E2E2E2E2E2E2E2E2E2E2E2E2E2E2E2E2E2E2E2E2E2E2E2E2E2E2E2E2E2E2E2E2E2E2E2E2E2E2E2E2E2E2E2E2E2E2E2E2E2E2E2E2E2E2E2E2E2E2E2E2E2E2E2E2E2E2F5F5E2E2E2E2E2E2E2E2E2E2E2E2E2E2E2E2E2E2E2E2E2E2E2E2E2E2E2E2E2E2E2E2E2
310
E2E2E2E2E2E2E2E2E2E2E2E2E2E2E2E2E2E2E2E2E2E2E2E2E2E2E2E2E2E2E2E2E2E2E2E2E2E2E2E2E2E2E2E2E2E2E2E2E2E2E2E2E2E2E2E2E2E2E2E2E2E2E2E2E2E2E2E2E2E2E2E2E2F5F5F5F5F5F5F5F5F5F5F5F5F5F5F5F5F5F5F5F5F5F5F5F5F5F5F5F5F5F5F5F5F5F5F5F5F5F5F5F5F5F5F5F5F5F5F5F5F5F5F5F5F5F5
310
F5F5F5F5F5F5F5F5F5F5F5F5F5F5F5F5F5F5F5F5F5F5F5F5F5F5F5F5F5F5F5F5F5F5F5F5F5F5F5F5F5F5F5F5F5F5F5F5F5F5F5F5F5F5F5
  0
ENDSEC
  0
EOF
